#TITLE:Painless;
#SUBTITLE:;
#ARTIST:The Berzerker;
#TITLETRANSLIT:;
#SUBTITLETRANSLIT:;
#ARTISTTRANSLIT:;
#CREDIT:;
#BANNER:Painless-BANNER.png;
#BACKGROUND:Painless-BG.png;
#LYRICSPATH:;
#CDTITLE:!BMF-cdtitle.png;
#MUSIC:The Berzerker - Painless.mp3;
#OFFSET:0.000;
#SAMPLESTART:99.945;
#SAMPLELENGTH:12.000;
#SELECTABLE:YES;
#BPMS:0.000=200.000;
#STOPS:;
#BGCHANGES:;
// cache tags:
#FIRSTBEAT:17.000;
#LASTBEAT:627.000;
#SONGFILENAME:Songs/hard shit/[B.M.F.]Painless/[B.M.F.]Painless.sm;
#HASMUSIC:1;
#HASBANNER:1;
#MUSICLENGTH:196.232;
// end cache tags

//---------------dance-single - Blank----------------
#NOTES:
     dance-single:
     Blank:
     Medium:
     14:
     1.000,1.000,1.000,0.820,1.000,1817.000,515.000,161.000,0.000,142.000:

0000
0000
0000
0000
,
0000
0000
0000
0000
,
0000
0000
0000
0000
,
0000
0000
0000
0000
,
0000
0000
1100
1000
1000
1000
0011
0001
,
0001
0001
1111
1000
0100
0010
0001
1111
,
1000
1000
0110
0100
0001
0100
1000
1111
,
0001
0001
0111
0001
1111
1000
1000
0001
,
0010
0100
0100
1111
0100
0100
0100
1111
,
1000
0100
1000
0100
1000
0100
0010
0001
0010
0001
0100
0010
0100
0010
0100
0001
,
1000
0000
0000
0001
0000
0000
1100
0000
0000
0000
0110
0000
0000
0000
0011
0000
0000
0000
0000
0000
0000
0000
0000
0000
2200
0000
0000
0000
0000
0000
0000
0000
0000
0000
0000
0000
0000
0000
0000
0000
0000
0000
0000
0000
0000
0000
0000
0000
,
0000
0000
0000
0000
,
0000
0000
0000
0000
,
0000
0000
0000
0000
3301
0010
0100
1000
0001
0010
0100
1010
0100
0010
0001
0010
,
0100
1000
0010
1000
0100
0010
0001
0010
1100
0010
0001
0100
0010
1000
0010
0100
,
1001
0010
0100
1000
0001
0010
0100
1000
0100
0010
0001
0010
0100
0001
0010
1000
,
0100
1010
0100
0010
0001
0010
0101
1000
0100
0010
1001
0100
1000
0100
1000
0100
,
1000
0100
1000
0100
1000
0100
1000
0100
1000
0100
1000
0100
1000
0100
1000
0100
,
1000
0100
1000
0100
0010
0100
0010
0100
0010
0100
0010
0100
0010
0100
0010
0100
,
0010
0000
0000
0100
0000
0000
2010
0000
0000
0000
0000
0000
0000
0000
3210
0000
0000
0000
0000
0000
0000
0000
0000
0000
0321
0000
0000
0000
0000
0000
0000
0000
0030
0000
0000
0000
2100
0000
0000
0000
0000
0000
0000
0000
0000
0000
0000
0000
,
3210
0000
0000
0000
0000
0000
0321
0000
0000
0000
0000
0000
0032
0000
0000
0210
0003
0000
2300
0000
0000
3120
0000
0000
0032
0000
0000
0213
0000
0000
0000
0000
0000
0000
0000
0000
0000
0000
0000
0000
0000
0000
0000
0000
0000
0000
0000
0000
,
0320
0000
0000
0000
0000
0000
0000
0000
0030
0020
0000
0000
0000
0000
0000
0000
0030
0020
0000
0000
0000
0000
0000
0000
0030
0000
0000
0000
0000
0000
0000
0000
0000
0000
0000
0000
2000
0000
0000
0000
0000
0000
0000
0000
3002
0000
0000
0000
,
0000
0000
0000
0000
0000
0000
0000
0000
0023
0000
0000
0000
0000
0000
0000
0000
0230
0000
0000
0000
0000
0000
0000
0000
0300
0000
0000
0000
0000
0000
0000
0000
0000
0000
0000
0000
1001
0000
0000
0100
0000
0000
1000
0000
0000
0100
0000
0000
,
1000
0100
2020
0000
3131
1000
0100
1000
0100
1000
0120
0000
0000
0000
0231
0000
,
0000
0000
2301
0000
0000
0000
3110
0001
1000
0001
1000
0001
2020
0000
3131
0010
,
1000
0000
0000
0010
0000
0000
1000
0000
0000
0010
0000
0000
2002
0000
0000
0000
0000
0000
3113
0000
0000
0000
0000
0000
1100
0000
0000
0000
0110
0000
0000
0000
0011
0000
0000
0000
0000
0000
0000
0000
0000
0000
1100
0000
0000
0000
1100
0000
,
0000
0000
1100
0000
0000
0000
1100
0000
0000
0000
0210
0000
0000
0000
0000
0000
0000
0000
0000
0000
0321
0000
0000
0000
0000
0000
0000
0000
0000
0000
0000
0000
0000
0000
0000
0000
0030
0000
0000
1000
0000
0000
0100
0000
0000
1000
0000
0000
,
0100
0010
0001
0010
0100
1000
0100
1010
0001
0100
0010
1000
0001
0100
0010
1000
,
0010
0100
0001
1000
0010
0100
1001
0010
0100
1001
0010
0100
1001
0100
1010
0101
,
1000
0100
1000
0100
1000
0100
2002
0000
3113
0001
0100
0001
0100
0001
2200
0000
,
0000
0000
3321
0000
0000
0132
0000
0000
1013
0100
0001
0100
0001
0100
0022
0000
,
1133
0000
0000
0010
0000
0000
0100
0000
0000
0010
0000
0000
0100
0000
0000
0010
0000
0000
0102
0000
0000
0000
0000
0000
0000
0000
0000
0000
0000
0000
0003
0000
1001
0000
0000
0000
1010
0000
0000
0000
1100
0000
0000
0000
0000
0100
0000
0000
,
1000
0100
1000
0100
1000
0100
1000
0100
1000
0100
1000
0100
1000
0100
1000
0100
,
1000
0100
1000
0100
1000
0100
1000
0100
1000
0100
1010
0100
0011
0100
1010
0100
,
0011
0100
1010
0100
0011
0100
1010
0100
0011
0100
1010
0100
0022
0000
0000
0033
,
0000
0000
2200
0000
0000
0000
0000
0000
3300
2200
0000
0000
3300
2200
0000
3300
,
2200
0000
3300
2200
0000
3300
2200
0000
0000
3300
2200
0000
3300
2200
0000
0000
,
3300
2200
0000
3300
2200
0000
3300
2200
0000
0000
3300
2200
0000
0000
0000
0000
,
0000
3311
1000
0010
1000
0010
1000
0010
0202
0000
1313
0001
0010
0001
0010
0001
,
0010
0001
0220
0000
0000
0000
2331
0000
0000
3102
0000
0000
1013
0100
1000
0100
,
1000
0000
0000
0100
0000
0000
2020
0000
0000
0000
0000
0000
3131
0000
0000
0010
0000
0000
1000
0000
0000
0010
0000
0000
1000
0000
0000
0010
0000
0000
1001
0000
0000
0000
0000
0000
0000
0000
0000
0000
0000
0000
1100
0000
0000
0000
0110
0000
,
0000
0011
0000
0000
0000
0000
2000
0110
0000
0110
0000
0110
0000
0110
0000
0110
0000
0110
0000
0110
0000
0110
0000
0110
,
0000
0000
0000
0000
0000
0110
0000
0110
0000
0110
0000
0110
0000
0110
0000
0110
0000
0110
0000
0110
0000
0000
0000
0000
,
0000
0110
0000
0110
0000
0110
0000
0110
0000
0110
0000
0110
0000
0110
0000
0110
0000
0000
0000
0000
0000
0110
0000
0110
,
0000
0110
0000
0110
0000
0110
0000
0110
3000
0000
0000
0000
0220
0000
0000
0000
0000
0000
0000
0000
0000
0000
0000
0000
,
0330
0000
0000
0000
0000
0000
0200
0000
0000
0000
0320
0000
0000
0000
0032
0000
0000
0000
1003
0100
0010
0001
1000
0100
,
0010
0001
1000
0200
0000
0000
0310
0001
1000
0100
0010
0001
1000
0100
0010
0001
2000
0000
0000
0000
0100
3010
0001
1000
,
0200
0000
0000
0310
0001
1000
0100
0010
0002
0000
0220
0000
0003
0000
0000
0000
0000
0000
1001
0000
1001
0000
1001
0000
,
1331
1001
1001
1001
1001
0000
1001
1001
1001
1001
1001
1001
,
1001
1001
1001
1001
1001
1001
1001
1001
1001
1001
1001
1001
,
1001
1001
1001
1001
1001
1001
1001
1001
1001
2002
0000
0000
,
0000
0000
0000
0000
0000
0000
0000
0000
0000
0000
0000
0000
3103
0000
0000
0000
0100
0000
0000
0000
1000
0100
1000
0100
,
0010
0001
1000
0100
0010
0001
1000
0100
0010
1001
0100
0010
0001
1000
0100
0010
0001
1000
0100
1000
0100
0010
0001
1000
,
0100
0010
0001
1000
0100
0010
0001
1000
0100
0010
0001
1000
0100
1000
0100
0010
0001
1000
0100
0010
0001
1000
0100
0010
,
0001
0010
0001
0010
0100
1000
0001
0010
0100
1000
0100
0010
0001
0100
1000
0100
1000
0100
1000
0100
0010
0001
0000
0000
,
1100
0010
0001
0010
0001
0010
0001
0010
0001
0010
0001
0010
0001
0010
0001
0010
,
0001
0010
0001
0010
0001
0010
0001
1010
0001
0010
0101
0010
1000
0010
1000
0010
,
1000
0010
1000
0010
1000
0010
1000
0010
1000
0010
1000
0010
1000
0010
1000
0011
,
1000
0010
1100
0010
0100
0010
0100
0010
0100
0010
0100
0010
0100
0010
0100
0010
,
0100
0010
0100
0010
0100
0010
0100
0010
0100
1010
0100
0010
0101
1000
0001
1000
,
0001
1000
0001
1000
0001
1000
0001
1000
0001
1000
0001
1000
0001
1000
0001
1000
,
0001
1100
0001
1000
0011
0100
1000
0100
1000
0100
1000
0100
1000
0100
1000
0100
,
1000
0100
1000
0100
1000
0100
1000
0100
1000
0100
1000
0101
1000
0100
1010
0100
,
0001
0100
0001
0100
0001
0100
0001
0100
0001
0100
0001
0100
0001
0100
0001
0100
,
0001
0100
0001
1100
0001
0100
0011
0100
0010
0100
0010
0100
0010
0100
0010
0100
,
0010
0100
0010
0100
0010
0100
0010
0100
0010
0100
0010
0100
0010
0101
0010
0100
,
1001
0100
0010
0001
1000
0100
0010
0001
1000
0100
0010
0001
1000
0100
0010
0001
,
1000
0000
0000
0100
0000
0000
0010
0000
0000
0001
0000
0000
1000
0000
0000
0110
0000
0000
0001
0000
0000
1000
0000
0000
0101
0000
0000
0000
0000
0000
1100
0000
0000
0000
1100
0000
0000
0000
1100
0000
0000
0000
1100
0000
0000
0000
1100
0000
,
0000
1100
0000
1100
0000
0000
0000
0000
0000
1100
0000
1100
0000
1100
0000
1100
0000
1100
0000
1100
0000
1100
0000
0000
,
0000
0000
0000
0110
0000
0110
0000
0110
0000
0110
0000
0110
0000
0110
0000
0110
0000
1100
0000
0110
0000
0110
0000
0110
,
0000
0110
0000
0110
0000
0110
0000
0000
0110
0000
0000
0000
0110
0000
0000
0011
0000
0011
0000
0011
0000
0011
0000
0011
,
0000
0011
0000
0011
0000
1100
0000
0000
0000
0000
0000
0011
0000
0011
0000
0011
0000
0011
0000
0011
0000
0011
0000
0011
,
0000
0011
0000
0011
0000
0000
0000
0000
1100
0000
1100
0000
1100
0000
1100
0000
1100
0000
1100
0000
1100
0000
0000
0000
,
0000
1100
1100
1100
1100
1100
1100
1100
0000
0000
0110
0110
,
0110
0110
0110
0110
0110
1100
0110
0110
0110
0110
0110
0110
,
0000
0000
0110
0000
0000
0000
0000
0000
0000
0000
0110
0000
1000
0000
0000
0100
0000
0000
1000
0000
0000
0100
0000
0000
1000
0000
0000
0100
0000
0000
1000
0000
0000
0100
0000
0000
0010
0000
0000
0001
0000
0000
0010
0000
0000
0100
0000
0000
,
0010
1000
0010
0100
0010
0100
0001
0100
0010
1000
0100
0010
0001
0010
0100
0001
,
0010
0100
1000
0100
0010
0001
0010
0001
0100
0010
1000
0001
0010
0100
1000
0010
,
0100
0001
0010
1000
0010
0100
0001
0010
0100
1000
0100
0010
0001
1000
0010
1000
,
0100
0001
0010
0100
1000
0010
0100
0001
0010
0100
1000
0100
0010
0001
0100
0010
,
1000
0001
0100
1000
0010
0100
1000
0010
0100
1000
0001
0010
0100
1000
0100
0010
,
0001
0010
0100
0001
0010
1000
0110
0001
1010
0100
1010
0100
1001
0100
0011
1000
,
0011
0100
1001
0010
0101
0010
1100
0010
0101
1000
0011
1000
0100
0010
0001
1000
,
0100
0000
0000
0010
0000
0000
0001
0000
0000
1000
0000
0000
0100
0000
0000
0010
0000
0000
0001
0000
0000
0100
0000
0000
0010
0000
0000
1000
0100
0000
0001
0000
1000
0100
0001
0000
0010
0000
0100
1000
0010
0000
0001
0000
1000
0000
0100
0000
,
0010
0000
0001
0000
1000
0000
0010
0000
0001
0000
0100
0000
1010
0000
0000
0100
0000
0000
1010
0000
0000
0001
0000
0000
1100
0000
0000
0001
0000
0000
1100
0000
0000
0010
0000
0000
1001
0000
0000
0100
0000
0000
1001
0000
0000
0100
0000
0000
,
1010
0001
1010
0001
1100
0001
0110
1000
0101
0010
1100
0001
0110
0001
1000
0100
,
0010
0000
0000
0001
0000
0000
1000
0000
0001
0100
0010
0000
0010
0000
1000
0001
0100
0000
1000
0000
0010
0001
1000
0000
0100
0000
0001
0010
0100
0000
1000
0000
0010
0001
1000
0000
0010
0000
0001
0100
1000
0000
0100
0000
0010
0000
0001
0000
,
1000
0000
0100
0000
0010
0000
0001
0000
1000
0000
0100
0000
0010
0000
0001
0000
1000
0000
0100
0000
0010
0000
0001
0000
1010
0000
0000
0000
0000
0000
0100
0000
0000
0010
0000
0000
0100
0000
0000
0010
0000
0000
0100
0000
0000
0010
0000
0000
,
0100
0010
0100
0010
0100
0010
0100
0010
0100
0010
0100
0010
0100
0010
0100
0010
,
0100
0010
0100
0010
0100
0010
0100
0010
0100
0010
0100
0010
0100
0010
0100
0010
,
0100
0010
0100
0010
0100
0010
0100
0010
0100
0010
0100
0010
0100
0010
0100
0010
,
0100
0010
0100
0010
0100
0010
0100
0010
0100
0010
0100
0010
0100
0010
0100
0010
,
0100
0010
0100
0010
0100
0010
0100
0010
0100
0010
0100
0010
0100
0010
0100
0010
,
0100
0010
0100
0010
0100
0010
0100
0000
0110
0000
0110
0000
0110
0000
0100
0000
,
0110
0000
0010
1000
0010
1000
0010
1000
0010
1000
0010
1000
0010
1000
0010
1000
,
0010
1000
0010
1000
0010
1000
0010
1000
0010
1000
0010
1000
0010
1000
0010
1000
,
0010
1000
0010
1000
0010
1000
0010
1000
0010
1000
0010
1000
0010
1000
0010
1000
,
0010
1000
0010
1000
0010
1000
0010
1000
0010
1000
0010
1000
0020
0000
0000
0000
,
0000
0000
0000
0200
,
2330
0000
0002
0000
3000
0000
0000
0000
0003
0000
0000
0000
0100
0001
0100
0001
,
0100
0001
0220
0000
1331
0010
0001
0010
0001
0010
0202
0000
0000
0000
2313
0000
,
0000
3021
0000
0000
1130
0001
0100
1000
0010
0001
2020
0000
3131
1000
0001
1000
,
0001
0000
0000
1000
0000
0000
0021
0000
0000
0000
0000
0000
0000
0000
0000
0000
0200
0000
0030
0000
0000
0000
0000
0000
0320
0000
0000
0000
0002
0000
0000
0000
0030
0000
0000
0000
1003
0000
0000
0100
0000
0000
1000
0000
0000
0100
0000
0000
,
1000
0100
2002
0000
3113
0001
0100
0001
0100
0001
2200
0000
0000
0000
3321
0000
,
0000
0132
0000
0000
1013
0100
0001
0100
0001
0100
0022
0000
1133
0010
0100
0010
,
0100
0000
0000
0010
0000
0000
0102
0000
0000
0000
0000
0000
0000
0000
0000
0000
0020
0000
0003
0000
0000
0000
0000
0000
2030
0000
0000
0000
0200
0000
0000
0000
3000
0000
0000
0000
0300
0000
0000
0000
0010
0000
0000
1000
0000
0000
0010
0000
,
0000
1000
0000
0000
0010
0000
0000
1000
0000
0000
0220
0000
0000
0000
0000
0000
1331
0000
0000
0100
0000
0000
1000
0000
0000
0100
0000
0000
1000
0000
0000
0100
0000
0000
2020
0000
0000
0000
0000
0000
0000
0000
0000
0000
0000
0000
3132
0000
,
0000
0000
0000
0000
0000
0000
0000
1203
0000
0000
0000
0000
0000
0000
0000
0000
0311
0000
0000
1000
0000
0000
0100
0000
0000
1000
0000
0000
0100
0000
0000
1000
0000
0000
0202
0000
0000
0000
0000
0000
1313
0000
0000
0001
0000
0000
1000
0000
,
0000
0001
0000
0000
1000
0000
0000
0001
0000
0000
1200
0000
0000
0000
0000
0000
0020
0000
0000
0000
0000
0000
0300
0000
2030
0000
0000
0000
0002
0000
0000
0000
3000
0000
0000
0000
0003
0000
0000
0000
0000
0000
0010
0000
0000
1000
0000
0000
,
0010
1000
0010
1000
0022
0000
1133
0001
1000
0001
1000
0001
2020
0000
0000
0000
,
3231
0000
0000
1302
0000
0000
0113
1000
0001
1000
0001
1000
0202
0000
1313
0100
,
1000
0000
0000
0100
0000
0000
1000
0000
0010
0100
0100
0000
1012
0000
0100
0000
0010
0000
0100
0000
0010
0000
0100
0000
0013
0000
0100
0000
0010
0000
0100
0000
0010
0000
0100
0000
0010
0000
0000
0000
0000
0000
0000
0000
0000
0000
0000
0000
,
0002
0110
0000
0110
0000
0110
0000
0110
0000
0110
0000
0110
0000
0110
0000
0110
0000
0110
0000
0000
0000
0000
0000
0110
,
0000
0110
0000
0110
0000
0110
0000
0110
0000
0110
0000
0110
0000
0110
0000
0000
0000
0000
0000
0110
0000
0110
0000
0110
,
0000
0110
0000
0110
0000
0110
0000
0110
0000
0110
0000
0000
0000
0000
0000
0110
0000
0110
0000
0110
0000
0110
0000
0110
,
0000
0110
0003
0000
0000
0000
0220
0000
0000
0000
0000
0000
0000
0000
0000
0000
0000
0000
0330
0000
0000
0000
0000
0000
,
0020
0000
0000
0000
0230
0000
0000
0000
2300
0000
0000
0000
3001
0010
0100
1000
0001
0010
0100
1000
0001
0020
0000
0000
,
0130
1000
0001
0010
0100
1000
0001
0010
0100
1000
0002
0000
0000
0000
0010
0103
1000
0001
0020
0000
0000
0130
1000
0001
,
0010
0100
2000
0000
0220
0000
3000
0000
0000
0000
0000
0000
1001
0000
1001
0000
1001
0000
1331
0000
1001
0000
1001
0000
,
1001
1001
0000
1001
1001
1001
1001
1001
1001
1001
1001
1001
,
1001
1001
1001
1001
1001
1001
1001
1001
1001
1001
1001
1001
,
1001
1001
1001
1001
1001
1001
2002
0000
0000
0000
0000
0000
,
0000
0000
0000
0000
0000
0000
3013
0000
0000
0000
0010
0000
0000
0000
0001
0010
0001
0010
0100
1000
0001
0010
0100
1000
,
0001
0010
0100
1001
0010
0100
1000
0001
0010
0100
1000
0001
0010
0001
0010
0100
1000
0001
0010
0100
1000
0001
0010
0100
,
1000
0001
0010
0100
1000
0001
0010
0001
0010
0100
1000
0001
0010
0100
1000
0001
0010
0100
1000
0100
1000
0100
0010
0001
,
1000
0100
0010
0001
0010
0100
1000
0010
0001
0010
0001
0010
0001
0010
0100
1000
0000
0000
2222
3333
0000
0000
0000
0000
,
1100
0010
1100
0010
1100
0010
1100
0010
1100
0010
1100
0010
1100
0010
1100
0010
,
1100
0010
1100
0011
1100
0010
1101
0010
0101
0010
0101
0010
0101
0010
0101
0010
,
0101
0010
0101
0010
0101
0010
0101
0010
0101
0010
0101
0010
0101
0010
1101
0010
,
1101
0010
1001
0010
1001
0010
1001
0010
1001
0010
1001
0010
1001
0010
1001
0010
,
1001
0010
1001
0010
0101
1000
0111
1000
0111
1000
0110
1000
0110
1000
0110
1000
,
0110
1000
0110
1000
0110
1000
0110
1000
0110
1000
0110
1000
0110
1000
0111
1000
,
0111
1000
0101
1000
0101
1000
0101
1000
0101
1000
0101
1000
0101
1000
0101
1000
,
0101
1000
0101
1000
0101
1000
0101
1000
0011
0100
1011
0100
1011
0100
1001
0100
,
1001
0100
1001
0100
1001
0100
1001
0100
1001
0100
1001
0100
1001
0100
1001
0100
,
1001
0100
1001
0100
1001
0100
1001
0100
1001
0010
1100
0001
0110
0001
1100
0010
,
1001
0100
1010
0100
1001
0010
1001
0100
1010
0100
0011
0100
1010
0001
0110
1000
,
0011
0100
1010
0100
0011
1000
0110
1000
0101
1000
0110
0001
0110
1000
0011
1000
,
0110
1000
0101
0010
1100
0010
0101
0010
1100
0010
0101
1000
0011
0100
1010
0100
,
0011
1000
0011
1000
0110
1000
0101
0000
0000
1111
0000
0000
2222
0000
0000
0000
,
0000
0000
0000
0000
,
0000
0000
0000
3333
,
0000
1020
0000
0100
0000
1000
0000
0100
,
0000
1000
0000
0100
0000
1000
0000
0100
,
0000
1000
0000
0100
0000
1000
0000
0100
,
0000
1000
0000
0100
0000
1000
0000
0100
,
0000
1000
0000
0100
0000
1000
0000
0100
,
0000
1000
0000
0100
0000
1000
0000
0100
,
0000
1000
0000
0100
0000
1000
0000
0100
,
0000
1000
0000
0100
0000
1000
0000
0100
,
0000
1000
0000
0100
0000
1000
0000
0100
,
0000
1000
0000
0100
0000
1000
0000
0100
,
0000
1000
0000
0100
0000
1000
0000
0100
,
0000
1000
0000
0100
0000
1000
0000
0100
,
0000
1000
0000
0100
0000
0100
0000
1000
,
0000
0100
0000
0100
0000
1000
0000
1000
,
0000
0100
0000
0100
0000
0000
1130
0000
;
