#TITLE:If You Were Here;
#SUBTITLE:(B4 ZA BEAT MIX);
#ARTIST:JENNIFER;
#TITLETRANSLIT:;
#SUBTITLETRANSLIT:;
#ARTISTTRANSLIT:;
#CREDIT:;
#BANNER:IF YOU WERE HERE (B4 ZA BEAT MIX).png;
#BACKGROUND:IF YOU WERE HERE (B4 ZA BEAT MIX)-bg.png;
#LYRICSPATH:;
#CDTITLE:CDTITLE.jpg;
#MUSIC:if-you-were-here-b4-za-beat-mix-.mp3;
#OFFSET:-0.180;
#SAMPLESTART:35.474;
#SAMPLELENGTH:12.000;
#SELECTABLE:YES;
#BPMS:0.000=170.000;
#STOPS:;
#BGCHANGES:;
// cache tags:
#FIRSTBEAT:4.000;
#LASTBEAT:251.500;
#SONGFILENAME:Songs/Definitive Keyboard Megapack/If You Were Here (b4 za beat mix)(Leone510)/if-you-were-here-b4-za-beat-mix-.sm;
#HASMUSIC:1;
#HASBANNER:1;
#MUSICLENGTH:91.585;
// end cache tags

//---------------dance-single - ----------------
#NOTES:
     dance-single:
     :
     Hard:
     11:
     1.000,1.000,1.000,0.393,0.672,565.000,195.000,36.000,0.000,12.000:
0000
0000
0000
0000
,
1000
0000
0010
0001
0010
0000
0100
0000
1000
0000
0010
1000
0100
0000
0001
0000
,
0010
0000
0100
1000
0100
0000
0100
0000
0010
0000
1100
0000
0101
0000
1001
0000
,
0001
0000
0100
1000
0100
0000
0010
0000
0100
0000
1000
0001
0100
0000
0010
0000
,
0100
0000
0000
0000
0000
0000
0010
0000
0000
0000
0000
0000
1000
0100
0010
0001
0000
0000
1010
0000
0000
0000
0000
0000
,
1100
0000
0100
0000
0101
0000
0001
1000
0000
1001
0000
0110
0000
0100
1000
0000
,
0011
0000
0010
0000
1010
0000
0100
0001
0000
0110
0000
1100
0000
0010
0001
0000
,
0110
0000
0100
0000
1001
0000
0010
0100
0000
0101
0000
1010
0000
1000
0001
0000
,
1100
0000
0100
0000
0011
0000
0001
0010
0000
1001
0000
1001
0000
0100
0010
0000
,
1100
0000
0100
0000
0101
0000
0001
1000
0000
1001
0000
0110
0000
0100
1000
0000
,
0011
0000
0010
0000
1010
0000
0100
0001
0000
0110
0000
1100
0000
0010
0001
0000
,
0110
0000
0100
0000
1001
0000
0010
0100
0000
0101
0000
1010
0000
1000
0001
0000
,
1100
0000
0100
0000
0011
0000
0001
0010
0000
1001
0000
1001
0000
0100
0010
0000
,
1001
0100
0101
0010
1010
0100
1001
0100
,
0011
0100
1010
0001
1100
0110
1001
0200
,
0311
0200
1310
0200
1310
0002
2103
3020
,
0231
0000
2300
0000
3012
0000
0103
0000
0100
0010
0100
0000
0110
0000
0001
0000
,
1100
0001
1010
0001
0110
0100
0101
1000
,
0011
0100
1001
0010
1100
0101
1100
0002
,
1013
0200
0311
0200
1301
0002
0213
2300
,
3102
0000
0023
0000
1230
0000
0310
0000
0010
0100
0010
0000
1010
0000
0100
0000
,
0001
1000
0101
0100
1100
0001
1000
0001
,
1100
0010
0101
0010
0100
0010
1001
0010
,
1100
0001
0100
0010
0011
0100
1010
0100
,
0001
0100
0011
0100
0011
1000
0001
1000
,
0101
0010
1100
0010
1001
0010
0101
0010
,
1010
1000
0101
0010
0101
1000
0110
0001
,
2000
0000
0001
3010
1001
0000
0100
0000
0002
0000
0100
0013
0101
0000
0100
0000
,
0101
0000
0000
0000
1000
0000
0000
0000
0001
0000
1000
0000
0000
0000
1000
0000
0001
0000
0000
0000
2000
0000
0000
0000
3002
0000
0000
0000
2003
0000
0000
3000
,
1001
0000
0100
0000
0011
0000
0100
1000
0100
0000
0101
0000
1010
0000
0100
0000
,
0011
0000
0100
0000
1001
0000
0100
0001
0100
0000
0110
0000
1001
0000
0100
0000
,
1010
0000
0100
0000
1001
0000
0001
0100
0001
0000
1100
0000
1001
0000
0010
0000
,
0101
0000
0010
0000
1100
0000
0100
0010
0100
0001
0100
0001
1000
0010
1000
0010
,
1100
0000
0001
0000
1100
0000
0001
0100
0010
0000
0101
0000
1001
0000
0100
0000
,
0011
0000
0100
0000
1010
0000
0100
1000
0100
0000
0011
0000
1010
0000
0100
0000
,
1001
0000
0100
0000
0011
0000
0100
0010
0001
0000
0010
0001
2000
0000
3200
0000
,
0310
0001
0010
0100
1000
0100
0001
0100
0001
0010
0100
1000
0100
0010
0001
0010
,
1100
0000
0100
0000
0101
0000
0001
1000
0000
1001
0000
0110
0000
0100
1000
0000
,
0011
0000
0010
0000
1010
0000
0100
0001
0000
0110
0000
1100
0000
0010
0001
0000
,
0110
0000
0100
0000
1001
0000
0010
0100
0000
0101
0000
1010
0000
1000
0001
0000
,
1100
0000
0100
0000
0011
0000
0001
0010
0000
1001
0000
1001
0000
0100
0010
0000
,
1100
0000
0100
0000
0101
0000
0001
1000
0000
1001
0000
0110
0000
0100
1000
0000
,
0011
0000
0010
0000
1010
0000
0100
0001
0000
0110
0000
1100
0000
0010
0001
0000
,
0110
0000
0100
0000
1001
0000
0010
0100
0000
0101
0000
1010
0000
1000
0001
0000
,
1000
0010
0100
0010
0001
0010
0001
1000
0010
1000
0100
0001
1010
0000
0100
0000
,
0001
1000
0101
0100
1100
0001
1000
0001
,
1100
0010
0101
0010
0100
0010
1001
0010
,
1100
0001
0100
0010
0011
0100
1010
0100
,
0001
0100
0011
0100
0011
1000
0001
1000
,
0101
0010
1100
0010
1001
0010
0101
0010
,
1010
1000
0101
0010
0101
1000
0110
0001
,
2000
0000
0001
3010
1001
0000
0100
0000
0002
0000
0100
0013
0101
0000
0100
0000
,
0101
0000
0000
0000
1000
0000
0000
0000
0001
0000
1000
0000
0000
0000
1000
0000
0001
0000
0000
0000
2000
0000
0000
0000
3002
0000
0000
0000
2003
0000
0000
3000
,
1001
0000
0100
0000
0011
0000
0100
1000
0100
0000
0101
0000
1010
0000
0100
0000
,
0011
0000
0100
0000
1001
0000
0100
0001
0100
0000
0110
0000
1001
0000
0100
0000
,
1010
0000
0100
0000
1001
0000
0001
0100
0001
0000
1100
0000
1001
0000
0010
0000
,
0101
0000
0010
0000
1100
0000
0100
0010
0100
0001
0100
0001
1000
0010
1000
0010
,
1100
0000
0001
0000
1100
0000
0001
0100
0010
0000
0101
0000
1001
0000
0100
0000
,
0011
0000
0100
0000
1010
0000
0100
1000
0100
0000
0011
0000
1010
0000
0100
0000
,
1001
0000
0100
0000
0011
0000
0100
0010
0001
0000
0010
0001
2000
0000
3200
0000
,
0310
0001
0010
0100
1000
0100
0001
0100
0001
0010
0100
1000
0100
0010
0001
0010
,
1100
0100
0101
0000
0011
0010
1010
0000
,
0101
0100
1010
0100
0220
0330
0220
0330
;

//---------------dance-single - Copied from----------------
#NOTES:
     dance-single:
     Copied from:
     Challenge:
     12:
     1.000,1.000,1.000,0.633,1.000,638.000,264.000,58.000,0.000,24.000:
0000
0000
0000
0000
,
1100
0000
0010
0001
1010
0000
0100
0000
1001
0000
0010
1000
0101
0000
0001
0000
,
1010
0000
0100
1000
0110
0000
0100
0000
0011
0000
1100
0000
0101
0000
1001
0000
,
0001
0010
0100
1000
0110
0001
0010
1000
0101
0010
1000
0001
0110
1000
0010
0000
,
0101
0000
0000
0000
0000
0000
0000
0000
0000
0000
0000
0000
0020
0000
0000
0030
0000
0000
0000
0000
0000
0000
0000
0000
1000
0000
0100
0000
0010
0000
0002
0000
0000
0003
0000
0000
1110
0000
0000
0000
0000
0000
0000
0000
0000
0000
0000
0000
,
1100
0000
0100
0000
0101
0000
0001
1000
0000
1001
0000
0110
0000
0100
1000
0000
,
0011
0000
0010
0000
1010
0000
0100
0001
0000
0110
0000
1100
0000
0010
0001
0000
,
0110
0000
0100
0000
1001
0000
0010
0100
0000
0101
0000
1010
0000
1000
0001
0000
,
1100
0000
0100
0000
0011
0000
0001
0010
0000
1001
0000
1001
0000
0100
0010
0000
,
1100
0000
0100
0000
0101
0000
0001
1000
0000
1001
0000
0110
0000
0100
1000
0000
,
0011
0000
0010
0000
1010
0000
0100
0001
0000
0110
0000
1100
0000
0010
0001
0000
,
0110
0000
0100
0000
1001
0000
0010
0100
0000
0101
0000
1010
0000
1000
0001
0000
,
1100
0000
0100
0000
0011
0000
0001
0010
0000
1001
0000
1001
0000
0100
0010
0000
,
1001
0010
0100
1000
0101
1000
0010
0100
1010
0001
0100
0010
1001
0010
0100
1000
,
0011
1000
0100
0001
1010
0100
0001
0010
1100
0000
0110
0000
1001
0000
0210
0000
,
0311
0000
0201
0000
1310
0000
0210
0000
1310
0000
0022
0030
2103
0000
3220
0300
,
0231
0000
2302
0003
3012
0000
1103
0000
1100
0010
0101
0000
0110
0000
0001
0000
,
1100
0010
0001
0100
1010
0100
0001
1000
0110
0001
0100
1000
0101
0010
1000
0100
,
0011
1000
0100
0010
1001
0100
0010
0001
1100
0010
0101
0000
1100
0000
0102
0000
,
1013
0000
1200
0000
0311
0000
0210
0000
1301
0000
0202
0300
0213
0000
2320
0030
,
3102
0000
2023
3000
1230
0000
0310
0000
1010
0100
0011
0000
1010
0000
0100
0000
,
0001
0000
1000
0010
0101
1000
0100
0000
1100
0000
0001
0000
1100
0000
0001
0000
,
1100
0000
0010
1000
0101
0100
0010
0000
1100
0000
0010
0000
1001
0000
0010
0000
,
1100
0000
0001
0010
0101
1000
0010
0000
0011
0000
0100
0000
1010
0000
0100
0000
,
1001
0000
0100
0000
0011
0000
0100
0000
0011
0100
1000
0000
0101
0000
1000
0000
,
0101
0000
0010
0001
1100
0001
0010
0000
1001
0000
0010
0000
0101
0000
0010
0000
,
1010
0000
1000
0010
0101
1000
0010
0000
0101
0000
1000
0000
0110
0000
0001
0000
,
2000
0000
0001
3010
1001
0010
0100
1000
0002
0000
0100
0013
0101
1000
0100
0000
,
0101
0000
0000
0000
1000
0000
0000
0000
0101
0000
1000
0000
0000
0000
1000
0000
0011
0000
0000
0000
2000
0000
0000
0000
3202
0000
0300
0000
2003
0000
0000
3000
,
1001
0000
0100
0000
0011
0000
0100
1000
0100
0010
0101
0000
1010
0000
0100
0000
,
0011
0000
0100
0000
1001
0000
0100
0001
0100
1000
0110
0000
1001
0000
0100
0000
,
1010
0000
0100
0000
1001
0000
0001
0100
0001
0010
1100
0000
1001
0000
0010
0000
,
0101
0000
0010
0000
1100
0000
0100
0010
1100
0001
0100
0001
1100
0010
1000
0010
,
1100
0000
0001
0000
1100
0000
0001
0100
0010
1000
0101
0000
1001
0000
0100
0000
,
0011
0000
0100
0000
1010
0000
0100
1000
0100
1000
0011
0000
1010
0000
0100
0000
,
1001
0000
0100
0000
0011
0000
0100
0010
1001
0100
0010
0001
2000
0000
3210
0000
,
1310
0001
0010
0100
1001
0100
0001
0100
1001
0010
0100
1000
0101
0010
0001
0010
,
1100
0000
0100
0000
0101
0000
0001
1000
0000
1001
0000
0110
0000
0100
1000
0000
,
0011
0000
0220
0330
2020
3030
0100
0001
0000
0110
0000
1100
0000
0010
0001
0000
,
0110
0000
0100
0000
1001
0000
0010
0100
0000
0101
0000
1010
0000
1000
0001
0000
,
1100
0000
0100
0000
0011
0000
0001
0010
0000
1001
0000
1001
0000
0100
0010
0000
,
1100
0000
0100
0000
0101
0000
0001
1000
0000
1001
0000
0110
0000
0100
1000
0000
,
0011
0000
0000
0100
0000
0000
0022
0000
0000
0033
0000
0000
2020
0000
0000
3030
0000
0000
0100
0000
0010
0000
0001
0000
1000
0000
0000
0110
0000
0000
0000
0000
0000
1100
0000
0000
0000
0000
0000
0010
0000
0000
0001
0000
0000
0000
0000
0000
,
0110
0000
0100
0000
1001
0000
0010
0100
0000
0101
0000
1010
0000
1000
0001
0000
,
1100
0010
0100
0010
0101
0010
0001
1000
0110
1000
0100
0001
1010
0000
0100
0000
,
0001
0000
1000
0010
0101
1000
0100
0000
1100
0000
0001
0000
1100
0000
0001
0000
,
1100
0000
0010
1000
0101
0100
0010
0000
1100
0000
0010
0000
1001
0000
0010
0000
,
1100
0000
0001
0010
0101
1000
0010
0000
0011
0000
0100
0000
1010
0000
0100
0000
,
1001
0000
0100
0000
0011
0000
0100
0000
0011
0100
1000
0000
0101
0000
1000
0000
,
0101
0000
0010
0001
1100
0001
0010
0000
1001
0000
0010
0000
0101
0000
0010
0000
,
1010
0000
1000
0010
0101
1000
0010
0000
0101
0000
1000
0000
0110
0000
0001
0000
,
2000
0000
0001
3010
1001
0010
0100
1000
0002
0000
0100
0013
0101
1000
0100
0000
,
0101
0000
0000
0000
1000
0000
0000
0000
0101
0000
1000
0000
0000
0000
1000
0000
0011
0000
0000
0000
2000
0000
0000
0000
3202
0000
0300
0000
2003
0000
0000
3000
,
1001
0000
0100
0000
0011
0000
0100
1000
0100
0010
0101
0000
1010
0000
0100
0000
,
0011
0000
0100
0000
1001
0000
0100
0001
0100
1000
0110
0000
1001
0000
0100
0000
,
1010
0000
0100
0000
1001
0000
0001
0100
0001
0010
1100
0000
1001
0000
0010
0000
,
0101
0000
0010
0000
1100
0000
0100
0010
1100
0001
0100
0001
1100
0010
1000
0010
,
1100
0000
0001
0000
1100
0000
0001
0100
0010
1000
0101
0000
1001
0000
0100
0000
,
0011
0000
0100
0000
1010
0000
0100
1000
0100
1000
0011
0000
1010
0000
0100
0000
,
1001
0000
0100
0000
0011
0000
0100
0010
1001
0100
0010
0001
2000
0000
3210
0000
,
1310
0001
0010
0100
1001
0100
0001
0100
1001
0010
0100
1000
0101
0010
0001
0010
,
1100
0000
0110
0000
0202
0303
0000
0000
0011
0000
0110
0000
2020
3030
0000
0000
,
0101
0110
1010
1001
0220
0330
0220
0330
;
