#TITLE:rottel-the-Mercury;
#SUBTITLE:;
#ARTIST:sampling masters MEGA;
#TITLETRANSLIT:;
#SUBTITLETRANSLIT:;
#ARTISTTRANSLIT:;
#CREDIT:;
#BANNER:rottel-the-Mercury.png;
#BACKGROUND:rottel-the-Mercury bg.png;
#LYRICSPATH:;
#CDTITLE:2kM Spread.png;
#MUSIC:rottel-the-Mercury.mp3;
#OFFSET:-0.380;
#SAMPLESTART:39.980;
#SAMPLELENGTH:12.000;
#SELECTABLE:YES;
#BPMS:0.000=100.000,56.000=200.000,232.000=100.000,248.000=200.000;
#STOPS:;
#BGCHANGES:;
// cache tags:
#FIRSTBEAT:0.000;
#LASTBEAT:287.000;
#SONGFILENAME:Songs/Fresh Flock of Fantastic Files F4/(2kM) rottel-the-Mercury/rottel-the-Mercury.sm;
#HASMUSIC:1;
#HASBANNER:1;
#MUSICLENGTH:111.072;
// end cache tags

//---------------dance-single - ----------------
#NOTES:
     dance-single:
     :
     Hard:
     11:
     1.000,1.000,1.000,0.000,0.954,686.000,215.000,0.000,0.000,0.000:
1000
0100
0100
0100
1000
0100
0000
1000
0100
1000
0000
0100
0000
0011
0011
0011
,
1000
0000
0100
0000
0100
0000
0100
0000
1000
0000
0100
0000
0000
0000
0010
0000
1001
0000
0000
0000
0000
0000
0000
0000
0001
1000
0001
1000
0001
1000
0001
1000
,
0001
0000
0001
1100
0000
0001
0001
0001
1100
0000
0001
1100
0000
0001
0001
0001
,
1100
0000
0001
1100
0000
0001
0001
0001
1100
0000
0011
0000
1010
0000
0101
0000
,
0001
0000
0001
0010
0001
0010
0001
0010
1100
0000
0001
1100
0000
0001
0010
0001
,
1100
0000
0001
0010
0001
0010
0001
0010
0000
0110
0000
0110
0000
0110
0000
0000
,
1001
0000
0010
1001
0000
0100
1001
0000
0010
1001
0000
0010
0010
0100
0100
0100
,
0000
1001
0000
0010
1001
0000
0100
1001
0010
0100
0000
0010
1001
0100
0000
0000
,
1001
0000
0100
1001
0000
0010
1001
0000
0100
1001
0000
0100
0100
0010
0010
0010
,
1001
0000
0000
0000
1000
0000
0000
0000
0100
0000
0000
0000
0000
0000
0010
0000
0000
0000
0010
0000
0000
0000
0010
0000
0001
1000
0001
1000
0001
1000
0001
1000
,
0001
0000
0100
0000
1010
0000
1000
0100
,
0011
0000
0001
0000
1100
0000
0010
0100
,
1001
0010
0101
1000
0110
0011
1100
0110
,
0101
0000
0010
0000
1100
0000
0001
0000
0110
0000
1000
0000
0101
0000
0010
0000
1100
0000
0001
0000
0110
0000
1000
0000
0001
1000
0001
1000
0001
1000
0001
1000
,
0001
1000
1000
1000
0011
1000
0000
1000
,
0011
1000
0000
0011
0000
1000
1000
1000
,
0011
0000
1000
0000
1000
0000
1000
0000
0011
0000
1000
0000
0000
0000
0001
0100
,
0010
0000
1000
0000
0100
0000
0010
0000
0001
1000
0001
1000
0001
1000
0001
1000
,
0001
0000
1010
0000
0110
0000
0011
0001
,
0000
0010
1100
0001
1010
0000
0101
0010
,
1001
0000
1100
0000
0110
0000
1001
0010
,
0101
0000
1000
0000
0110
0000
0001
0000
1010
0000
0000
0000
1000
0100
0010
0001
,
0100
0010
1100
0010
1001
0100
1010
0110
,
0001
1100
0101
0011
1010
0100
0011
1100
,
1001
0010
0001
0100
1001
0100
1000
0010
,
0001
1000
0001
1000
0001
1000
0001
1000
0001
1000
0001
1000
0001
1000
0001
1000
,
0001
0110
0000
0000
1010
0000
0000
1100
,
0000
0101
0000
0000
0011
0000
1010
1001
,
0000
0101
0000
0000
0011
0000
0000
1001
,
0000
0000
0101
0000
0110
0000
0000
0000
1010
0000
0110
0000
0001
0100
0010
0000
,
0000
0101
0010
0100
1010
0100
0001
1100
,
0010
1001
0010
1000
0101
0010
1001
0110
,
0001
1100
0010
1000
0101
0010
1000
0110
,
0011
0000
1100
0000
0010
0000
0001
0000
0110
0000
1001
0000
0100
0010
1000
0001
,
0010
0100
1001
0010
0101
1000
0000
0101
,
1000
0000
0001
0110
0000
0110
1000
0010
,
1001
0010
1100
0001
1010
0100
0000
0010
,
1001
0000
0100
0011
0000
1000
0101
0010
,
1001
0100
0011
1000
0110
0001
1000
0010
,
1100
0010
0001
1010
0100
0010
1100
0010
,
0101
0101
0000
0000
1010
1010
0000
0000
,
0001
1000
0001
1000
0001
1000
0001
1000
0001
1000
0001
1000
0001
0000
0000
0000
,
1100
0000
0000
0110
0000
0000
0011
0000
1001
0000
0000
0000
1010
0000
0000
0000
,
0110
0101
0000
1001
1100
1001
0101
0000
,
0011
0000
0000
0110
0000
0000
1100
0000
1001
0000
0000
0000
0110
0000
0000
0000
,
1100
1010
0000
0011
0101
1100
1010
0000
,
1001
0000
0000
0110
0000
0000
1001
0000
1100
0000
0001
0000
1010
0000
0100
0000
,
0011
0101
0010
1001
1100
1001
0101
1000
,
0110
0000
0000
1010
0000
0000
1100
0000
1001
0000
0010
0000
0101
0000
0010
0000
,
1100
1010
0100
0011
0101
1100
1010
0001
,
1000
0110
0000
0110
0001
0000
1000
0000
,
1000
0110
0000
0110
0001
0000
1000
0000
,
0001
0110
0000
0110
1000
0000
0001
0000
,
0101
0000
1000
0000
0001
0010
0100
1000
0010
0100
0001
1000
0100
0010
0100
1000
,
0001
1100
0001
1100
0011
1000
0001
0100
,
1010
0101
1000
0101
1010
0100
1001
0100
,
1001
0110
0001
0110
1001
0100
1000
0001
,
1010
0000
0100
0000
0001
1000
0010
0100
0010
1000
0001
0010
0100
1000
0010
0100
,
0001
0000
0110
0000
1100
0000
0101
0110
,
1001
0000
0011
0000
1100
0000
0110
0101
,
1001
0110
0101
1100
0110
0011
1100
0110
,
0101
0000
0010
0000
1100
0000
0001
0000
0110
0000
1000
0000
0101
0000
0010
0000
1100
0000
0011
0000
0110
0000
1100
0000
0001
0010
0100
1000
0010
0100
0001
1000
,
0100
0010
0001
1000
0100
1000
0001
0010
0100
0010
0001
1000
0100
0010
0001
1000
,
0010
0100
0010
1000
0001
0010
0100
1000
0001
0010
0100
1000
0100
1000
0100
0010
,
0001
1000
0010
0100
0001
0100
0001
0100
0010
1000
0100
1000
0001
0010
0001
0010
,
0100
1000
0100
0010
0100
1000
0001
0100
0010
1000
0100
0010
0100
1000
0001
0010
,
0001
0010
0100
1000
0100
1000
0100
0010
0100
1000
0001
0100
0010
0100
0010
1000
,
0100
0010
0100
0010
0100
1000
0001
0100
0010
0100
0010
0100
0001
0010
0100
1000
,
0001
0010
0100
1000
0001
1000
0100
0010
0001
1000
0001
0010
0100
1000
0001
1000
,
0100
0010
0100
0010
0001
0010
0100
0010
0100
1000
0001
0010
0100
0010
0001
1000
,
0100
0010
0100
1000
0001
0010
0100
0010
0100
1000
0100
0010
0001
1000
0010
0100
,
0010
0000
0100
0000
0010
0000
0100
0000
0010
0000
0100
0000
0010
0000
0100
0000
0001
0010
0100
1000
0001
0010
0100
1000
0001
0000
0000
0000
0000
0000
0000
0000
;
