#TITLE:Left and Never Came Back;
#SUBTITLE:;
#ARTIST:Orange Dust;
#TITLETRANSLIT:;
#SUBTITLETRANSLIT:;
#ARTISTTRANSLIT:;
#CREDIT:;
#BANNER:left-banner.png;
#BACKGROUND:leftbg.png;
#LYRICSPATH:;
#CDTITLE:!aptitle.png;
#MUSIC:05_Orange Dust__Left And Never Came Back.mp3;
#OFFSET:-0.030;
#SAMPLESTART:169.440;
#SAMPLELENGTH:11.400;
#SELECTABLE:YES;
#BPMS:0.000=85.000,32.000=170.000,128.000=85.000,144.000=170.000,364.000=85.000,366.000=170.000;
#STOPS:;
#BGCHANGES:;
// cache tags:
#FIRSTBEAT:0.000;
#LASTBEAT:493.750;
#SONGFILENAME:Songs/Community Keyboard Megapack - Volume 2/(aperson) Left and Never Came Back/Left and never came back.sm;
#HASMUSIC:1;
#HASBANNER:1;
#MUSICLENGTH:221.805;
// end cache tags

//---------------dance-single - ----------------
#NOTES:
     dance-single:
     :
     Challenge:
     11:
     1.000,1.000,1.000,0.185,0.996,1166.000,361.000,41.000,0.000,0.000:
1000
0000
0000
0000
0010
0000
0000
0000
0100
0000
0000
0000
0001
0000
0000
0000
0101
0000
0000
0110
0000
0000
1010
0000
0000
0000
0000
0000
0000
0000
0000
0000
,
1000
0000
0000
0000
0100
0000
0000
0000
0010
0000
0000
0000
0001
0000
0000
0000
1100
0000
0000
0110
0000
0000
0011
0000
0000
0000
0001
0000
1100
0000
0000
0000
,
0010
0000
0000
0000
0100
0000
0000
0000
0001
0000
0000
0000
1000
0000
0000
0000
0011
0000
0000
1100
0000
0000
0110
0000
0000
0000
0000
0000
0000
0000
0000
0000
,
1000
0000
0000
0000
0001
0000
0000
0000
0100
0000
0000
0000
0010
0000
0000
0000
1010
0000
0000
0101
0000
0000
1001
0000
0000
0000
1100
0000
0011
0000
0000
0000
,
1001
0000
0000
0000
0100
0000
0000
0000
0010
0000
0000
0000
1000
0000
0000
0000
0101
0000
0000
0001
0000
0000
1000
0000
0000
0000
0000
0000
0000
0000
0000
0000
,
0110
0000
0001
0000
0100
0000
0010
0000
1001
0000
0110
1010
0000
0000
0010
0000
,
1001
0000
0000
0000
0010
0000
0000
0000
0100
0000
0000
0000
0001
0000
0000
0000
1001
0000
0000
0010
0000
0000
1000
0000
0000
0000
0000
0000
0000
0000
0000
0000
,
0011
0000
0000
0000
0100
0000
0000
0000
0010
0000
0000
0000
1000
0000
0000
0000
1001
0000
0000
0011
0000
0000
0101
0000
0000
0000
0000
0000
0100
0010
0100
0000
,
1001
0000
0001
0000
0101
0000
0100
0010
1000
0010
0100
0000
0011
0000
0000
0000
,
0000
0000
1000
0100
0011
0000
0001
0100
0010
0000
0010
1000
0101
0000
1000
0000
,
0011
0000
0001
0100
1010
0000
1000
0100
0000
0010
0001
0100
1010
0000
0000
0000
,
1001
0010
0000
0000
1010
0100
0001
0010
0000
0010
0000
0010
2100
0000
0000
0000
,
3001
0000
0000
0011
0000
0000
0101
0000
0100
0010
1000
0001
0010
0000
1100
0000
,
0000
0011
0000
0000
0101
0000
1000
0100
0010
0001
1100
0000
0011
0000
1000
0010
,
0100
0000
0001
0010
0001
0000
1000
0100
1000
0000
0010
0100
0010
0000
0100
0001
,
0100
0000
0110
0000
0010
1100
0000
1000
0011
0000
0000
0001
0100
0010
1100
0000
,
1001
0000
1000
0000
0101
0000
0011
0000
0101
0000
0000
0110
0000
1010
0000
1000
,
0001
0010
0001
0100
0010
1000
0100
1000
0010
0100
0001
0100
0010
1000
0100
0010
,
0001
1000
0010
0100
0010
1000
0100
0000
0010
0101
0000
0001
1100
0000
1001
0000
,
0001
0100
0010
0000
0010
1000
0000
0010
0000
0100
0001
0000
0001
0010
0100
1000
,
0001
0010
0001
0010
0001
0010
0001
0010
0100
1000
0010
0000
0010
0100
0001
1000
,
0100
0010
0100
0010
0001
1000
0001
0100
0010
1000
0100
1000
0010
0100
0001
0010
,
0001
0100
0010
0000
0000
0000
0010
0100
0001
0010
0001
0100
0010
1000
0001
0010
,
0001
0010
0100
1001
0000
0000
0011
0000
0001
0100
0001
0100
1010
0000
0000
0000
,
0011
0000
1000
0010
0101
0000
0000
0001
0110
0000
0000
0000
1010
0000
0000
0000
,
2200
3300
0000
0220
0330
0000
0022
0033
0000
1000
0100
0000
0100
0000
0010
0001
,
1100
0000
1000
0100
0011
0000
1000
0010
0101
0000
0001
1000
0110
0000
0000
0000
,
1001
0000
0000
0101
0000
0000
0220
0330
0000
0000
1000
0000
0001
0100
0000
0100
,
1010
0000
0000
0000
0202
0303
0000
0100
0011
1000
0010
0000
1100
0010
0000
0000
,
1001
0000
0000
0101
0000
0000
0220
0330
0000
0000
0000
0000
0000
0000
0000
0000
,
0202
0303
0000
0000
0220
0330
0000
0000
2020
3030
0000
0000
2200
3300
0000
1000
,
0022
0033
0000
0220
0330
0000
2200
3300
0000
2002
3003
0000
0220
0330
0100
0010
,
1000
0000
0000
0000
0100
0000
0000
0000
0010
0000
0000
0000
0001
0000
0000
0000
1000
0000
0000
0001
0000
0000
0200
0000
0000
0000
0000
0000
0000
0000
0000
0000
,
0310
0000
0000
0000
1000
0000
0000
0000
0010
0000
0000
0000
0100
0000
0000
0000
0001
0000
0000
1000
0000
0000
0200
0000
0000
0000
0310
0000
0200
0000
0000
0000
,
1300
0000
0000
0000
0010
0000
0000
0000
0100
0000
0000
0000
0001
0000
0000
0000
0100
0000
0000
0010
0000
0000
2000
0000
0000
0000
0000
0000
0000
0000
0000
0000
,
3001
0000
0000
0000
1000
0000
0000
0000
0010
0000
0000
0000
0100
0000
0000
0000
0001
0000
0000
1000
0000
0000
0100
0000
0010
0000
1000
0000
0010
0000
0100
0000
,
0101
0000
0001
0010
1100
0000
1000
0000
0000
0000
0011
0000
0001
0100
0010
1000
,
0011
0000
0001
0110
0000
0100
1010
0000
1000
0011
1100
0000
0010
0001
0100
0010
,
0101
0000
0011
0000
1100
0000
1000
0000
1001
0000
0001
0000
0101
0000
0100
0011
,
1100
0000
1000
0010
0101
0000
0001
0010
0000
0010
1100
0000
1000
0100
0010
0001
,
0110
0000
0010
0000
1010
0000
0000
1000
0000
1000
0001
0100
0011
0000
0001
0000
,
0110
0000
0000
0101
0000
0000
1001
0000
0000
1000
0010
0100
0011
0000
1000
0000
,
0101
0000
0100
0011
0000
0001
1100
0000
0110
0000
0101
0000
0001
0100
1010
0000
,
1100
0000
0000
0110
0000
0000
0011
0000
0001
0100
0001
0100
1010
0000
0000
1100
,
0012
0000
0000
1003
0100
0000
0010
0000
0001
0010
1100
0000
1000
0010
0100
0010
,
1001
0000
0101
0000
0110
0000
0000
0110
0000
1010
0000
1000
0001
0100
0020
0000
,
1030
0000
0100
0000
0011
0100
0010
1000
0000
1000
0000
0001
0100
0010
1000
0000
,
1001
0000
0000
0001
0110
0000
0000
1010
0000
0000
1001
0000
0101
0000
0000
0110
,
0000
1001
0000
1000
0110
0000
0000
0001
0000
0001
0100
0010
1100
0000
0000
0000
,
1000
0000
0101
0000
0011
0100
0000
0100
0010
1000
0110
0000
0010
0100
0001
1000
,
0101
0010
0001
0100
0011
0100
0010
0001
0010
0001
1100
0000
0010
0000
0010
0000
,
1100
0000
0000
0110
0000
1000
0011
0100
0000
0100
0000
0010
1001
0000
0000
0010
,
1100
0000
1000
0110
0101
0000
0001
0001
,
1000
0100
0000
0010
0000
0001
0110
0000
1010
0000
0000
0000
0000
0000
0000
0000
,
1001
0000
0001
0101
0110
0000
0010
0100
,
0001
1000
0000
0010
0101
0010
0000
0000
1010
0000
0000
0000
0000
0000
0000
0000
,
0101
0000
0000
0100
0011
0000
0000
0000
1001
0000
0000
0000
1000
0000
1000
0010
,
0000
0100
0011
0000
1001
0000
0000
0000
1100
0000
0000
0000
0001
0000
0000
0000
,
1001
1100
0011
0001
,
2002
0000
0000
3003
,
1001
0000
1000
0100
0011
0000
0001
0000
0000
0000
0101
0000
0100
0000
0100
0000
,
0100
0000
0100
0000
1100
0000
0000
0011
0000
0001
0110
0000
1001
0000
0000
1000
,
0001
0000
0001
0110
0000
0100
1010
0000
1000
0100
0011
0000
1001
0000
0000
0000
,
0101
0000
0000
0100
0011
0000
0101
0000
0000
0100
1010
0000
1100
0000
0000
0000
,
0011
0000
0000
0000
1010
0000
0101
0000
0000
0001
0100
0000
0110
0000
0010
1000
,
0011
0000
0000
1100
0000
0000
1001
0000
0000
0000
0101
0000
0110
0000
0010
0000
,
1000
0000
0001
0000
0000
1010
0101
0000
0001
0000
1100
0000
0011
0000
0001
0100
,
0010
0000
0000
1010
0000
0000
1100
0000
0000
0110
1001
0000
1010
0000
0000
1000
,
0001
0000
0001
0110
0000
0100
0010
1000
0001
0000
0101
0000
0110
0000
0000
1001
,
0000
0000
0010
0000
1010
0000
1000
0100
0011
0000
1100
0000
0000
0000
1001
0000
,
0101
0000
0100
0010
1001
0000
1000
0010
0100
0001
0100
0001
1100
0010
0100
0010
,
1000
0001
0010
0000
1100
0000
1000
0100
0010
0001
0010
0000
0011
0000
0000
0000
,
1001
0000
1000
0000
0101
0000
0000
0100
0010
0000
1010
0000
0011
0000
0000
0000
,
0001
0000
0001
1100
0000
1000
0110
0000
0100
0011
0000
0001
1010
0000
0100
0000
,
0001
0010
0100
1000
0110
0000
1000
0010
0100
0010
1001
0000
0000
0000
1000
0000
,
0011
0000
1010
0000
0101
0000
0010
0101
0000
0001
1000
0000
1100
0000
0000
0000
,
0001
0000
0000
0010
0001
0000
0000
0100
0010
1000
0010
0000
0000
0100
0000
0010
,
1000
0000
0000
0000
0100
0000
0000
0010
0001
0010
0100
0000
0000
1000
0001
0000
,
0100
0000
0000
0000
0000
0000
0000
0010
0100
0000
0000
0000
0010
0000
0001
0000
0000
0000
0000
0000
0010
0000
0000
0000
0000
0000
0100
0001
0010
0000
0000
0000
,
0100
0000
1000
0100
1000
0000
0000
0010
0100
0000
0100
0000
0100
0001
0010
0000
,
1000
0000
0000
0001
0100
0000
0000
0000
1000
0010
0100
0000
0010
0000
0000
0100
,
0001
0000
0001
1000
0100
0000
1000
0100
0010
0100
0000
0001
0100
0000
1000
0000
,
0010
0000
0100
0001
0010
0000
0001
0000
0000
0001
0100
0000
0010
1000
0100
0000
,
1000
0000
0010
0100
0010
0000
0100
0000
0000
0000
0000
0000
0000
0000
0000
0000
,
1001
0000
0001
0000
0000
0000
0110
0000
1010
0000
0100
0000
0100
0001
0100
0001
,
0010
0100
0000
0100
0000
0001
0100
0000
0110
0000
0000
0000
0000
0000
0000
0000
,
0011
0000
0000
0000
0000
0000
0000
0000
1100
0000
0000
0000
0100
0000
0000
0000
1001
0000
0000
0000
0000
0000
0000
0000
0000
0000
0001
0100
0010
0000
0000
0000
,
0010
1000
0000
0100
0000
0010
0001
0000
1001
0000
0000
0000
0001
0000
0100
0000
,
0110
0000
0001
0010
1100
0000
0000
0000
1001
0010
0001
0000
1000
0000
1000
0010
,
0100
0010
1000
0100
0010
0000
0010
0001
0110
1000
0000
0000
0000
0000
0000
0000
,
1001
0000
0000
0000
0110
0000
1000
0000
0011
0100
0010
0000
1000
0000
0001
0000
,
2002
0000
0000
0000
0000
0000
0000
3003
1001
0000
1000
0100
0011
0000
0001
0010
,
0001
0100
0000
0100
1010
0000
0100
0010
0000
0100
1001
0000
0011
0000
0000
1100
,
0000
1000
0100
0010
0101
0000
1000
0001
0110
0000
0000
1010
0101
0000
0110
0001
,
0000
0001
0010
0100
1001
0000
0001
0010
1100
0010
0100
0000
0110
0000
0000
0101
,
0000
0011
0100
0010
1001
0000
0000
0000
1001
0000
0000
0101
0000
0010
1100
0001
,
0000
0001
0100
0010
1000
0000
0011
0000
0000
1100
0000
0000
1001
0100
0000
0011
,
1000
0100
0011
0000
1001
0000
0100
0010
1100
0000
1000
0010
0101
0000
0001
0100
,
1010
0000
1000
0100
0011
0000
0001
0010
1100
0000
0011
0000
1001
0100
0000
0010
,
0101
0000
0100
0010
1100
0001
0000
0000
1001
0000
1000
0000
0011
0000
1100
0000
,
0011
0000
0000
1010
0000
0101
0010
1000
0011
0000
0100
0010
1100
0000
1001
0010
,
0100
0001
0010
0001
0110
0000
1000
0100
0010
0001
0010
0001
1100
0010
1000
0000
,
1000
0011
0000
0001
0110
0000
1001
0000
0001
0100
0010
0000
0010
1000
0000
0010
,
0000
0100
0001
0000
0010
0001
1000
0100
0010
0001
0010
0001
0010
0001
0010
0001
,
0100
0010
1000
0000
1000
0010
0100
0010
0100
0001
0100
0010
1000
0100
1000
0010
,
0100
0000
0100
0001
0010
0001
0100
0000
0100
0010
1000
0000
1000
0001
0010
0100
,
1000
0100
1000
0000
0010
0100
0010
0100
0001
1000
0100
0011
0000
0001
0110
0000
,
0100
1000
0100
1000
0011
0000
0000
0000
1001
0000
1000
0000
0011
0100
0000
0000
,
0001
1000
0110
0000
1000
0000
0001
0100
1010
0000
0101
1000
0000
0110
0001
0000
,
0011
0000
1010
0000
0101
0010
1000
0000
0001
0010
0100
0010
0000
0001
1100
0000
,
1000
0100
0010
0001
0110
0000
0010
0000
1000
0100
1000
0010
0100
0010
1000
0000
,
0010
0101
0000
0100
1010
0000
1001
0000
0001
0100
0010
0000
0010
1000
0100
0010
,
0001
0010
0001
0000
0100
0010
1000
0100
1000
0010
0100
0010
1000
0100
1000
0001
,
0010
0001
0100
0010
0100
0000
0011
0000
1000
0001
1000
0000
0110
0000
0100
0011
,
0000
0001
1100
0000
1000
0100
0010
0001
1000
0010
1000
0010
0100
0010
0100
0010
,
1000
0100
0001
0100
1000
0001
0010
0100
1001
0000
1001
0000
1001
0000
0000
0101
,
0000
0101
0000
0100
1010
0000
0000
1000
0011
0100
0010
0001
0110
0001
0010
0001
,
0100
0010
1100
0000
0100
0000
0100
0000
0011
0000
1100
0000
1001
0100
0000
0010
,
0101
1000
0100
0000
0100
1000
0100
1000
0011
0000
0110
0000
1001
0010
0000
1100
,
0000
1100
0011
0000
0001
0100
0001
0100
1010
0000
0000
0001
1100
0000
1000
0110
,
0000
0001
1100
0000
0101
0010
0000
1000
0000
1000
0000
0001
0110
0000
0010
0000
,
0010
0100
0000
0100
0011
1000
0000
0000
1001
0000
0000
0000
1001
0110
1001
0000
,
0000
0000
1100
0011
1100
0010
0000
0010
1001
0000
0000
0000
1010
0101
1010
0000
,
0000
0000
1001
0110
1001
0100
0000
0010
0000
0000
0000
0000
0000
0000
0000
0000
;
