#TITLE:Riririri Burning Night;
#SUBTITLE:;
#ARTIST:Samfree;
#TITLETRANSLIT:;
#SUBTITLETRANSLIT:;
#ARTISTTRANSLIT:;
#CREDIT:M.L-INS;
#BANNER:../Tachyon DIVA.png;
#BACKGROUND:../Tachyon DIVA-bg.png;
#LYRICSPATH:;
#CDTITLE:;
#MUSIC:Riririri Burning Night.ogg;
#OFFSET:-0.375;
#SAMPLESTART:36.738;
#SAMPLELENGTH:12.000;
#SELECTABLE:YES;
#BPMS:0.000=165.003;
#STOPS:;
#BGCHANGES:;
// cache tags:
#FIRSTBEAT:12.000;
#LASTBEAT:267.750;
#SONGFILENAME:Songs/Tachyon DIVA/o[jOiCg[M.L-INS]/Riririri Burning Night.sm;
#HASMUSIC:1;
#HASBANNER:1;
#MUSICLENGTH:99.892;
// end cache tags

//---------------dance-single - Blank----------------
#NOTES:
     dance-single:
     Blank:
     Challenge:
     12:
     1.000,1.000,0.290,0.901,0.651,573.000,29.000,90.000,16.000,4.000:
0000
0000
0000
0000
,
0000
0000
0000
0000
,
0000
0000
0000
0000
,
0002
0000
0003
0200
0000
0300
0020
0030
,
1000
0100
0010
0100
1000
0001
0010
0100
,
0010
0001
1000
0100
1000
0001
0100
0001
,
0010
0100
1000
0100
0010
0001
1000
0010
,
0100
0001
0010
0100
1000
0001
0100
0010
,
1000
0100
1000
0000
0001
0000
0010
0100
0010
0000
0001
0010
0001
0000
0100
0000
,
0010
0000
1000
0000
0100
0000
0010
0001
0010
0000
0100
1000
0100
0000
0010
0000
,
0001
0100
0001
0000
0010
0000
0100
1000
0100
0000
1000
0000
0010
0000
0100
0000
,
0001
0100
0010
0000
1000
0100
1000
0000
0001
0100
0010
0000
1000
0001
1000
0000
,
0101
0001
1000
0010
0110
0100
0001
0010
,
0011
0000
0010
0000
0100
0000
1000
0000
0001
0010
0100
0000
1100
0000
0010
0000
,
0011
0000
0001
0000
1000
0000
0100
0000
0010
0001
0100
0000
0101
0000
0010
0000
,
1010
0000
0100
0000
0001
1000
0100
0000
1100
0000
0010
0000
0001
0000
0100
0000
,
0010
0020
0030
00M0
0100
0200
0300
0M02
,
0000
0000
2000
0000
0040
0000
3033
M00M
,
0100
0000
0010
0000
1000
0100
0010
0001
0200
0000
0310
0000
1000
0100
0010
0002
,
0000
0000
0000
0003
0000
0000
0100
0000
0000
0000
0000
0000
0010
0000
0000
0100
0000
0000
0001
0000
0000
1000
0000
0000
0200
0000
0000
0000
0000
0000
1300
0000
0000
0000
0000
0000
0001
0000
0010
0000
0100
0000
1000
0000
0100
0000
0010
0000
,
0002
0000
0103
0000
0010
1000
0001
0010
0200
0000
1300
0000
0010
0100
0001
2000
,
0000
3000
0001
0000
0100
0010
1000
0100
0020
0000
0031
0000
0100
0000
0100
0000
,
0001
0000
0010
0000
0100
1000
0001
0010
0200
0000
0310
0000
0001
1000
0100
0020
,
0000
0000
0000
0030
0000
0000
0001
0000
0000
0000
0000
0000
0100
0000
0000
0010
0000
0000
1000
0000
0000
0001
0000
0000
0020
0000
0000
0000
0000
0000
0130
0000
0000
0000
0000
0000
1000
0000
0001
0000
0010
0000
0100
0000
0010
0000
0001
0000
,
2000
0000
3100
0000
0010
0001
0010
0100
2000
0000
3010
0000
0100
0001
0100
0020
,
0000
0030
1000
0000
0001
0010
0100
1000
0002
0000
0103
0000
0220
0000
0330
00M0
,
1000
0100
1000
0001
0100
0001
0010
0100
,
1000
0000
0100
0000
0010
0000
0001
0000
4000
3004
0403
0340
4030
3000
0100
0000
,
0010
0001
0100
0010
1000
0100
0010
0001
,
1100
0001
0010
0100
0011
1000
0100
0010
,
0101
0001
1000
0010
1000
0100
0010
0001
,
1000
0000
0001
0000
0100
0000
0010
0000
4000
3400
0340
0034
0403
0300
0010
0000
,
1000
0001
0010
0100
1000
0010
0100
0001
,
2000
3200
0320
0230
2300
3002
0203
0302
0023
0230
2300
3200
0320
0032
2003
3200
,
1300
0001
0100
0010
1000
0010
0100
0001
,
0010
0100
1000
0100
0010
0001
1000
0100
,
1000
0001
0010
0100
0010
0001
1000
0100
,
1000
0010
0100
0001
0010
0001
0100
0010
,
0200
0000
1000
1000
0001
0301
M0M0
0101
,
0120
0000
0001
0001
1030
1000
0100
0010
,
0002
0000
0000
0000
1003
0000
0200
0000
0000
0000
0310
0000
2002
0000
0000
3003
,
1000
0010
0100
0001
0010
0100
1000
0100
0010
0001
1000
0010
1000
0001
0100
0001
,
2000
0000
0002
0000
0040
0000
0000
3033
2022
0000
0000
3033
1111
0000
0MM0
0000
,
1000
0000
0100
0000
1000
0100
0010
0001
0200
0000
0310
0000
1000
0001
0010
0100
,
2000
0000
3010
0000
0100
0001
0100
0000
0010
0100
0010
0000
1000
0001
1000
0000
,
0001
0000
0100
0000
0001
0010
0100
1000
0002
0000
0103
0000
0010
1000
0100
0010
,
0001
1000
0100
1000
0001
0100
0001
0010
0100
0010
0001
1000
0100
1000
0010
0100
,
0001
0000
0010
0000
0100
1000
0001
0100
0020
0000
1030
0000
0100
0010
0001
0100
,
0020
0000
1030
0000
0001
0100
0010
1000
0200
0000
0310
0000
0001
0000
0100
0000
,
0001
0100
0001
0000
0010
0100
0010
0000
0001
0010
0100
0000
1000
0100
0010
0000
,
0001
0100
0010
1000
0100
0010
0001
0100
,
0002
0023
0230
0320
0031
1100
0M00
0002
,
0000
2003
3020
0230
0301
0110
0M00
0000
,
0020
0230
2300
3020
0230
0302
2003
3020
,
0000
0130
0001
0010
1100
0011
00M0
0000
,
0002
0000
0200
0000
,
0040
0000
0000
0000
0000
0000
0000
0000
1000
0000
0000
0000
1333
0010
0100
0001
,
1000
1100
0M00
0010
0110
0M00
0001
0101
,
000M
0000
0010
0000
1010
0000
M000
0000
0001
0000
0101
0000
2002
0000
0000
3003
,
1000
0000
0001
0000
1000
0100
0010
0001
0200
0000
0310
0000
1000
0000
0001
0000
,
0100
0000
0000
0000
0000
0000
0010
0000
0000
0000
0000
0000
1000
0000
0000
0100
0000
0000
0010
0000
0000
0001
0000
0000
0200
0000
0000
0000
0000
0000
0310
0000
0000
0000
0000
0000
1000
0000
0001
0000
0100
0000
0010
0000
1000
0000
0001
0000
,
0020
0000
0130
0000
1000
0001
0010
0100
2000
0000
3010
0000
0100
0000
0001
0000
,
1000
0000
0010
0000
0100
0001
1000
0100
0020
0000
0031
0000
1000
0001
0010
0100
,
2000
0000
3001
0000
0010
0100
1000
0001
0200
0000
0310
0000
1000
0000
0100
0000
,
0010
0000
0000
0000
0000
0000
0001
0000
0000
0000
0000
0000
0100
0000
0000
0010
0000
0000
1000
0000
0000
0001
0000
0000
0200
0000
0000
0000
0000
0000
0310
0000
0000
0000
0000
0000
0100
0000
0001
0000
0010
0000
0100
0000
1000
0000
0010
0000
,
0200
0000
0301
0000
1000
0001
0010
0100
2000
0000
3010
0000
0100
0001
0010
0200
,
0000
0300
1000
0000
0100
0010
0001
0100
0020
0000
1030
0001
2002
0000
0000
3003
;
