#TITLE:Explosive;
#SUBTITLE:;
#ARTIST:bond;
#TITLETRANSLIT:;
#SUBTITLETRANSLIT:;
#ARTISTTRANSLIT:;
#CREDIT:;
#BANNER:explosive.png;
#BACKGROUND:explosive-bg.png;
#LYRICSPATH:;
#CDTITLE:bmagetitle.png;
#MUSIC:explosive.mp3;
#OFFSET:-0.060;
#SAMPLESTART:38.100;
#SAMPLELENGTH:12.000;
#SELECTABLE:YES;
#BPMS:0.000=115.000;
#STOPS:;
#BGCHANGES:;
// cache tags:
#FIRSTBEAT:0.000;
#LASTBEAT:198.000;
#SONGFILENAME:Songs/Community Keyboard Megapack - Volume 3/(Annon) Explosive/explosive.sm;
#HASMUSIC:1;
#HASBANNER:1;
#MUSICLENGTH:105.201;
// end cache tags

//---------------dance-single - ----------------
#NOTES:
     dance-single:
     :
     Hard:
     11:
     1.000,1.000,1.000,1.000,1.000,550.000,169.000,129.000,0.000,1.000:  // measure 1
0001
0100
0010
1000
0020
0000
0000
0000
0000
0000
2030
0000
0000
0000
0000
0000
,  // measure 2
3200
0000
0320
0000
0000
0032
0000
0000
,  // measure 3
2003
3200
0000
0000
,  // measure 4
0000
0300
0000
0000
,  // measure 5
1000
0100
0010
0001
0020
0000
0000
0000
0000
0000
0032
0000
0000
0000
0000
0000
,  // measure 6
0203
0000
0320
0000
0000
2030
0000
0000
,  // measure 7
3002
0203
0000
0000
,  // measure 8
0300
0000
0000
0000
0010
0010
0000
1000
1000
0000
0001
0001
0000
0100
0100
0000
,  // measure 9
1010
0000
0100
0000
0101
0001
0001
0001
1010
0000
0001
0001
1001
0001
0000
0000
,  // measure 10
1010
0000
0100
0000
1001
1000
1000
1000
0011
0000
1000
1000
1001
1000
0000
0000
,  // measure 11
0011
0000
0100
0000
1010
0010
0010
0010
1100
0000
0010
0010
0110
0010
0000
0000
,  // measure 12
1100
0000
0001
0000
0110
0100
0100
0100
0011
0000
0100
0100
0101
0100
0000
0000
,  // measure 13
1010
0100
0001
1000
1002
1000
1000
1000
0003
0000
0120
0100
0100
0100
0030
0000
,  // measure 14
0210
0000
0300
0000
0021
0001
0001
0001
0030
0000
1002
1000
1000
1003
0000
0000
,  // measure 15
2010
0000
0000
0000
3101
0100
0100
0100
1001
0000
0100
0100
1100
0100
0000
0000
,  // measure 16
0011
0000
0000
0000
1100
0100
0100
0100
1001
0000
0100
0100
0110
0100
0000
0000
,  // measure 17
1010
0100
0010
0100
2001
0001
0001
0001
3000
0000
0210
0010
0010
0010
0300
0000
,  // measure 18
0012
0000
0003
0000
1020
1000
1000
1000
0030
0000
2100
0100
0100
0100
3000
0000
,  // measure 19
0110
0000
0000
0000
1000
0100
0010
0001
0110
0000
0100
0010
1000
0010
0100
0001
,  // measure 20
0110
1000
0100
0010
1000
0010
0010
0001
0011
1000
1000
0100
0100
0010
0001
1000
,  // measure 21
0110
0001
0010
0100
1000
0100
0100
0010
0011
0100
0100
0010
0010
0001
0010
0100
,  // measure 22
1001
0100
0010
0001
0100
0010
1000
0001
0110
0000
1000
0100
0010
0100
1000
0001
,  // measure 23
0110
1001
0110
1001
0120
2030
3020
0230
0302
0000
2003
3200
0320
0032
0023
0230
,  // measure 24
2300
3020
0230
0302
2003
3200
0320
0230
2300
0000
3002
0203
0320
2030
3002
0023
,  // measure 25
0230
2300
3020
0230
0302
2003
3200
0320
0032
0000
2003
3200
0320
0032
2003
3020
,  // measure 26
0230
0302
2003
3200
0310
0001
0000
0011
0000
0000
1100
0000
0000
0011
0000
1100
,  // measure 27
0000
0000
1001
1001
1001
0100
0010
1000
0011
0000
0100
0010
1100
0001
0100
0010
,  // measure 28
1001
0100
0010
0100
0011
0100
0100
1000
1001
0010
0010
0100
0101
0010
1000
0001
,  // measure 29
0110
1000
0100
0010
1001
0100
0100
0010
0011
1000
1000
0001
0101
0010
1000
0010
,  // measure 30
1100
0001
0010
0100
1001
0100
0010
1000
1001
0000
0100
0010
1100
0001
0100
0010
,  // measure 31
1001
0110
1001
0110
1001
0100
0010
1000
0011
0000
0100
0010
1001
0100
0010
0100
,  // measure 32
0011
1000
0010
0100
1001
0010
0010
1000
1010
0001
0001
0100
0110
1000
0001
0010
,  // measure 33
1100
0001
0100
0010
1100
0010
0010
0001
0011
1000
1000
0100
1100
0010
0001
1000
,  // measure 34
0110
0001
1000
0100
0011
0100
1000
0100
0011
0000
1000
0100
0011
1000
0100
1000
,  // measure 35
0011
1100
0011
1100
0021
0230
2300
3002
0203
0000
0320
2030
3020
0230
0302
0023
,  // measure 36
0230
2300
3002
0203
0320
2030
3020
0230
0302
0000
2003
3200
0320
0032
0023
0230
,  // measure 37
2300
3020
0230
0302
2003
3200
0320
0230
2300
0000
3002
0203
0320
2030
3002
0023
,  // measure 38
0230
2300
3002
2003
3100
0010
0000
0011
0000
0000
1100
0000
0000
1010
0000
0101
,  // measure 39
1001
0000
0000
0000
1001
1010
1100
1010
0001
0000
1001
1010
1100
1010
0001
0000
,  // measure 40
0110
0000
0100
0000
1001
0101
0011
0101
1000
0000
1001
0101
0011
0101
1000
0000
,  // measure 41
0101
1010
0101
1010
0201
0001
0001
0001
0300
0000
0210
0010
0010
0010
0300
0000
,  // measure 42
2100
0000
3100
0000
0102
0100
0100
0100
0003
0000
2010
0010
0010
0010
3000
0000
,  // measure 43
1002
0000
0100
0103
1001
1000
1000
1000
0110
0000
1000
1000
1010
1000
0000
0000
,  // measure 44
0110
0000
0100
0000
0001
0001
0001
0001
0000
0000
0001
0001
2001
3001
0000
0000
,  // measure 45
0101
0010
1000
0010
0201
0001
0001
0001
0300
0000
1020
1000
1000
1000
0030
0000
,  // measure 46
0210
0000
0000
0000
0310
0000
0001
0010
2100
0000
0100
0000
0100
0000
0100
0000
3000
0000
0000
0000
0012
0000
0010
0000
0010
0000
0010
0000
0003
0000
0000
0000
,  // measure 47
1001
0000
0000
0000
1010
1010
0000
0110
0110
0000
0101
0101
0000
0110
0110
0000
,  // measure 48
1100
0000
0011
0000
0011
0011
0000
0110
0110
0000
1100
1100
0000
0110
0110
0000
,  // measure 49
1001
0000
0101
0000
1100
1100
0000
1001
1001
0000
0101
0101
0000
1010
1010
0000
,  // measure 50
0011
1100
2002
0000
3003
0000
0000
0000
;
