#TITLE:Burst Linker;
#SUBTITLE:;
#ARTIST:DJ Sharpnel;
#TITLETRANSLIT:;
#SUBTITLETRANSLIT:;
#ARTISTTRANSLIT:;
#CREDIT:;
#BANNER:burst bn.png;
#BACKGROUND:burst linker bg.png;
#LYRICSPATH:;
#CDTITLE:;
#MUSIC:Burst Linker.ogg;
#OFFSET:-5.078;
#SAMPLESTART:149.269;
#SAMPLELENGTH:18.867;
#SELECTABLE:YES;
#DISPLAYBPM:191.000;
#BPMS:0.000=190.800;
#STOPS:;
#BGCHANGES:;
// cache tags:
#FIRSTBEAT:32.000;
#LASTBEAT:984.000;
#SONGFILENAME:Songs/SHARPNELSTREAMZ v2/Burst Linker/Burst Linker.sm;
#HASMUSIC:1;
#HASBANNER:1;
#MUSICLENGTH:321.358;
// end cache tags

//---------------dance-single - 17- (TYLR)----------------
#NOTES:
     dance-single:
     17- (TYLR):
     Challenge:
     17:
     1.000,1.000,0.028,0.280,1.000,3158.000,9.000,90.000,0.000,0.000:
0000
0000
0000
0000
,
0000
0000
0000
0000
,
0000
0000
0000
0000
,
0000
0000
0000
0000
,
0000
0000
0000
0000
,
0000
0000
0000
0000
,
0000
0000
0000
0000
,
0000
0000
0000
0000
,
1002
1003
0000
1000
,
0000
0100
0000
0100
,
0000
0010
0000
0010
,
0000
0001
0000
0001
,
0000
1000
0000
1000
,
0000
0010
0000
0010
,
0000
0100
0000
0100
,
0000
0000
0000
0000
0001
0000
0000
0000
1000
0001
0100
0001
1000
0100
0010
0001
,
1000
0100
0010
0001
,
1000
0010
0100
0001
,
0010
0001
0100
0010
,
1000
0000
0100
0000
0010
0000
0001
0001
,
1000
0010
0100
0001
,
0010
0001
0100
0010
,
1000
0100
0010
0001
,
0100
0000
0010
0000
1000
0000
0001
0001
,
0010
0100
0010
0001
1000
0100
1000
0001
,
1000
0010
0100
0001
0010
0001
0100
0010
,
1000
0001
0010
0001
1000
0010
0100
0001
,
0010
0100
0010
0001
1000
0010
0100
0100
,
0001
0100
0010
1000
0001
1000
0010
0100
,
0001
0010
0100
1000
0010
1000
0100
0010
,
0001
1000
0010
0100
0001
1000
0001
0100
,
0040
4000
0000
0000
0000
0000
0000
0000
0000
0000
0000
0000
0000
0000
0000
0030
,
3001
0100
0001
1000
0100
1000
0001
0100
0001
1000
0100
0010
0100
1000
0001
1000
,
0100
0010
0100
1000
0001
0010
0100
0010
0001
1000
0001
0100
0010
1000
0001
1000
,
0100
0010
0100
1000
0001
0010
0001
1000
0001
0100
0010
1000
0010
0100
0001
0100
,
0010
1000
0001
0010
0001
1000
0010
1000
0001
0100
0001
1000
0100
1000
0001
0010
,
0001
0100
0001
1000
0100
1000
0001
0100
0001
1000
0100
0010
0100
1000
0001
1000
,
0100
0010
0100
1000
0001
0010
0100
0010
0001
1000
0001
0100
0010
1000
0001
1000
,
0100
0010
0100
1000
0001
0010
0001
1000
0001
0100
0010
1000
0010
0100
0001
0100
,
0010
1000
0001
0010
0001
1000
0010
1000
0001
0100
0001
1000
0100
1000
0001
0010
,
0001
0100
0001
1000
0100
1000
0001
0100
0001
1000
0100
0010
0100
1000
0001
1000
,
0100
0010
0100
1000
0001
0010
0100
0010
0001
1000
0001
0100
0010
1000
0001
1000
,
0100
0010
0100
1000
0001
0010
0001
1000
0001
0100
0010
1000
0010
0100
0001
0100
,
0010
1000
0001
0010
0001
1000
0010
1000
0001
0100
0001
1000
0100
1000
0001
0010
,
0001
0100
0001
1000
0100
1000
0001
0100
0001
1000
0100
0010
0100
1000
0001
1000
,
0100
0010
0100
1000
0001
0010
0100
0010
0001
1000
0001
0100
0010
1000
0001
1000
,
0100
0010
0100
1000
0001
0010
0001
1000
0001
0100
0010
1000
0010
0100
0001
0100
,
0010
1000
0100
0010
0100
1000
0010
0100
0001
0010
0100
1000
0001
0100
0010
1000
,
0002
0000
0000
1003
0100
0010
0001
1000
0010
0100
0001
1000
0100
0010
0001
1000
,
0020
0000
0000
1030
0001
0010
0100
1000
0001
0100
0010
1000
0001
0010
0100
1000
,
0020
0000
0000
1030
0001
0010
0100
1000
0001
0100
0010
1000
0001
0010
0100
1000
,
0002
0000
0000
1003
0100
0010
0001
1000
0010
0100
0001
1000
0100
0010
0001
1000
,
0020
0000
0000
1030
0001
0010
0100
1000
0001
0100
0010
1000
0001
0010
0100
1000
,
0002
0000
0000
1003
0010
0100
0001
1000
0100
0010
0001
1000
0010
0100
0001
1000
,
0200
0000
0000
0310
0100
1000
0001
0100
0010
1000
0001
0010
0100
1000
0001
0100
,
0020
0000
0000
1030
0010
0100
0001
0010
0100
1000
0001
0100
0010
1000
0100
0010
,
0002
1003
0001
1000
0100
0010
0001
1000
0010
0100
0001
1000
0100
0010
0001
1000
,
0020
0130
0010
1000
0001
0010
0100
1000
0001
0100
0010
1000
0001
0010
0100
1000
,
0020
0130
0010
1000
0001
0010
0100
1000
0001
0100
0010
1000
0001
0010
0100
1000
,
0002
1003
0001
1000
0100
0010
0001
1000
0010
0100
0001
1000
0100
0010
0001
1000
,
0020
1030
0010
1000
0001
0010
0100
1000
0001
0100
0010
1000
0001
0010
0100
1000
,
0002
1003
0001
1000
0010
0100
0001
1000
0100
0010
0001
1000
0010
0100
0001
1000
,
0200
0310
0100
0010
0001
0010
0100
1000
0010
1000
0100
0010
0001
0100
0010
1000
,
0001
0000
0000
0000
0000
0010
0001
1000
,
2001
0000
0000
3100
0000
0000
1000
0000
0000
0000
0010
0000
1000
0000
0001
0000
,
1002
0000
0000
0103
0000
0000
0001
0000
0000
0000
0010
0000
0001
0000
1000
0000
,
1200
0320
0032
0203
,
0320
0000
0000
0000
0030
0010
1000
0001
,
1002
0000
0000
0103
0000
0000
0001
0000
0001
0000
0000
0000
0010
0000
0000
0000
,
0200
0000
0300
1000
1000
0001
1000
0100
,
0020
0000
0000
0000
0030
0000
0001
0100
0020
0000
0000
0000
0030
0000
1000
0100
,
0020
0000
0000
0000
0000
0000
0000
0000
0000
0000
0000
0000
0030
0000
0000
0001
0010
0001
0010
0000
0000
0001
1000
0001
,
2000
0000
0000
3100
0000
0000
1000
0000
0000
0000
0001
0000
0010
0000
0001
0000
,
2000
0000
0000
3100
0000
0000
1000
0000
0000
0000
0001
0000
0010
0000
0001
0000
,
0200
0320
2030
3200
,
0320
0000
0000
0000
0030
0001
0010
0001
,
2000
0000
0000
3100
0000
0000
1000
0000
2000
0000
0000
0000
3020
0000
0000
0000
,
0230
0000
0000
0000
0000
0000
0000
0000
0000
0000
0000
0000
0000
0000
0000
0000
0000
0000
0000
0000
0000
0000
0000
0000
0000
0000
0000
0000
0000
0000
0000
0300
,
0101
0000
0000
0000
0000
0000
0000
0000
0000
0000
0000
0000
0000
0000
0000
0001
0100
0001
0100
0000
0000
0001
1000
0001
,
1000
0100
0010
0001
1000
0001
0010
0100
1000
0001
0100
0001
1000
0001
0010
0001
,
1000
0100
0010
0001
1000
0010
1000
0001
0010
0100
1000
0001
0010
0001
1000
0001
,
1000
0010
0100
0001
1000
0001
0100
0010
1000
0001
0010
0100
1000
0100
0010
0001
,
2000
3000
0020
0030
0200
0300
0002
0003
0020
0030
0002
0003
0200
0300
0020
0030
2000
3000
0200
0300
0020
0030
0002
0003
0200
0300
0002
0003
0020
0030
0200
0300
,
1000
0001
1000
0100
0010
0001
0010
0100
1000
0001
1000
0010
0100
0001
0100
0010
,
1000
0001
1000
0100
0010
0100
1000
0001
0100
0001
1000
0001
0010
0100
1000
0001
,
0010
0100
1000
0001
0010
0001
1000
0010
1000
0001
0100
0001
0010
0100
1000
0001
,
0010
0100
1000
0001
0010
0001
1000
0010
1000
0001
0100
0001
1000
0001
1000
0001
,
1000
0100
0010
0001
1000
0001
0010
0100
1000
0001
0010
0001
0100
0010
1000
0001
,
1000
0100
0010
0001
1000
0001
0010
0100
1000
0001
0100
0001
0010
0100
1000
0001
,
0100
0010
1000
0001
0100
0001
1000
0010
1000
0001
1000
0100
0010
0001
0010
0100
,
1000
0001
0100
0010
1000
0010
0100
0001
1000
0001
0100
0001
1000
0001
1000
0001
,
1000
0100
0010
0001
1000
0001
0010
0100
1000
0100
0010
0001
0100
0001
0010
0100
,
1000
0010
0100
0001
1000
0001
0100
0010
1000
0010
0100
0001
0010
0100
1000
0001
,
1000
0100
1000
0001
0010
0001
1000
0100
1000
0001
0010
0001
0100
0010
1000
0001
,
0100
0001
1000
0001
1000
0100
1000
0001
0010
0001
1000
0001
0100
0001
0100
0001
,
0010
0100
1000
0001
0100
0001
1000
0001
0010
0100
1000
0010
0100
0010
1000
0001
,
0010
0100
1000
0001
0100
0001
1000
0100
0010
0001
1000
0001
0100
0001
1000
0100
,
0010
0001
0010
0001
1000
0100
0010
0001
0010
0001
1000
0001
0100
0010
1000
0001
,
2000
3100
1000
0100
0020
0031
0010
0001
2000
3010
1000
0010
0200
0301
0100
0001
,
1000
0001
1000
0001
0010
0001
1000
0100
1000
0100
0010
0001
1000
0010
1000
0001
,
1000
0100
1000
0100
0010
0001
1000
0010
1000
0010
0100
0001
0010
0100
0010
0001
,
0010
0100
1000
0001
1000
0100
0010
0001
1000
0100
1000
0001
1000
0010
1000
0010
,
1000
0001
0100
0010
1000
0001
1000
0100
0010
0001
1000
0100
1000
0001
0100
0010
,
1000
0001
0010
0001
1000
0100
0010
0001
1000
0010
1000
0001
0100
0001
1000
0010
,
1000
0001
0010
0001
1000
0100
1000
0001
1000
0010
0100
0001
1000
0001
0100
0010
,
2000
3000
0200
0300
0020
0030
0002
0003
0200
0300
0002
0003
2000
3000
0002
0003
0020
0030
0200
0300
2000
3000
0200
0300
0020
0030
0002
0003
2000
3000
0020
0030
,
0200
0300
0001
0000
0100
0000
0010
0000
1000
0000
0001
0000
1000
0000
0010
0000
0100
0000
0001
0000
1000
0000
0001
0000
0010
0000
0100
0000
0010
0000
0100
0000
,
1000
0001
1000
0001
0100
0001
1000
0010
1000
0010
0100
0001
1000
0100
1000
0001
,
1000
0010
1000
0010
0100
0001
1000
0100
1000
0100
0010
0001
0100
0010
0100
0001
,
0100
0010
1000
0001
1000
0010
0100
0001
1000
0010
1000
0001
1000
0100
1000
0100
,
1000
0001
0010
0100
1000
0001
1000
0010
0100
0001
1000
0010
1000
0001
0010
0100
,
1000
0010
0100
0001
1000
0001
0100
0010
1000
0001
1000
0010
0100
0001
0100
0001
,
0010
0100
1000
0100
0010
0001
1000
0001
0100
0010
1000
0001
0100
0010
1000
0001
,
1000
0100
0010
0001
1000
0001
0010
0100
1000
0001
0010
0001
1000
0100
0010
0001
,
4000
0000
0000
0000
0000
0000
0000
0000
0000
0000
3010
0000
1000
0001
0010
0001
,
1000
0100
1000
0001
0100
0001
0010
0100
1000
0001
0010
0001
1000
0001
0100
0010
,
1000
0100
1000
0001
0100
0001
0010
0100
1000
0001
0010
0001
1000
0001
0100
0010
,
1000
0001
1000
0010
0100
0001
0100
0010
1000
0100
1000
0010
0100
0001
0010
0100
,
1000
0100
0010
0001
1000
0001
0010
0100
1000
0010
0100
0010
1000
0001
0010
0001
,
1000
0100
1000
0001
0100
0001
0010
0100
0010
0001
1000
0001
0100
0010
1000
0010
,
0100
0001
0010
0100
1000
0100
0010
0001
0010
0001
0100
0001
1000
0010
0100
0001
,
0010
0100
0010
0001
1000
0010
0100
0001
0010
0100
0010
0001
1000
0010
0100
0001
,
0010
0000
0000
0100
0000
0000
0010
0000
0000
0001
0000
0000
1000
0000
0000
0001
0000
0000
0100
0000
0000
0010
0000
0000
1000
0000
0000
0001
0000
0000
1000
0000
0100
0000
0010
0000
0001
0000
0000
1000
0000
0000
0100
0000
0010
0000
0001
0000
,
1000
0010
1000
0001
0010
0001
0100
0010
1000
0001
0100
0001
1000
0001
0010
0100
,
1000
0010
1000
0001
0010
0001
0100
0010
1000
0001
0100
0001
1000
0001
0010
0100
,
1000
0001
1000
0100
0010
0001
0010
0100
1000
0010
1000
0100
0010
0001
0100
0010
,
1000
0010
0100
0001
1000
0001
0100
0010
1000
0100
0010
0100
1000
0001
0100
0001
,
1000
0010
1000
0001
0010
0001
0100
0010
0100
0001
1000
0001
0010
0100
1000
0100
,
0010
0001
0100
0010
1000
0010
0100
0001
0100
0001
0010
0001
1000
0100
0010
0001
,
1000
0000
0000
0000
0000
0000
0000
0000
0000
0000
0000
0000
0000
0000
0000
0001
1000
0001
1000
0000
0000
0001
1000
0001
,
1000
0100
1000
0001
0100
0001
0010
0100
1000
0001
0010
0001
1000
0001
0100
0010
,
1000
0100
1000
0001
0100
0001
0010
0100
1000
0001
0010
0001
1000
0001
0100
0010
,
1000
0001
1000
0010
0100
0001
0100
0010
1000
0100
1000
0010
0100
0001
0010
0100
,
1000
0100
0010
0001
1000
0001
0010
0100
1000
0010
0100
0010
1000
0001
0010
0001
,
1000
0100
1000
0001
0100
0001
0010
0100
0010
0001
1000
0001
0100
0010
1000
0010
,
0100
0001
0010
0100
1000
0100
0010
0001
0010
0001
0100
0001
1000
0010
0100
0001
,
0010
0100
0010
0001
1000
0010
0100
0001
0010
0100
0010
0001
1000
0010
0100
0001
,
0010
0000
0000
0100
0000
0000
0010
0000
0000
0001
0000
0000
1000
0000
0000
0001
0000
0000
0100
0000
0000
0010
0000
0000
1000
0000
0000
0001
0000
0000
0010
0000
0100
0000
1000
0000
0001
0000
0000
0010
0000
0000
0100
0000
1000
0000
0001
0000
,
0010
0100
1000
0001
0010
0001
0100
0010
1000
0001
0100
0001
1000
0001
0010
0100
,
1000
0010
1000
0001
0010
0001
0100
0010
1000
0001
0100
0001
1000
0001
0010
0100
,
1000
0001
1000
0100
0010
0001
0010
0100
1000
0010
1000
0100
0010
0001
0100
0010
,
1000
0010
0100
0001
1000
0001
0100
0010
1000
0100
0010
0100
1000
0001
0100
0001
,
1000
0010
1000
0001
0010
0001
0100
0010
0100
0001
1000
0001
0010
0100
1000
0100
,
0010
0001
0100
0010
1000
0010
0100
0001
0100
0001
0010
0001
1000
0100
0010
0001
,
1000
0000
0000
0000
0000
0000
0000
0000
0000
0000
0000
0000
0000
0000
0000
0001
1000
0001
1000
0000
0000
0001
1000
0001
,
1000
0100
0010
0001
0010
0001
1000
0001
1000
0010
1000
0010
0100
0001
1000
0010
,
0100
0001
1000
0100
1000
0100
0010
0001
1000
0001
1000
0001
0100
0010
1000
0001
,
0010
0100
1000
0001
1000
0001
0100
0010
1000
0001
1000
0001
0100
0010
1000
0001
,
1000
0100
0010
0001
0010
0001
0100
0010
1000
0001
1000
0001
0010
0100
1000
0001
,
1000
0010
0100
0001
0100
0001
0010
0100
1000
0001
1000
0001
0100
0010
1000
0001
,
0010
0100
1000
0001
1000
0001
0100
0010
1000
0001
1000
0001
0010
0100
0010
0001
,
1000
0010
0100
0001
0100
0001
1000
0100
0010
0001
0010
0001
1000
0100
0010
0001
,
1000
0000
0000
0001
0000
0000
1000
0000
0000
0001
0000
0000
1000
0000
0000
0001
0000
0000
1000
0000
0000
0001
0000
0000
1000
0000
0000
0000
0000
0000
0000
0000
0000
0001
0000
0000
0000
0000
0000
0000
0000
0000
1000
0000
0100
0000
0010
0000
,
0001
1000
0100
1000
0100
0010
0001
1000
0001
1000
0001
0100
0010
1000
0001
1000
,
0100
0010
0001
1000
0001
1000
0010
0100
0001
1000
0001
1000
0010
1000
0100
0010
,
0001
0100
0010
1000
0010
1000
0100
0010
0001
1000
0001
1000
0010
0100
0001
1000
,
0100
0010
0001
1000
0001
1000
0010
0100
0001
1000
0001
1000
0100
0010
0001
1000
,
0001
0100
0010
1000
0010
1000
0100
0010
0001
1000
0001
1000
0010
0100
0001
1000
,
0100
0010
0001
1000
0001
1000
0010
0100
0001
1000
0001
1000
0010
1000
0100
0010
,
0001
0100
0010
1000
0010
1000
0100
0010
0001
1000
0001
1000
0010
0100
0010
1000
,
0001
0000
0000
1000
0000
0000
0001
0000
0000
1000
0000
0000
0001
0000
0000
1000
0000
0000
0001
0000
0000
1000
0000
0000
0001
0000
0000
0000
0000
0000
0000
0000
0000
1000
0000
0000
0000
0000
0000
0000
0000
0000
0001
0000
0100
0000
0010
0000
,
1000
0100
0010
0001
0010
0001
1000
0010
0100
0001
0100
0001
1000
0001
0100
0010
,
1000
0100
0010
0001
0010
0001
0100
0010
1000
0001
1000
0001
0100
0001
0010
0100
,
1000
0010
0100
0001
0100
0001
0010
0100
1000
0001
1000
0001
0100
0010
1000
0001
,
0010
0100
1000
0001
1000
0001
0100
0010
1000
0001
1000
0001
0010
0100
1000
0001
,
1000
0010
0100
0001
0100
0001
0010
0100
1000
0001
1000
0001
0100
0010
1000
0001
,
0010
0100
1000
0001
1000
0001
0100
0010
1000
0001
1000
0001
0100
0001
0010
0100
,
1000
0010
0100
0001
0100
0001
0010
0100
1000
0001
1000
0001
0100
0010
0100
0001
,
1000
0000
0000
0001
0000
0000
1000
0000
0000
0001
0000
0000
1000
0000
0000
0001
0000
0000
1000
0000
0000
0001
0000
0000
1000
0000
0000
0001
0000
0000
1000
0000
0100
0000
0010
0000
0001
0000
0000
1000
0000
0000
0100
0000
0010
0000
0001
0000
,
1000
0000
0000
0010
0000
0000
1000
0000
0000
0000
0100
0000
0010
0000
0001
0000
,
1000
0000
0000
0010
0000
0000
1000
0000
0000
0000
0100
0000
0010
0000
0001
0000
,
2000
3020
0230
0302
,
0023
0000
0000
0000
0030
0100
0010
0001
,
1000
0000
0000
0010
0000
0000
1000
0000
1000
0000
0000
0000
0100
0000
0000
0000
,
0020
0000
0030
0001
0001
1000
0001
0010
,
0200
0000
0000
0000
1300
0000
0001
0100
0020
0000
0000
0000
1030
0000
0100
0010
,
0002
0000
0000
0000
0003
0100
0010
1000
,
0001
0000
0000
0010
0000
0000
0001
0000
0000
0000
0100
0000
0010
0000
1000
0000
,
0001
0000
0000
0010
0000
0000
0001
0000
0000
0000
0100
0000
0010
0000
1000
0000
,
0002
0023
0230
2300
,
3020
0000
0000
0000
0000
0130
0010
1000
,
0001
0000
0000
0010
0000
0000
0001
0000
0001
0000
0000
0000
0100
0000
0000
0000
,
0001
0100
0010
1000
0001
1000
0010
0100
0001
1000
0100
0010
0001
0100
0010
1000
,
0004
0000
0000
0000
0000
0000
0000
0000
0000
0000
0103
0000
0001
1000
0010
0100
,
0001
0010
0001
1000
0010
1000
0100
0010
0001
1000
0100
1000
0001
1000
0010
0100
,
0001
0010
0001
1000
0010
1000
0100
0010
0001
1000
0100
1000
0001
1000
0010
0100
,
0001
1000
0001
0100
0010
1000
0010
0100
0001
0010
0001
0100
0010
1000
0100
0010
,
0001
0010
0100
1000
0001
1000
0100
0010
0001
0100
0010
0100
0001
1000
0100
1000
,
0001
0010
0001
1000
0010
1000
0100
0010
0100
1000
0001
1000
0010
0100
0001
0100
,
0010
1000
0100
0010
0001
0010
0100
1000
0100
1000
0010
1000
0001
0100
0010
1000
,
0100
0010
0100
1000
0001
0100
0010
1000
0100
0010
0100
1000
0001
0100
0010
1000
,
0100
0000
0000
0010
0000
0000
0100
0000
0000
1000
0000
0000
0001
0000
0000
1000
0000
0000
0010
0000
0000
0100
0000
0000
0001
0000
0000
1000
0000
0000
0100
0000
0010
0000
0001
0000
1000
0000
0000
0100
0000
0000
0010
0000
0001
0000
1000
0000
,
0100
0010
0001
1000
0100
1000
0010
0100
0001
1000
0010
1000
0001
1000
0100
0010
,
0001
0100
0001
1000
0100
1000
0010
0100
0001
1000
0010
1000
0001
1000
0100
0010
,
0001
1000
0001
0010
0100
1000
0100
0010
0001
0100
0001
0010
0100
1000
0010
0100
,
0001
0100
0010
1000
0001
1000
0010
0100
0001
0010
0100
0010
0001
1000
0010
1000
,
0001
0100
0001
1000
0100
1000
0010
0100
0010
1000
0001
1000
0100
0010
0001
0010
,
0100
1000
0010
0100
0001
0100
0010
1000
0010
1000
0100
1000
0001
0010
0100
1000
,
0001
0000
0000
1000
0000
0000
0001
0000
0000
1000
0000
0000
0001
0000
0000
1000
0000
0000
0001
0000
0000
1000
0000
0000
0001
0000
0000
1000
0000
0000
0001
0000
0010
0000
0100
0000
1000
0000
0000
0001
0000
0000
0010
0000
0100
0000
1000
0000
,
0001
1000
0001
1000
0010
1000
0100
0010
0001
1000
0100
1000
0001
1000
0010
0100
,
0001
0010
0001
1000
0010
1000
0100
0010
0001
1000
0100
1000
0001
1000
0010
0100
,
0001
1000
0001
0100
0010
1000
0010
0100
0001
0010
0001
0100
0010
1000
0100
0010
,
0001
0010
0100
1000
0001
1000
0100
0010
0001
0100
0010
0100
0001
1000
0100
1000
,
0001
0010
0001
1000
0010
1000
0100
0010
0100
1000
0001
1000
0010
0100
0001
0100
,
0010
1000
0100
0010
0001
0010
0100
1000
0100
1000
0010
1000
0001
0100
0010
1000
,
0100
0010
0100
1000
0001
0100
0010
1000
0100
0010
0100
1000
0001
0100
0010
1000
,
0100
0000
0000
0010
0000
0000
0100
0000
0000
1000
0000
0000
0001
0000
0000
1000
0000
0000
0010
0000
0000
0100
0000
0000
0001
0000
0000
1000
0000
0000
0100
0000
0010
0000
0001
0000
1000
0000
0000
0100
0000
0000
0010
0000
0001
0000
1000
0000
,
0100
0010
0001
1000
0100
1000
0010
0100
0001
1000
0010
1000
0001
1000
0100
0010
,
0001
0100
0001
1000
0100
1000
0010
0100
0001
1000
0010
1000
0001
1000
0100
0010
,
0001
1000
0001
0010
0100
1000
0100
0010
0001
0100
0001
0010
0100
1000
0010
0100
,
0001
0100
0010
1000
0001
1000
0010
0100
0001
0010
0100
0010
0001
1000
0010
1000
,
0001
0100
0001
1000
0100
1000
0010
0100
0010
1000
0001
1000
0100
0010
0001
0010
,
0100
1000
0010
0100
0001
0100
0010
1000
0010
1000
0100
1000
0001
0010
0100
1000
,
0001
0000
0000
0000
0000
0000
0000
0000
0000
0000
0000
0000
0000
0000
0000
1000
0001
1000
0001
0000
0000
1000
0001
1000
,
0001
0100
0010
1000
0100
0010
0001
1000
0100
0010
0001
1000
0100
0010
0001
1000
,
0010
0100
0010
1000
0100
0010
0001
1000
0100
0010
0001
1000
0100
0010
0001
1000
,
0010
0100
0010
1000
0100
0010
0001
1000
0100
0010
0001
1000
0100
0010
0001
1000
,
0010
0100
0010
1000
0100
0010
0001
1000
0100
0010
0001
1000
0100
0010
0001
1000
,
0010
0100
0010
1000
0100
0010
0001
1000
0100
0010
0001
1000
0100
0010
0001
1000
,
0010
0100
0010
1000
0100
0010
0001
1000
0100
0010
0001
1000
0100
0010
0001
1000
,
0010
0100
0010
1000
0100
0010
0001
1000
0100
0010
0001
1000
0100
0010
0001
1000
,
0010
0000
0000
0100
0000
0000
0010
0000
0000
0100
0000
0000
0010
0000
0000
0100
0000
0000
0010
0000
0000
0100
0000
0000
0010
0000
0000
0000
0000
0000
0000
0000
0000
1000
0000
0000
0000
0000
0000
0000
0000
0000
0100
0000
0010
0000
0001
0000
,
1000
0010
0100
0001
0010
0100
1000
0001
0010
0100
1000
0001
0010
0100
1000
0001
,
0100
0010
0100
0001
0010
0100
1000
0001
0010
0100
1000
0001
0010
0100
1000
0001
,
0100
0010
0100
0001
0010
0100
1000
0001
0010
0100
1000
0001
0010
0100
1000
0001
,
0100
0010
0100
0001
0010
0100
1000
0001
0010
0100
1000
0001
0010
0100
1000
0001
,
0100
0010
0100
0001
0010
0100
1000
0001
0010
0100
1000
0001
0010
0100
1000
0001
,
0100
0010
0100
0001
0010
0100
1000
0001
0010
0100
1000
0001
0010
0100
1000
0001
,
0100
0010
0100
0001
0010
0100
1000
0001
0010
0100
1000
0001
0010
0100
1000
0001
,
1000
0000
0000
0001
0000
0000
1000
0000
0000
0001
0000
0000
1000
0000
0000
0001
0000
0000
1000
0000
0000
0001
0000
0000
1000
0000
0000
0000
0000
0000
0000
0000
0000
0010
0000
0000
0000
0000
0000
0000
0000
0000
0100
0000
0001
0000
0100
0000
,
0001
1000
0010
1000
0100
0010
0001
1000
0100
0010
0001
1000
0010
1000
0001
0100
,
0010
1000
0001
1000
0100
0010
0001
1000
0100
0010
0001
1000
0010
1000
0001
0100
,
0010
1000
0001
1000
0100
0010
0001
1000
0100
0010
0001
1000
0010
1000
0001
0100
,
0010
1000
0001
1000
0100
0010
0001
1000
0100
0010
0001
1000
0010
1000
0001
0100
,
0010
1000
0001
1000
0100
0010
0001
1000
0100
0010
0001
1000
0010
1000
0001
0100
,
0010
1000
0001
1000
0100
0010
0001
1000
0100
0010
0001
1000
0010
1000
0001
0100
,
0010
1000
0001
1000
0100
0010
0001
1000
0100
0010
0001
1000
0010
1000
0100
0010
,
0001
0000
0000
1000
0000
0000
0001
0000
0000
1000
0000
0000
0001
0000
0000
1000
0000
0000
0001
0000
0000
1000
0000
0000
0001
0000
0000
0000
0000
0000
0000
0000
0000
0100
0000
0000
0000
0000
0000
0000
0000
0000
0010
0000
1000
0000
0010
0000
,
1000
0001
0100
0001
0010
0100
1000
0001
0010
0100
1000
0001
0100
0001
1000
0010
,
0100
0001
1000
0001
0010
0100
1000
0001
0010
0100
1000
0001
0100
0001
1000
0010
,
0100
0001
1000
0001
0010
0100
1000
0001
0010
0100
1000
0001
0100
0001
1000
0010
,
0100
0001
1000
0001
0010
0100
1000
0001
0010
0100
1000
0001
0100
0001
1000
0010
,
0100
0001
1000
0001
0010
0100
1000
0001
0010
0100
1000
0001
0100
0001
1000
0010
,
0100
0001
1000
0001
0010
0100
1000
0001
0010
0100
1000
0001
0100
0001
1000
0010
,
0100
0001
1000
0001
0010
0100
1000
0001
0010
0100
1000
0001
0100
0001
0010
0100
,
1000
0000
0000
0001
0000
0000
1000
0000
0000
0001
0000
0000
1000
0000
0000
0001
0000
0000
1000
0000
0000
0001
0000
0000
1000
0000
0000
0000
0000
0000
0000
0000
0000
0001
0000
0000
0000
0000
0000
0000
0000
0000
1000
0000
0001
0000
1000
0000
,
0001
0000
0000
0000
;

//---------------dance-single - 15+ (TYLR)----------------
#NOTES:
     dance-single:
     15+ (TYLR):
     Hard:
     15:
     1.000,1.000,0.224,0.526,1.000,2715.000,72.000,169.000,0.000,2.000:
0000
0000
0000
0000
,
0000
0000
0000
0000
,
0000
0000
0000
0000
,
0000
0000
0000
0000
,
0000
0000
0000
0000
,
0000
0000
0000
0000
,
0000
0000
0000
0000
,
0000
0000
0000
0000
,
1002
1003
0000
1000
,
0000
0100
0000
0100
,
0000
0010
0000
0010
,
0000
0001
0000
0001
,
0000
1000
0000
1000
,
0000
0010
0000
0010
,
0000
0100
0000
0100
,
0000
0000
0000
0000
0001
0000
0000
0000
1000
0001
0100
0001
1000
0100
0010
0001
,
1000
0100
0010
0001
,
1000
0010
0100
0001
,
0010
0001
0100
0010
,
1000
0000
0100
0000
0010
0000
0001
0001
,
1000
0010
0100
0001
,
0010
0001
0100
0010
,
1000
0100
0010
0001
,
0100
0000
0010
0000
1000
0000
0001
0001
,
0010
0100
0010
0001
1000
0100
1000
0001
,
1000
0010
0100
0001
0010
0001
0100
0010
,
1000
0001
0010
0001
1000
0010
0100
0001
,
0010
0100
0010
0001
1000
0010
0100
0100
,
0001
0100
0010
1000
0001
1000
0010
0100
,
0001
0010
0100
1000
0010
1000
0100
0010
,
0001
1000
0010
0100
0001
1000
0001
0100
,
0040
4000
0000
0000
0000
0000
0000
0000
0000
0000
0000
0000
0000
0000
0000
0030
,
3001
0010
0100
1000
0000
0100
1000
0000
0001
0000
1000
0010
0000
1000
0010
0000
,
0100
0001
1000
0100
0000
1000
0100
0000
0010
0000
0001
1000
0000
0001
1000
0000
,
0001
0100
0010
1000
0000
0010
1000
0000
0001
0000
1000
0100
0000
1000
0100
0000
,
0010
0001
1000
0010
0000
1000
0010
0000
0100
0000
0001
1000
0001
0000
0001
0000
,
1000
0100
0010
0001
0000
0010
0001
0000
1000
0000
0001
0100
0000
0001
0100
0000
,
0010
1000
0001
0010
0000
0001
0010
0000
0100
0000
1000
0001
0000
1000
0001
0000
,
1000
0010
0100
0001
0000
0100
0001
0000
1000
0000
0001
0010
0000
0001
0010
0000
,
0100
1000
0001
0100
0000
0001
0100
0000
0010
0000
1000
0001
1000
0000
1000
0000
,
0100
0010
0001
1000
0000
0001
1000
0000
0010
0000
0100
0001
0000
0100
0001
0000
,
1000
0100
0010
0001
0000
0010
0001
0000
1000
0000
0010
0100
0000
0010
0100
0000
,
0001
1000
0100
0010
0000
0100
0010
0000
0001
0000
1000
0010
0000
1000
0010
0000
,
0100
0001
1000
0100
0000
1000
0100
0000
0010
0000
0001
0010
0001
0000
0001
0000
,
1000
0001
0010
0100
1000
0001
1000
0001
1000
0010
0100
0001
1000
0001
1000
0001
,
1000
0100
0010
0001
1000
0010
1000
0010
0100
0001
1000
0100
0010
0001
0010
0001
,
1000
0001
0100
0010
1000
0001
1000
0001
0010
0100
1000
0001
0100
0010
0100
0010
,
1000
0100
0010
0001
0100
0010
1000
0001
1000
0010
0100
0001
0010
0100
1000
0001
,
2000
0000
0000
3001
0010
0100
1000
0001
0100
0010
1000
0001
0010
0100
1000
0001
,
0200
0000
0000
0301
1000
0100
0010
0001
1000
0010
0100
0001
1000
0100
0010
0001
,
0200
0000
0000
0301
1000
0100
0010
0001
1000
0010
0100
0001
1000
0100
0010
0001
,
2000
0000
0000
3001
0010
0100
1000
0001
0100
0010
1000
0001
0010
0100
1000
0001
,
0200
0000
0000
0301
1000
0100
0010
0001
1000
0010
0100
0001
1000
0100
0010
0001
,
2000
0000
0000
3001
0100
0010
1000
0001
0010
0100
1000
0001
0100
0010
1000
0001
,
0020
0000
0000
0130
0010
0001
1000
0010
0100
0001
1000
0100
0010
0001
1000
0010
,
0200
0000
0000
0301
0100
0010
1000
0100
0010
0001
1000
0010
0100
0001
0010
0100
,
2000
0000
0000
3001
0010
0100
1000
0001
0100
0010
1000
0001
0010
0100
1000
0001
,
0200
0301
0100
0001
1000
0100
0010
0001
1000
0010
0100
0001
1000
0100
0010
0001
,
0200
0310
0100
0001
1000
0100
0010
0001
1000
0010
0100
0001
1000
0100
0010
0001
,
2000
3001
1000
0001
0010
0100
1000
0001
0100
0010
1000
0001
0010
0100
1000
0001
,
0200
0301
0100
0001
1000
0100
0010
0001
1000
0010
0100
0001
1000
0100
0010
0001
,
2000
3001
1000
0001
0100
0010
1000
0001
0010
0100
1000
0001
0100
0010
1000
0001
,
0020
0130
0010
0100
1000
0100
0010
0001
0100
0001
0010
0100
1000
0010
0100
0001
,
1000
0000
0000
0000
0000
0100
1000
0001
,
1001
0000
0000
0010
0000
0000
0001
0000
0000
0000
0100
0000
0001
0000
1000
0000
,
1001
0000
0000
0010
0000
0000
1000
0000
0000
0000
0100
0000
1000
0000
0001
0000
,
0021
0230
2300
3020
,
0230
0000
0000
0000
0300
0100
0001
1000
,
1001
0000
0000
0010
0000
0000
1000
0000
1000
0000
0000
0000
0100
0000
0000
0000
,
0020
0000
0030
0001
0001
1000
0001
0010
,
0200
0000
0000
0000
0300
0000
1000
0010
0200
0000
0000
0000
0300
0000
0001
0010
,
0200
0000
0000
0000
0000
0000
0000
0000
0000
0000
0000
0000
0300
0000
0000
1000
0100
1000
0100
0000
0000
1000
0001
1000
,
0001
0000
0000
0010
0000
0000
0001
0000
0000
0000
1000
0000
0100
0000
1000
0000
,
0001
0000
0000
0010
0000
0000
0001
0000
0000
0000
1000
0000
0100
0000
1000
0000
,
0020
0230
0302
0023
,
0230
0000
0000
0000
0300
1000
0100
1000
,
0001
0000
0000
0010
0000
0000
0001
0000
0001
0000
0000
0000
0100
0000
0000
0000
,
0020
0000
0000
0000
0000
0000
0000
0000
0000
0000
0000
0000
0000
0000
0000
0000
0000
0000
0000
0000
0000
0000
0000
0000
0000
0000
0000
0000
0000
0000
0000
0030
,
1010
0000
0000
0000
0000
0000
0000
0000
0000
0000
0000
0000
0000
0000
0000
1000
0010
1000
0010
0000
0000
1000
0001
1000
,
0001
0010
0100
1000
0001
1000
0100
0010
0001
1000
0010
1000
0001
1000
0100
1000
,
0001
0010
0100
1000
0001
0100
0001
1000
0100
0010
0001
1000
0100
1000
0001
1000
,
0001
0100
0010
1000
0001
1000
0010
0100
0001
1000
0100
0010
0001
0010
0100
1000
,
0002
0003
0200
0300
0020
0030
2000
3000
0200
0300
2000
3000
0020
0030
0200
0300
0002
0003
0020
0030
0200
0300
2000
3000
0020
0030
2000
3000
0200
0300
0020
0030
,
0001
1000
0100
0000
0010
0001
0010
0000
0100
1000
0001
0000
1000
0010
1000
0000
,
0001
0100
0010
0000
1000
0001
1000
0000
0001
0010
0100
0000
1000
0001
0100
0000
,
0001
1000
0100
0000
0010
0001
1000
0000
0010
0100
0001
0000
1000
0001
1000
0000
,
0001
0010
0100
0000
1000
0100
0010
0000
0001
1000
0001
0000
0010
0000
0010
0000
,
0100
1000
0001
0000
1000
0010
1000
0000
0001
0100
0010
0000
1000
0100
0010
0000
,
0001
1000
0010
0000
1000
0001
0010
0000
0100
1000
0001
0000
1000
0010
0100
0000
,
0001
1000
0100
0000
0010
0001
1000
0000
0100
0010
0100
0000
1000
0001
1000
0000
,
0010
0100
0001
0000
1000
0001
1000
0000
0010
0100
0001
0000
1000
0000
1000
0000
,
0100
0010
0001
0000
1000
0001
0010
0000
0100
1000
0001
0000
1000
0010
0100
0000
,
0001
1000
0001
0000
0100
0010
1000
0000
0100
0010
0001
0000
1000
0010
0100
0000
,
0001
1000
0100
0000
0010
0001
1000
0000
0010
0100
0001
0000
1000
0100
0010
0000
,
0001
1000
0100
0000
1000
0001
1000
0000
0010
0100
0001
0000
1000
0000
1000
0000
,
0100
0010
0001
0000
1000
0010
1000
0000
0001
0100
0010
0000
1000
0100
0010
0000
,
0001
1000
0010
0000
1000
0001
0100
0000
0010
1000
0001
0000
0010
0100
1000
0000
,
0001
1000
0010
0000
0100
0001
1000
0000
0001
1000
0001
0000
0010
0100
1000
0000
,
0002
0000
0000
0003
0202
0000
0000
0303
0222
0000
0000
0333
2222
0000
0000
3333
,
1001
1000
0010
0010
0100
0001
0001
0010
,
0100
0010
0001
0001
1000
0010
0010
0100
,
0020
0030
0000
0000
1000
0000
0000
0000
0100
0000
0000
0000
0020
0030
0000
0000
0001
0000
0000
0000
1000
0000
0000
0000
0020
0030
0000
0000
0100
0000
0000
0000
,
0020
0030
0000
0000
1000
0000
0000
0000
0100
0000
0000
0000
0020
0030
0000
0000
0001
0000
0000
0000
1000
0000
0000
0000
0020
0030
0000
0000
0100
0000
0000
0000
,
0002
0003
0000
0000
1000
0000
0000
0000
0100
0000
0000
0000
0010
0000
0000
0000
0002
0003
0000
0000
0100
0000
0000
0000
0010
0000
0000
0000
1000
0000
0000
0000
,
0002
0003
0000
0000
1000
0000
0000
0000
0010
0000
0000
0000
0100
0000
0000
0000
0002
0003
0000
0000
1000
0000
0000
0000
0001
0000
0000
0000
0010
0000
0000
0000
,
0200
0300
0020
0030
0002
0003
2000
3000
0200
0300
2000
3000
0002
0003
2000
3000
0020
0030
0200
0300
0002
0003
0200
0300
0020
0030
2000
3000
0002
0003
0020
0030
,
0200
0300
1000
0000
0100
0000
0000
0000
0010
0000
0001
0000
1000
0000
0000
0000
0010
0000
0100
0000
0001
0000
0000
0000
1000
0000
0000
0000
1000
0000
0000
0000
,
1001
0001
0100
0100
0010
1000
1000
0100
,
0010
0100
1000
1000
0001
0100
0100
0010
,
0100
0001
0010
0100
1000
0001
0100
0100
,
0100
0001
0010
0100
1000
0001
0100
0010
,
1000
0001
0010
0001
1000
0100
0010
0001
,
0200
0300
0000
0000
0010
0000
0000
0000
1000
0000
0000
0000
0100
0000
0000
0000
0020
0030
0000
0000
0001
0000
0000
0000
0100
0000
0000
0000
0001
0000
0000
0000
,
2000
3000
0000
0000
0100
0000
0000
0000
0010
0000
0000
0000
0001
0000
0000
0000
1000
0000
0000
0000
0001
0000
0000
0000
0010
0000
0000
0000
0100
0000
0000
0000
,
2000
0000
0000
0000
0000
3001
0010
0001
,
1000
0100
1000
0001
0100
0001
0010
0100
1000
0001
0010
0001
1000
0001
0100
0010
,
1000
0100
1000
0001
0100
0001
0010
0100
1000
0001
0010
0001
1000
0001
0100
0010
,
1000
0001
1000
0010
0100
0001
0100
0010
1000
0100
1000
0010
0100
0001
0010
0100
,
1000
0100
0010
0001
1000
0001
0010
0100
1000
0010
0100
0010
1000
0001
0010
0001
,
1000
0100
1000
0001
0100
0001
0010
0100
0010
0001
1000
0001
0100
0010
1000
0010
,
0100
0001
0010
0100
1000
0100
0010
0001
0010
0001
0100
0001
1000
0010
0100
0001
,
0010
0100
0010
0001
1000
0010
0100
0001
0010
0100
0010
0001
1000
0010
0100
0001
,
0010
0000
0000
0100
0000
0000
0010
0000
0000
0001
0000
0000
1000
0000
0000
0001
0000
0000
0100
0000
0000
0010
0000
0000
1000
0000
0000
0000
0000
0000
0001
0000
1000
0000
0001
0000
1000
0000
0000
0000
0000
0000
0001
0000
1000
0000
0001
0000
,
1000
0010
1000
0001
0010
0001
0100
0010
1000
0001
0100
0001
1000
0001
0010
0100
,
1000
0010
1000
0001
0010
0001
0100
0010
1000
0001
0100
0001
1000
0001
0010
0100
,
1000
0001
1000
0100
0010
0001
0010
0100
1000
0010
1000
0100
0010
0001
0100
0010
,
1000
0010
0100
0001
1000
0001
0100
0010
1000
0100
0010
0100
1000
0001
0100
0001
,
1000
0010
1000
0001
0010
0001
0100
0010
0100
0001
1000
0001
0010
0100
1000
0100
,
0010
0001
0100
0010
1000
0010
0100
0001
0100
0001
0010
0001
1000
0100
0010
0001
,
1000
0000
0000
0000
0000
0000
0000
0000
0000
0000
0000
0000
0000
0000
0000
0001
1000
0001
1000
0000
0000
0001
1000
0001
,
1000
0100
1000
0001
0100
0001
0010
0100
1000
0001
0010
0001
1000
0001
0100
0010
,
1000
0100
1000
0001
0100
0001
0010
0100
1000
0001
0010
0001
1000
0001
0100
0010
,
1000
0001
1000
0010
0100
0001
0100
0010
1000
0100
1000
0010
0100
0001
0010
0100
,
1000
0100
0010
0001
1000
0001
0010
0100
1000
0010
0100
0010
1000
0001
0010
0001
,
1000
0100
1000
0001
0100
0001
0010
0100
0010
0001
1000
0001
0100
0010
1000
0010
,
0100
0001
0010
0100
1000
0100
0010
0001
0010
0001
0100
0001
1000
0010
0100
0001
,
0010
0100
0010
0001
1000
0010
0100
0001
0010
0100
0010
0001
1000
0010
0100
0001
,
0010
0000
0000
0100
0000
0000
0010
0000
0000
0001
0000
0000
1000
0000
0000
0001
0000
0000
0100
0000
0000
0010
0000
0000
1000
0000
0000
0000
0000
0000
0001
0000
1000
0000
0001
0000
1000
0000
0000
0000
0000
0000
0001
0000
1000
0000
0001
0000
,
1000
0100
1000
0001
0010
0001
0100
0010
1000
0001
0100
0001
1000
0001
0010
0100
,
1000
0010
1000
0001
0010
0001
0100
0010
1000
0001
0100
0001
1000
0001
0010
0100
,
1000
0001
1000
0100
0010
0001
0010
0100
1000
0010
1000
0100
0010
0001
0100
0010
,
1000
0010
0100
0001
1000
0001
0100
0010
1000
0100
0010
0100
1000
0001
0100
0001
,
1000
0010
1000
0001
0010
0001
0100
0010
0100
0001
1000
0001
0010
0100
1000
0100
,
0010
0001
0100
0010
1000
0010
0100
0001
0100
0001
0010
0001
1000
0100
0010
0001
,
1000
0000
0000
0000
0000
0000
0000
0000
0000
0000
0000
0000
0000
0000
0000
0001
1000
0001
1000
0000
0000
0001
1000
0001
,
2000
3100
0010
0021
0031
1000
0021
0031
,
0102
0103
0010
1020
1030
0001
0012
0013
,
2100
3100
0010
0021
0031
1000
0021
0031
,
0102
0103
0010
1020
1030
0001
0012
0013
,
0102
0103
0010
1020
1030
0001
1020
1030
,
2100
3100
0010
0021
0031
1000
2010
3010
,
0102
0103
0010
1020
1030
0001
1020
1030
,
0001
0000
0000
1000
0000
0000
0001
0000
0000
1000
0000
0000
0001
0000
0000
1000
0000
0000
0001
0000
0000
1000
0000
0000
0001
0000
0000
0000
0000
0000
0000
0000
0000
1000
0000
0000
0000
0000
0000
0000
0000
0000
0001
0000
0010
0000
0100
0000
,
2000
3010
0100
0201
0301
1000
0201
0301
,
0012
0013
0100
1200
1300
0001
0102
0103
,
2010
3010
0100
0201
0301
1000
0201
0301
,
0012
0013
0100
1200
1300
0001
0102
0103
,
0012
0013
0100
1200
1300
0001
1200
1300
,
2010
3010
0100
0201
0301
1000
2100
3100
,
0012
0013
0100
1200
1300
0001
1200
1300
,
0001
0000
0000
1000
0000
0000
0001
0000
0000
1000
0000
0000
0001
0000
0000
1000
0000
0000
0001
0000
0000
1000
0000
0000
0001
0000
0000
0000
0000
0000
0000
0000
0000
1000
0000
0000
0000
0000
0000
0000
0000
0000
0001
0000
0010
0000
0100
0000
,
2000
3100
0010
0021
0031
1000
0021
0031
,
0102
0103
0010
1020
1030
0001
0012
0013
,
2100
3100
0010
0021
0031
1000
0021
0031
,
0102
0103
0010
1020
1030
0001
0012
0013
,
0102
0103
0010
1020
1030
0001
1020
1030
,
2100
3100
0010
0021
0031
1000
2010
3010
,
0102
0103
0010
1020
1030
0001
1020
1030
,
0001
0000
0000
1000
0000
0000
0001
0000
0000
1000
0000
0000
0001
0000
0000
1000
0000
0000
0001
0000
0000
1000
0000
0000
0001
0000
0000
0000
0000
0000
0010
0000
0100
0000
1000
0000
0001
0000
0000
0000
0000
0000
0010
0000
0100
0000
1000
0000
,
0001
0000
0000
0100
0000
0000
0001
0000
0000
0000
0010
0000
0100
0000
1000
0000
,
0001
0000
0000
0100
0000
0000
0001
0000
0000
0000
0010
0000
0100
0000
1000
0000
,
0002
0203
0320
2030
,
3200
0000
0000
0000
0300
0010
0100
1000
,
0001
0000
0000
0100
0000
0000
0001
0000
0001
0000
0000
0000
0010
0000
0000
0000
,
0200
0000
0300
1000
1000
0001
1000
0100
,
0020
0000
0000
0000
0031
0000
1000
0010
0200
0000
0000
0000
0301
0000
0010
0100
,
2000
0000
0000
0000
3000
0010
0100
0001
,
1000
0000
0000
0100
0000
0000
1000
0000
0000
0000
0010
0000
0100
0000
0001
0000
,
1000
0000
0000
0100
0000
0000
1000
0000
0000
0000
0010
0000
0100
0000
0001
0000
,
2000
3200
0320
0032
,
0203
0000
0000
0000
0000
0310
0100
0001
,
1000
0000
0000
0100
0000
0000
1000
0000
1000
0000
0000
0000
0010
0000
0000
0000
,
1000
0010
0100
0001
1000
0001
0100
0010
1000
0001
0010
0100
1000
0010
0100
0001
,
2000
0000
0000
0000
0000
3010
1000
0001
,
1000
0100
1000
0001
0100
0001
0010
0100
1000
0001
0010
0001
1000
0001
0100
0010
,
1000
0100
1000
0001
0100
0001
0010
0100
1000
0001
0010
0001
1000
0001
0100
0010
,
1000
0001
1000
0010
0100
0001
0100
0010
1000
0100
1000
0010
0100
0001
0010
0100
,
1000
0100
0010
0001
1000
0001
0010
0100
1000
0010
0100
0010
1000
0001
0010
0001
,
1000
0100
1000
0001
0100
0001
0010
0100
0010
0001
1000
0001
0100
0010
1000
0010
,
0100
0001
0010
0100
1000
0100
0010
0001
0010
0001
0100
0001
1000
0010
0100
0001
,
0010
0100
0010
0001
1000
0010
0100
0001
0010
0100
0010
0001
1000
0010
0100
0001
,
0010
0000
0000
0100
0000
0000
0010
0000
0000
0001
0000
0000
1000
0000
0000
0001
0000
0000
0100
0000
0000
0010
0000
0000
1000
0000
0000
0000
0000
0000
0100
0000
0010
0000
0001
0000
1000
0000
0000
0000
0000
0000
0100
0000
0010
0000
0001
0000
,
1000
0010
1000
0001
0010
0001
0100
0010
1000
0001
0100
0001
1000
0001
0010
0100
,
1000
0010
1000
0001
0010
0001
0100
0010
1000
0001
0100
0001
1000
0001
0010
0100
,
1000
0001
1000
0100
0010
0001
0010
0100
1000
0010
1000
0100
0010
0001
0100
0010
,
1000
0010
0100
0001
1000
0001
0100
0010
1000
0100
0010
0100
1000
0001
0100
0001
,
1000
0010
1000
0001
0010
0001
0100
0010
0100
0001
1000
0001
0010
0100
1000
0100
,
0010
0001
0100
0010
1000
0010
0100
0001
0100
0001
0010
0001
1000
0100
0010
0001
,
4000
0000
0000
0004
0000
0000
0000
0000
0000
0000
0000
0000
0000
0000
0000
0000
0000
0000
0000
0000
0000
0000
0000
0000
3000
0000
0000
0003
0000
0000
1000
0000
0100
0000
0010
0000
0001
0000
0000
0000
0000
0000
1000
0000
0100
0000
0010
0000
,
0001
1000
0001
1000
0010
1000
0100
0010
0001
1000
0100
1000
0001
1000
0010
0100
,
0001
0010
0001
1000
0010
1000
0100
0010
0001
1000
0100
1000
0001
1000
0010
0100
,
0001
1000
0001
0100
0010
1000
0010
0100
0001
0010
0001
0100
0010
1000
0100
0010
,
0001
0010
0100
1000
0001
1000
0100
0010
0001
0100
0010
0100
0001
1000
0100
1000
,
0001
0010
0001
1000
0010
1000
0100
0010
0100
1000
0001
1000
0010
0100
0001
0100
,
0010
1000
0100
0010
0001
0010
0100
1000
0100
1000
0010
1000
0001
0100
0010
1000
,
0100
0010
0100
1000
0001
0100
0010
1000
0100
0010
0100
1000
0001
0100
0010
1000
,
0100
0000
0000
0010
0000
0000
0100
0000
0000
1000
0000
0000
0001
0000
0000
1000
0000
0000
0010
0000
0000
0100
0000
0000
0001
0000
0000
0000
0000
0000
1000
0000
0100
0000
0010
0000
0001
0000
0000
0000
0000
0000
1000
0000
0100
0000
0010
0000
,
0001
1000
0001
1000
0100
1000
0010
0100
0001
1000
0010
1000
0001
1000
0100
0010
,
0001
0100
0001
1000
0100
1000
0010
0100
0001
1000
0010
1000
0001
1000
0100
0010
,
0001
1000
0001
0010
0100
1000
0100
0010
0001
0100
0001
0010
0100
1000
0010
0100
,
0001
0100
0010
1000
0001
1000
0010
0100
0001
0010
0100
0010
0001
1000
0010
1000
,
0001
0100
0001
1000
0100
1000
0010
0100
0010
1000
0001
1000
0100
0010
0001
0010
,
0100
1000
0010
0100
0001
0100
0010
1000
0010
1000
0100
1000
0001
0010
0100
1000
,
0001
0000
0000
0000
0000
0000
0000
0000
0000
0000
0000
0000
0000
0000
0000
1000
0001
1000
0001
0000
0000
1000
0001
1000
,
0002
0000
0000
1003
0100
0010
0001
1000
0100
0010
0001
1000
0100
0010
0001
1000
,
0020
0000
0000
1030
0100
0010
0001
1000
0100
0010
0001
1000
0100
0010
0001
1000
,
0020
0000
0000
1030
0100
0010
0001
1000
0100
0010
0001
1000
0100
0010
0001
1000
,
0010
0100
0010
1000
0100
0010
0001
1000
0100
0010
0001
1000
0100
0010
0001
1000
,
0010
0100
0010
1000
0100
0010
0001
1000
0100
0010
0001
1000
0100
0010
0001
1000
,
0010
0100
0010
1000
0100
0010
0001
1000
0100
0010
0001
1000
0100
0010
0001
1000
,
0010
0100
0010
1000
0100
0010
0001
1000
0100
0010
0001
1000
0100
0010
0001
1000
,
0010
0000
0000
0100
0000
0000
0010
0000
0000
0100
0000
0000
0010
0000
0000
0100
0000
0000
0010
0000
0000
0100
0000
0000
0010
0000
0000
0000
0000
0000
0000
0000
0000
1000
0000
0000
0000
0000
0000
0000
0000
0000
0100
0000
0010
0000
0001
0000
,
1000
0010
0100
0001
0010
0100
1000
0001
0010
0100
1000
0001
0010
0100
1000
0001
,
0100
0010
0100
0001
0010
0100
1000
0001
0010
0100
1000
0001
0010
0100
1000
0001
,
0100
0010
0100
0001
0010
0100
1000
0001
0010
0100
1000
0001
0010
0100
1000
0001
,
0100
0010
0100
0001
0010
0100
1000
0001
0010
0100
1000
0001
0010
0100
1000
0001
,
0100
0010
0100
0001
0010
0100
1000
0001
0010
0100
1000
0001
0010
0100
1000
0001
,
0100
0010
0100
0001
0010
0100
1000
0001
0010
0100
1000
0001
0010
0100
1000
0001
,
0100
0010
0100
0001
0010
0100
1000
0001
0010
0100
1000
0001
0010
0100
1000
0001
,
1000
0000
0000
0001
0000
0000
1000
0000
0000
0001
0000
0000
1000
0000
0000
0001
0000
0000
1000
0000
0000
0001
0000
0000
1000
0000
0000
0000
0000
0000
0000
0000
0000
0010
0000
0000
0000
0000
0000
0000
0000
0000
0100
0000
0001
0000
0100
0000
,
0001
1000
0010
1000
0100
0010
0001
1000
0100
0010
0001
1000
0010
1000
0001
0100
,
0010
1000
0001
1000
0100
0010
0001
1000
0100
0010
0001
1000
0010
1000
0001
0100
,
0010
1000
0001
1000
0100
0010
0001
1000
0100
0010
0001
1000
0010
1000
0001
0100
,
0010
1000
0001
1000
0100
0010
0001
1000
0100
0010
0001
1000
0010
1000
0001
0100
,
0010
1000
0001
1000
0100
0010
0001
1000
0100
0010
0001
1000
0010
1000
0001
0100
,
0010
1000
0001
1000
0100
0010
0001
1000
0100
0010
0001
1000
0010
1000
0001
0100
,
0010
1000
0001
1000
0100
0010
0001
1000
0100
0010
0001
1000
0010
1000
0100
0010
,
0001
0000
0000
1000
0000
0000
0001
0000
0000
1000
0000
0000
0001
0000
0000
1000
0000
0000
0001
0000
0000
1000
0000
0000
0001
0000
0000
0000
0000
0000
0000
0000
0000
0100
0000
0000
0000
0000
0000
0000
0000
0000
0010
0000
1000
0000
0010
0000
,
1000
0001
0100
0001
0010
0100
1000
0001
0010
0100
1000
0001
0100
0001
1000
0010
,
0100
0001
1000
0001
0010
0100
1000
0001
0010
0100
1000
0001
0100
0001
1000
0010
,
0100
0001
1000
0001
0010
0100
1000
0001
0010
0100
1000
0001
0100
0001
1000
0010
,
0100
0001
1000
0001
0010
0100
1000
0001
0010
0100
1000
0001
0100
0001
1000
0010
,
0100
0001
1000
0001
0010
0100
1000
0001
0010
0100
1000
0001
0100
0001
1000
0010
,
0100
0001
1000
0001
0010
0100
1000
0001
0010
0100
1000
0001
0100
0001
1000
0010
,
0100
0001
1000
0001
0010
0100
1000
0001
0010
0100
1000
0001
0100
0001
0010
0100
,
1000
0000
0000
0001
0000
0000
1000
0000
0000
0001
0000
0000
1000
0000
0000
0001
0000
0000
1000
0000
0000
0001
0000
0000
1000
0000
0000
0000
0000
0000
0000
0000
0000
0001
0000
0000
0000
0000
0000
0000
0000
0000
1000
0000
0001
0000
1000
0000
,
0001
0000
0000
0000
;

//---------------dance-single - 13+ (Janus5k)----------------
#NOTES:
     dance-single:
     13+ (Janus5k):
     Medium:
     13:
     1.000,1.000,0.037,0.557,1.000,2401.000,12.000,179.000,0.000,2.000:
0000
0000
0000
0000
,
0000
0000
0000
0000
,
0000
0000
0000
0000
,
0000
0000
0000
0000
,
0000
0000
0000
0000
,
0000
0000
0000
0000
,
0000
0000
0000
0000
,
0000
0000
0000
0000
,
1002
1003
0000
1000
,
0000
0100
0000
0100
,
0000
0010
0000
0010
,
0000
0001
0000
0001
,
0000
1000
0000
1000
,
0000
0010
0000
0010
,
0000
0100
0000
0100
,
0000
0000
0000
0000
0001
0000
0000
0000
1000
0001
0100
0001
1000
0100
0010
0001
,
1000
0100
0010
0001
,
1000
0010
0100
0001
,
0010
0001
0100
0010
,
1000
0000
0100
0000
0010
0000
0001
0001
,
1000
0010
0100
0001
,
0010
0001
0100
0010
,
1000
0100
0010
0001
,
0100
0000
0010
0000
1000
0000
0001
0001
,
0010
0100
0010
0001
1000
0100
1000
0001
,
1000
0010
0100
0001
0010
0001
0100
0010
,
1000
0001
0010
0001
1000
0010
0100
0001
,
0010
0100
0010
0001
1000
0010
0100
0100
,
0001
0100
0010
1000
0001
1000
0010
0100
,
0001
0010
0100
1000
0010
1000
0100
0010
,
0001
1000
0010
0100
0001
1000
0001
0100
,
0040
4000
0000
0000
0000
0000
0000
0000
0000
0000
0000
0000
0000
0000
0000
0030
,
3001
0010
0100
1000
0000
0100
1000
0000
0001
0000
1000
0010
0000
1000
0010
0000
,
0100
0001
1000
0100
0000
1000
0100
0000
0010
0000
0001
1000
0000
0001
1000
0000
,
0001
0100
0010
1000
0000
0010
1000
0000
0001
0000
1000
0100
0000
1000
0100
0000
,
0010
0001
1000
0010
0000
1000
0010
0000
0100
0000
0001
1000
0001
0000
0001
0000
,
1000
0100
0010
0001
0000
0010
0001
0000
1000
0000
0001
0100
0000
0001
0100
0000
,
0010
1000
0001
0010
0000
0001
0010
0000
0100
0000
1000
0001
0000
1000
0001
0000
,
1000
0010
0100
0001
0000
0100
0001
0000
1000
0000
0001
0010
0000
0001
0010
0000
,
0100
1000
0001
0100
0000
0001
0100
0000
0010
0000
1000
0001
1000
0000
1000
0000
,
0100
0010
0001
1000
0000
0001
1000
0000
0010
0000
0100
0001
0000
0100
0001
0000
,
1000
0100
0010
0001
0000
0010
0001
0000
1000
0000
0010
0100
0000
0010
0100
0000
,
0001
1000
0100
0010
0000
0100
0010
0000
0001
0000
1000
0010
0000
1000
0010
0000
,
0100
0001
1000
0100
0000
1000
0100
0000
0010
0000
0001
0010
0001
0000
0001
0000
,
1000
0001
0010
0100
1000
0001
1000
0001
1000
0010
0100
0001
1000
0001
1000
0001
,
1000
0100
0010
0001
1000
0010
1000
0010
0100
0001
1000
0100
0010
0001
0010
0001
,
1000
0001
0100
0010
1000
0001
1000
0001
0010
0100
1000
0001
0100
0010
0100
0010
,
1000
0100
0010
0001
0100
0010
1000
0001
1000
0010
0100
0001
0010
0100
1000
0001
,
2000
0000
0000
3001
0010
0100
1000
0001
0010
0100
1000
0001
0010
0100
1000
0001
,
0200
0000
0000
0301
1000
0010
0100
0001
1000
0010
0100
0001
1000
0010
0100
0001
,
0200
0000
0000
0301
1000
0100
0010
0001
1000
0100
0010
0001
1000
0100
0010
0001
,
2000
0000
0000
3001
0100
0010
1000
0001
0100
0010
1000
0001
0100
0010
1000
0001
,
0200
0000
0000
0301
1000
0100
0010
0001
1000
0100
0010
0001
1000
0100
0010
0001
,
2000
0000
0000
3001
0100
0010
1000
0001
0100
0010
1000
0001
0100
0010
1000
0001
,
0020
0000
0000
0130
0010
0001
1000
0100
0010
0001
1000
0100
0010
0001
1000
0010
,
0200
0000
0000
0301
0100
0010
1000
0010
0100
0001
1000
0100
0010
0001
0010
0100
,
2000
0000
0000
3001
0010
0100
1000
0001
0010
0100
1000
0001
0010
0100
1000
0001
,
0200
0000
0000
0301
1000
0010
0100
0001
1000
0010
0100
0001
1000
0010
0100
0001
,
2000
0000
0000
3001
1000
0100
0010
0001
1000
0100
0010
0001
1000
0100
0010
0001
,
2000
0000
0000
3001
0100
0010
1000
0001
0100
0010
1000
0001
0100
0010
1000
0001
,
0200
0000
0000
0301
1000
0100
0010
0001
1000
0100
0010
0001
1000
0100
0010
0001
,
2000
0000
0000
3001
0100
0010
1000
0001
0100
0010
1000
0001
0100
0010
1000
0001
,
0010
0100
0010
0100
1000
0100
0010
0001
1000
0001
1000
0010
0100
0001
1000
0001
,
1000
0000
0000
0000
0000
0100
1000
0001
,
1001
0000
0000
0010
0000
0000
0001
0000
0000
0000
0100
0000
0001
0000
1000
0000
,
1001
0000
0000
0010
0000
0000
1000
0000
0000
0000
0100
0000
1000
0000
0001
0000
,
0021
0230
2300
3020
,
0230
0000
0000
0000
0300
0100
0001
1000
,
1001
0000
0000
0010
0000
0000
1000
0000
1000
0000
0000
0000
0100
0000
0000
0000
,
0020
0000
0030
0001
0001
1000
0001
0010
,
0200
0000
0000
0000
0300
0000
1000
0010
0200
0000
0000
0000
0300
0000
0001
0010
,
0200
0000
0000
0000
0000
0000
0000
0000
0000
0000
0000
0000
0300
0000
0000
1000
0100
1000
0100
0000
0000
1000
0001
1000
,
0001
0000
0000
0010
0000
0000
0001
0000
0000
0000
1000
0000
0100
0000
1000
0000
,
0001
0000
0000
0010
0000
0000
0001
0000
0000
0000
1000
0000
0100
0000
1000
0000
,
0020
0230
0302
0023
,
0230
0000
0000
0000
0300
1000
0100
1000
,
0001
0000
0000
0010
0000
0000
0001
0000
0001
0000
0000
0000
0100
0000
0000
0000
,
0020
0000
0000
0000
0000
0000
0000
0000
0000
0000
0000
0000
0000
0000
0000
0000
0000
0000
0000
0000
0000
0000
0000
0000
0000
0000
0000
0000
0000
0000
0000
0030
,
1010
0000
0000
0000
0000
0000
0000
0000
0000
0000
0000
0000
0000
0000
0000
1000
0010
1000
0010
0000
0000
1000
0001
1000
,
0001
0010
0100
1000
0001
1000
0100
0010
0001
1000
0010
1000
0001
1000
0100
1000
,
0001
0010
0100
1000
0001
0100
0001
1000
0100
0010
0001
1000
0100
1000
0001
1000
,
0001
0100
0010
1000
0001
1000
0010
0100
0001
1000
0100
0010
0001
0010
0100
1000
,
0002
0003
0200
0300
0020
0030
2000
3000
0200
0300
2000
3000
0020
0030
0200
0300
0002
0003
0020
0030
0200
0300
2000
3000
0020
0030
2000
3000
0200
0300
0020
0030
,
0001
1000
0100
0000
0010
0001
0010
0000
0100
1000
0001
0000
1000
0010
1000
0000
,
0001
0100
0010
0000
1000
0001
1000
0000
0001
0010
0100
0000
1000
0001
0100
0000
,
0001
1000
0100
0000
0010
0001
1000
0000
0010
0100
0001
0000
1000
0001
1000
0000
,
0001
0010
0100
0000
1000
0100
0010
0000
0001
1000
0001
0000
0010
0000
0010
0000
,
0100
1000
0001
0000
1000
0010
1000
0000
0001
0100
0010
0000
1000
0100
0010
0000
,
0001
1000
0010
0000
1000
0001
0010
0000
0100
1000
0001
0000
1000
0010
0100
0000
,
0001
1000
0100
0000
0010
0001
1000
0000
0100
0010
0100
0000
1000
0001
1000
0000
,
0010
0100
0001
0000
1000
0001
1000
0000
0010
0100
0001
0000
1000
0000
1000
0000
,
0100
0010
0001
0000
1000
0001
0010
0000
0100
1000
0001
0000
1000
0010
0100
0000
,
0001
1000
0001
0000
0100
0010
1000
0000
0100
0010
0001
0000
1000
0010
0100
0000
,
0001
1000
0100
0000
0010
0001
1000
0000
0010
0100
0001
0000
1000
0100
0010
0000
,
0001
1000
0100
0000
1000
0001
1000
0000
0010
0100
0001
0000
1000
0000
1000
0000
,
0100
0010
0001
0000
1000
0010
1000
0000
0001
0100
0010
0000
1000
0100
0010
0000
,
0001
1000
0010
0000
1000
0001
0100
0000
0010
1000
0001
0000
0010
0100
1000
0000
,
0001
1000
0010
0000
0100
0001
1000
0000
0001
1000
0001
0000
0010
0100
1000
0000
,
0002
0000
0000
0003
0202
0000
0000
0303
0222
0000
0000
0333
2222
0000
0000
3333
,
1001
1000
0010
0010
0100
0001
0001
0010
,
0100
0010
0001
0001
1000
0010
0010
0100
,
0020
0030
0000
0000
1000
0000
0000
0000
0100
0000
0000
0000
0020
0030
0000
0000
0001
0000
0000
0000
1000
0000
0000
0000
0020
0030
0000
0000
0100
0000
0000
0000
,
0020
0030
0000
0000
1000
0000
0000
0000
0100
0000
0000
0000
0020
0030
0000
0000
0001
0000
0000
0000
1000
0000
0000
0000
0020
0030
0000
0000
0100
0000
0000
0000
,
0002
0003
0000
0000
1000
0000
0000
0000
0100
0000
0000
0000
0010
0000
0000
0000
0002
0003
0000
0000
0100
0000
0000
0000
0010
0000
0000
0000
1000
0000
0000
0000
,
0002
0003
0000
0000
1000
0000
0000
0000
0010
0000
0000
0000
0100
0000
0000
0000
0002
0003
0000
0000
1000
0000
0000
0000
0001
0000
0000
0000
0010
0000
0000
0000
,
0200
0300
0020
0030
0002
0003
2000
3000
0200
0300
2000
3000
0002
0003
2000
3000
0020
0030
0200
0300
0002
0003
0200
0300
0020
0030
2000
3000
0002
0003
0020
0030
,
0200
0300
1000
0000
0100
0000
0000
0000
0010
0000
0001
0000
1000
0000
0000
0000
0010
0000
0100
0000
0001
0000
0000
0000
1000
0000
0000
0000
1000
0000
0000
0000
,
1001
0001
0100
0100
0010
1000
1000
0100
,
0010
0100
1000
1000
0001
0100
0100
0010
,
0100
0001
0010
0100
1000
0001
0100
0100
,
0100
0001
0010
0100
1000
0001
0100
0010
,
1000
0001
0010
0001
1000
0100
0010
0001
,
0200
0300
0000
0000
0010
0000
0000
0000
1000
0000
0000
0000
0100
0000
0000
0000
0020
0030
0000
0000
0001
0000
0000
0000
0100
0000
0000
0000
0001
0000
0000
0000
,
2000
3000
0000
0000
0100
0000
0000
0000
0010
0000
0000
0000
0001
0000
0000
0000
1000
0000
0000
0000
0001
0000
0000
0000
0010
0000
0000
0000
0100
0000
0000
0000
,
2000
0000
0000
0000
0000
3001
0010
0001
,
1000
0010
1000
0001
0010
0001
1000
0000
0010
0000
0100
0000
0010
0000
1000
0000
,
0001
0010
0001
1000
0010
1000
0001
0000
0010
0000
0100
0000
0010
0000
0001
0000
,
1000
0001
1000
0001
0100
0001
0100
0001
1000
0010
1000
0010
1000
0001
1000
0100
,
0010
0001
1000
0001
0010
0001
1000
0001
0100
0000
0010
0000
0100
0000
0001
0000
,
1000
0100
1000
0001
0100
0001
1000
0000
0100
0000
0010
0000
0001
0000
0100
0000
,
0010
0100
0001
1000
1000
0100
0010
0100
,
1000
0000
0001
0000
1000
0000
0001
0100
0010
0000
1000
0000
0010
0000
1000
0001
,
0010
0100
0010
0100
1000
0001
0100
0010
,
1000
0010
1000
0001
0010
0001
1000
0000
0010
0000
0100
0000
0010
0000
1000
0000
,
0001
0010
0001
1000
0010
1000
0001
0000
0010
0000
0100
0000
0010
0000
0001
0000
,
1000
0001
1000
0001
0100
0001
0100
0001
1000
0001
0010
0100
1000
0001
0010
0001
,
1000
0001
0100
0010
1000
0010
0100
0001
1000
0001
1000
0000
0100
0000
0010
0000
,
0001
0100
0001
1000
0100
1000
0001
0000
0100
0000
0010
0000
1000
0000
0010
0000
,
0100
0001
1000
0001
0100
0001
1000
0001
0010
0100
0010
0001
1000
0100
0010
0001
,
1000
0000
0000
0000
0000
0001
0100
0010
,
1000
0010
0100
0001
0100
0010
1000
0000
0001
0000
0010
0000
0100
0000
1000
0000
,
0001
0010
0100
1000
0100
0010
0001
0000
1000
0000
0010
0000
0100
0000
0001
0000
,
0100
0010
0100
0001
1000
0001
1000
0100
0010
0001
0010
0100
1000
0001
1000
0001
,
0100
0010
0100
0001
0100
0010
0100
0001
1000
0001
0010
0000
0100
0000
1000
0000
,
0001
0010
0001
1000
0100
1000
0001
0000
1000
0000
0010
0000
0100
0000
0010
0000
,
1000
0001
1000
0100
0100
0010
0100
1000
,
0001
0000
0100
0000
0001
0000
0100
0010
1000
0000
0001
0000
1000
0000
0001
0010
,
0100
1000
0100
1000
0001
0100
0010
1000
,
0001
0010
0100
1000
0100
0010
0001
0000
1000
0000
0010
0000
0100
0000
0001
0000
,
1000
0010
0100
0001
0100
0010
1000
0000
0001
0000
0010
0000
0100
0000
1000
0000
,
0001
0010
0001
1000
0100
0010
0001
1000
0001
0100
0010
0100
0001
1000
0001
1000
,
0001
0010
0001
1000
0001
0010
0001
1000
0001
0100
0010
0000
0100
0000
0001
0000
,
1000
0001
1000
0100
0010
0100
1000
0000
0001
0000
0100
0000
0010
0000
0100
0000
,
0001
1000
0100
0010
0001
1000
0100
0010
0001
1000
0010
0100
0001
1000
0010
0100
,
0001
0000
0000
0000
0000
0000
0000
0000
0000
0000
0000
0000
0000
0000
0000
0001
1000
0001
1000
0000
0000
0001
1000
0001
,
2000
3010
0010
0200
0310
0010
2000
3001
,
0020
0130
0100
2000
3100
0100
0020
0031
,
2000
3001
0001
0200
0310
0010
2000
3001
,
0020
0130
0100
2000
3001
0001
0200
0310
,
2000
3001
0001
0020
0130
0100
0020
0031
,
2000
3010
0010
0200
0301
0001
2000
3100
,
0020
0031
0001
2000
3010
0010
2000
3001
,
1000
0000
0000
0001
0000
0000
1000
0000
0000
0001
0000
0000
1000
0000
0000
0001
0000
0000
1000
0000
0000
0001
0000
0000
1000
0000
0000
0000
0000
0000
0000
0000
0000
0001
0000
0000
0000
0000
0000
0000
0000
0000
1000
0000
0100
0000
1000
0000
,
0200
0310
0010
0002
1003
1000
0200
0310
,
0002
0103
0100
0020
1030
1000
0002
1003
,
0200
0310
0010
0002
1003
1000
0020
0130
,
0002
1003
1000
0020
1030
1000
0002
0013
,
0200
1300
1000
0002
1003
1000
0020
0130
,
0002
1003
1000
0200
0310
0010
0002
0103
,
0020
1030
1000
0002
1003
1000
0200
0310
,
0001
0000
0000
1000
0000
0000
0001
0000
0000
1000
0000
0000
0001
0000
0000
1000
0000
0000
0001
0000
0000
1000
0000
0000
0001
0000
0000
0000
0000
0000
0000
0000
0000
1000
0000
0000
0000
0000
0000
0000
0000
0000
0001
0000
0010
0000
0001
0000
,
0020
0130
0100
2000
3001
0001
0200
0310
,
2000
3001
0001
0200
0301
0001
2000
3100
,
0020
0031
0001
2000
3001
0001
0200
0310
,
2000
3001
0001
0020
0031
0001
2000
3100
,
0020
0031
0001
2000
3001
0001
0200
0310
,
2000
3001
0001
0200
0301
0001
2000
3100
,
0020
0130
0100
2000
3001
0001
0200
0310
,
1000
0001
1000
0001
1000
0001
1000
0001
1000
0001
0010
0000
0100
0000
1000
0000
,
0001
0000
0000
0100
0000
0000
0001
0000
0000
0000
0010
0000
0100
0000
1000
0000
,
0001
0000
0000
0100
0000
0000
0001
0000
0000
0000
0010
0000
0100
0000
1000
0000
,
0002
0203
0320
2030
,
3200
0000
0000
0000
0300
0010
0100
1000
,
0001
0000
0000
0100
0000
0000
0001
0000
0001
0000
0000
0000
0010
0000
0000
0000
,
0200
0000
0300
1000
1000
0001
1000
0100
,
0020
0000
0000
0000
0031
0000
1000
0010
0200
0000
0000
0000
0301
0000
0010
0100
,
2000
0000
0000
0000
3000
0010
0100
0001
,
1000
0000
0000
0100
0000
0000
1000
0000
0000
0000
0010
0000
0100
0000
0001
0000
,
1000
0000
0000
0100
0000
0000
1000
0000
0000
0000
0010
0000
0100
0000
0001
0000
,
2000
3200
0320
0032
,
0203
0000
0000
0000
0000
0310
0100
0001
,
1000
0000
0000
0100
0000
0000
1000
0000
1000
0000
0000
0000
0010
0000
0000
0000
,
1000
0010
0100
0001
1000
0001
0100
0010
1000
0001
0010
0100
1000
0010
0100
0001
,
2000
0000
0000
0000
0000
3010
1000
0001
,
1000
0100
1000
0001
0100
0001
1000
0000
0100
0000
0010
0000
0100
0000
1000
0000
,
0001
0100
0001
1000
0100
1000
0001
0000
0100
0000
0010
0000
0100
0000
0001
0000
,
1000
0001
1000
0001
0010
0001
0010
0001
1000
0100
1000
0100
1000
0001
1000
0010
,
0100
0001
1000
0001
0100
0001
1000
0001
0010
0000
0100
0000
0010
0000
0001
0000
,
1000
0010
1000
0001
0010
0001
1000
0000
0010
0000
0100
0000
0001
0000
0010
0000
,
0100
0010
0001
1000
1000
0010
0100
0010
,
1000
0000
0001
0000
1000
0000
0001
0010
0100
0000
1000
0000
0100
0000
1000
0001
,
0100
0010
0100
0010
1000
0001
0010
0100
,
1000
0100
1000
0001
0100
0001
1000
0000
0100
0000
0010
0000
0100
0000
1000
0000
,
0001
0100
0001
1000
0100
1000
0001
0000
0100
0000
0010
0000
0100
0000
0001
0000
,
1000
0001
1000
0001
0010
0001
0010
0001
1000
0001
0100
0010
1000
0001
0100
0001
,
1000
0001
0010
0100
1000
0100
0010
0001
1000
0001
1000
0000
0010
0000
0100
0000
,
0001
0010
0001
1000
0010
1000
0001
0000
0010
0000
0100
0000
1000
0000
0100
0000
,
0010
0001
1000
0001
0010
0001
1000
0001
0100
0010
0100
0001
1000
0010
0100
0001
,
1000
0000
0000
0000
0000
0001
0010
0100
,
1000
0100
0010
0001
0010
0100
1000
0000
0001
0000
0100
0000
0010
0000
1000
0000
,
0001
0100
0010
1000
0010
0100
0001
0000
1000
0000
0100
0000
0010
0000
0001
0000
,
0010
0100
0010
0001
1000
0001
1000
0010
0100
0001
0100
0010
1000
0001
1000
0001
,
0010
0100
0010
0001
0010
0100
0010
0001
1000
0001
0100
0000
0010
0000
1000
0000
,
0001
0100
0001
1000
0010
1000
0001
0000
1000
0000
0100
0000
0010
0000
0100
0000
,
1000
0001
1000
0010
0010
0100
0010
1000
,
0001
0000
0010
0000
0001
0000
0010
0100
1000
0000
0001
0000
1000
0000
0001
0100
,
0010
1000
0010
1000
0001
0010
0100
1000
,
0001
0100
0010
1000
0010
0100
0001
0000
1000
0000
0100
0000
0010
0000
0001
0000
,
1000
0100
0010
0001
0010
0100
1000
0000
0001
0000
0100
0000
0010
0000
1000
0000
,
0001
0100
0001
1000
0010
0100
0001
1000
0001
0010
0100
0010
0001
1000
0001
1000
,
0001
0100
0001
1000
0001
0100
0001
1000
0001
0010
0100
0000
0010
0000
0001
0000
,
1000
0001
1000
0010
0100
0010
1000
0000
0001
0000
0010
0000
0100
0000
0010
0000
,
0001
1000
0010
0100
0001
1000
0010
0100
0001
1000
0100
0010
0001
1000
0100
0010
,
0001
0000
0000
0000
0000
0000
0000
0000
0000
0000
0000
0000
0000
0000
0000
1000
0001
1000
0001
0000
0000
1000
0001
1000
,
0002
0000
0000
1003
0100
0010
0001
1000
0100
0010
0001
1000
0100
0010
0001
1000
,
0020
0000
0000
1030
0010
0100
0001
1000
0010
0100
0001
1000
0010
0100
0001
1000
,
0200
0000
0000
1300
0100
0010
0001
1000
0100
0010
0001
1000
0100
0010
0001
1000
,
0020
0000
0000
1030
0010
0100
0001
1000
0010
0100
0001
1000
0010
0100
0001
1000
,
0200
0000
0000
0310
0100
1000
0001
0010
0100
1000
0001
0010
0100
1000
0001
1000
,
0020
0000
0000
0130
0010
1000
0001
0100
0010
1000
0001
0100
0010
1000
0001
1000
,
0200
0000
0000
0310
0100
1000
0001
0010
0100
1000
0001
0010
0100
1000
0001
1000
,
0010
0000
0000
0100
0000
0000
0010
0000
0000
0100
0000
0000
0010
0000
0000
0100
0000
0000
0010
0000
0000
0100
0000
0000
0010
0000
0000
0000
0000
0000
0000
0000
0000
1000
0000
0000
0000
0000
0000
0000
0000
0000
0001
0000
0100
0000
0001
0000
,
0200
0000
0000
0310
0100
0001
1000
0010
0100
0001
1000
0010
0100
0001
1000
0001
,
0020
0000
0000
0130
0010
0001
1000
0100
0010
0001
1000
0100
0010
0001
1000
0001
,
0200
0000
0000
0310
0100
0001
1000
0010
0100
0001
1000
0010
0100
0001
1000
0001
,
0020
0000
0000
0130
0010
0001
1000
0100
0010
0001
1000
0100
0010
0001
1000
0001
,
0200
0000
0000
0301
1000
0010
1000
0001
0100
0001
1000
0010
0100
0001
1000
0001
,
0020
0000
0000
0031
0010
0001
1000
0100
1000
0001
1000
0100
0010
0001
1000
0001
,
0200
0000
0000
0301
0100
0001
1000
0010
1000
0001
0100
0010
1000
0001
1000
0001
,
0010
0000
0000
0100
0000
0000
0010
0000
0000
0100
0000
0000
0010
0000
0000
0100
0000
0000
0010
0000
0000
0100
0000
0000
0010
0000
0000
0000
0000
0000
0000
0000
0000
0001
0000
0000
0000
0000
0000
0000
0000
0000
1000
0000
0001
0000
1000
0000
,
0001
0100
0010
0000
1000
0000
0001
0000
1000
0000
0001
0000
0010
0100
1000
0000
,
0100
0010
0001
0000
1000
0000
0001
0000
1000
0000
0001
0000
0100
0010
1000
0000
,
0010
0100
0001
0000
1000
0000
0001
0000
1000
0000
0001
0000
0010
0100
0010
0000
,
0001
1000
0001
0000
0100
0000
0010
0000
0100
0000
0010
0000
1000
0001
1000
0000
,
0100
0010
0001
0000
1000
0000
0100
0000
1000
0000
0100
0000
0010
0001
1000
0000
,
0001
0100
0010
0000
0100
0000
0001
0000
0100
0000
0001
0000
1000
0100
0010
0000
,
0100
1000
0001
0000
0010
0000
0100
0000
0010
0000
0100
0000
1000
0100
0010
0000
,
0001
0000
0000
1000
0000
0000
0001
0000
0000
1000
0000
0000
0001
0000
0000
1000
0000
0000
0001
0000
0000
1000
0000
0000
0001
0000
0000
0000
0000
0000
0000
0000
0000
0100
0000
0000
0000
0000
0000
0000
0000
0000
0010
0000
1000
0000
0010
0000
,
1000
0001
0100
0001
0010
0100
1000
0001
0010
0100
1000
0001
0100
0001
1000
0010
,
0100
0001
1000
0001
0010
0100
1000
0001
0010
0100
1000
0001
0100
0001
1000
0010
,
0100
0001
1000
0001
0010
0100
1000
0001
0010
0100
1000
0001
0100
0001
1000
0010
,
0100
0001
1000
0001
0010
0100
1000
0001
0010
0100
1000
0001
0100
0001
1000
0010
,
0100
0001
1000
0001
0010
0100
1000
0001
0010
0100
1000
0001
0100
0001
1000
0010
,
0100
0001
1000
0001
0010
0100
1000
0001
0010
0100
1000
0001
0100
0001
1000
0010
,
0100
0001
1000
0001
0010
0100
1000
0001
0010
0100
1000
0001
0100
0001
0010
0100
,
1000
0000
0000
0001
0000
0000
1000
0000
0000
0001
0000
0000
0100
0000
0000
0010
0000
0000
1000
0000
0000
0001
0000
0000
0100
0000
0000
0010
0000
0000
1000
0000
0000
0001
0000
0000
1000
0000
0000
0001
0000
0000
1000
0000
0001
0000
1000
0000
,
0001
0000
0000
0000
;

//---------------dance-single - 12+ (Janus5k)----------------
#NOTES:
     dance-single:
     12+ (Janus5k):
     Easy:
     12:
     1.000,1.000,0.059,0.601,0.912,2180.000,19.000,193.000,0.000,2.000:
0000
0000
0000
0000
,
0000
0000
0000
0000
,
0000
0000
0000
0000
,
0000
0000
0000
0000
,
0000
0000
0000
0000
,
0000
0000
0000
0000
,
0000
0000
0000
0000
,
0000
0000
0000
0000
,
1002
1003
0000
1000
,
0000
0100
0000
0100
,
0000
0010
0000
0010
,
0000
0001
0000
0001
,
0000
1000
0000
1000
,
0000
0010
0000
0010
,
0000
0100
0000
0100
,
0000
0000
0000
0000
0001
0000
0000
0000
1000
0001
0100
0001
1000
0100
0010
0001
,
1000
0100
0010
0001
,
1000
0010
0100
0001
,
0010
0001
0100
0010
,
1000
0000
0100
0000
0010
0000
0001
0001
,
1000
0010
0100
0001
,
0010
0001
0100
0010
,
1000
0100
0010
0001
,
0100
0000
0010
0000
1000
0000
0001
0001
,
0010
0100
0010
0001
1000
0100
1000
0001
,
1000
0010
0100
0001
0010
0001
0100
0010
,
1000
0001
0010
0001
1000
0010
0100
0001
,
0010
0100
0010
0001
1000
0010
0100
0100
,
0001
0100
0010
1000
0001
1000
0010
0100
,
0001
0010
0100
1000
0010
1000
0100
0010
,
0001
1000
0010
0100
0001
1000
0001
0100
,
0040
4000
0000
0000
0000
0000
0000
0000
0000
0000
0000
0000
0000
0000
0000
0030
,
3001
0010
0100
1000
0000
0100
1000
0000
0001
0000
1000
0010
0000
1000
0010
0000
,
0100
0001
1000
0100
0000
1000
0100
0000
0010
0000
0001
1000
0000
0001
1000
0000
,
0001
0100
0010
1000
0000
0010
1000
0000
0001
0000
1000
0100
0000
1000
0100
0000
,
0010
0001
1000
0010
0000
1000
0010
0000
0100
0000
0001
1000
0001
0000
0001
0000
,
1000
0100
0010
0001
0000
0010
0001
0000
1000
0000
0001
0100
0000
0001
0100
0000
,
0010
1000
0001
0010
0000
0001
0010
0000
0100
0000
1000
0001
0000
1000
0001
0000
,
1000
0010
0100
0001
0000
0100
0001
0000
1000
0000
0001
0010
0000
0001
0010
0000
,
0100
1000
0001
0100
0000
0001
0100
0000
0010
0000
1000
0001
1000
0000
1000
0000
,
0100
0010
0001
1000
0000
0001
1000
0000
0010
0000
0100
0001
0000
0100
0001
0000
,
1000
0100
0010
0001
0000
0010
0001
0000
1000
0000
0010
0100
0000
0010
0100
0000
,
0001
1000
0100
0010
0000
0100
0010
0000
0001
0000
1000
0010
0000
1000
0010
0000
,
0100
0001
1000
0100
0000
1000
0100
0000
0010
0000
0001
0010
0001
0000
0001
0000
,
1000
0010
0100
0000
0001
0000
0100
0000
0001
1000
0001
0000
0010
0000
0100
0000
,
1000
0100
0010
0000
0001
0000
1000
0000
0001
0100
0001
0000
1000
0000
0100
0000
,
0010
0100
1000
0000
0001
0000
1000
0000
0010
1000
0010
0000
0100
0000
0001
0000
,
1000
0100
0010
0001
0100
0010
1000
0001
1000
0010
0100
0001
0010
0100
1000
0001
,
2000
0000
0000
3001
0010
0100
1000
0001
0010
0100
1000
0001
1000
0000
0001
0000
,
0200
0000
0000
0301
1000
0010
0100
0001
1000
0010
0100
0001
1000
0000
0001
0000
,
0200
0000
0000
0301
1000
0100
0010
0001
1000
0100
0010
0001
1000
0000
0001
0000
,
2000
0000
0000
3001
0100
0010
1000
0001
0100
0010
1000
0001
0100
0000
0010
0000
,
0200
0000
0000
0301
1000
0100
0010
0001
1000
0100
0010
0001
1000
0000
0001
0000
,
2000
0000
0000
3001
0100
0010
1000
0001
0100
0010
1000
0001
1000
0000
0001
0000
,
0020
0000
0000
0130
0010
0001
1000
0100
0010
0001
1000
0001
1000
0000
0001
0000
,
0200
0000
0000
0301
0100
0010
1000
0010
0100
0001
1000
0100
0010
0000
0100
0000
,
2000
0000
0000
3001
0010
0100
1000
0001
0010
0100
1000
0001
0010
0000
0001
0000
,
0200
0000
0000
0301
1000
0010
0100
0001
1000
0010
0100
0001
1000
0000
0001
0000
,
2000
0000
0000
3001
1000
0100
0010
0001
1000
0100
0010
0001
1000
0000
0100
0000
,
2000
0000
0000
3001
0100
0010
1000
0001
0100
0010
1000
0001
0100
0000
0010
0000
,
0200
0000
0000
0301
1000
0100
0010
0001
1000
0100
0010
0001
1000
0000
0001
0000
,
2000
0000
0000
3001
0100
0010
1000
0001
0100
0010
1000
0001
1000
0000
0001
0000
,
0010
0100
0010
0100
1000
0100
0010
0001
1000
0001
1000
0010
0100
0001
1000
0001
,
1000
0000
0000
0000
0000
0100
1000
0001
,
1001
0000
0000
0010
0000
0000
0001
0000
0000
0000
0100
0000
0001
0000
1000
0000
,
1001
0000
0000
0010
0000
0000
1000
0000
0000
0000
0100
0000
1000
0000
0001
0000
,
0021
0230
2300
3020
,
0230
0000
0000
0000
0300
0100
0001
1000
,
1001
0000
0000
0010
0000
0000
1000
0000
1000
0000
0000
0000
0100
0000
0000
0000
,
0020
0000
0030
0001
0001
1000
0001
0010
,
0200
0000
0000
0000
0300
0000
1000
0010
0200
0000
0000
0000
0300
0000
0001
0010
,
0200
0000
0000
0000
0000
0000
0000
0000
0000
0000
0000
0000
0300
0000
0000
1000
0100
1000
0100
0000
0000
1000
0001
1000
,
0001
0000
0000
0010
0000
0000
0001
0000
0000
0000
1000
0000
0100
0000
1000
0000
,
0001
0000
0000
0010
0000
0000
0001
0000
0000
0000
1000
0000
0100
0000
1000
0000
,
0020
0230
0302
0023
,
0230
0000
0000
0000
0300
1000
0100
1000
,
0001
0000
0000
0010
0000
0000
0001
0000
0001
0000
0000
0000
0100
0000
0000
0000
,
0020
0000
0000
0000
0000
0000
0000
0000
0000
0000
0000
0000
0000
0000
0000
0000
0000
0000
0000
0000
0000
0000
0000
0000
0000
0000
0000
0000
0000
0000
0000
0030
,
1010
0000
0000
0000
0000
4000
3010
4000
,
3001
0010
0100
0000
1000
0100
1000
0000
0001
0100
0010
0000
0100
0001
0100
0000
,
0001
1000
0100
0000
0010
0100
0010
0000
0001
1000
0010
0000
0100
0001
0100
0000
,
0001
1000
0100
0000
0010
0001
0010
0000
0001
1000
0010
0000
0100
0010
0100
0000
,
0002
0003
0200
0300
0020
0030
2000
3000
0200
0300
2000
3000
0020
0030
0200
0300
0002
0003
0020
0030
0200
0300
2000
3000
0020
0030
2000
3000
0200
0300
0020
0030
,
0001
1000
0010
1000
0001
0010
0100
0010
,
0001
1000
0010
0100
0001
1000
0100
0010
,
0200
0000
0300
1000
0001
0000
0200
0300
,
0200
0000
0300
0010
1000
0000
0001
0001
,
0010
0100
1000
0100
0010
0001
0100
0001
,
1000
0010
0100
0010
1000
0100
0010
0001
,
2000
3000
0020
2030
,
3002
0000
0003
0000
0010
0000
0100
0010
,
0001
1000
0010
1000
0001
0010
0100
0010
,
0001
0100
0010
0100
0001
1000
0100
0010
,
0002
0003
0000
0002
0000
0000
2003
0000
,
3020
0000
0000
0000
0030
0100
0010
1000
,
0100
0010
0001
0010
0100
1000
0010
1000
,
0001
0100
0010
0100
0001
1000
0100
0010
,
0002
0003
0000
2000
0000
3100
0020
0000
,
0032
0000
0000
0003
0202
0000
0000
0303
0222
0000
0000
0333
2222
0000
0000
3333
,
1001
1000
0010
0010
0100
0001
0001
0010
,
0100
0010
0001
0001
1000
0010
0010
0100
,
0020
0030
0000
0000
1000
0000
0000
0000
0100
0000
0000
0000
0020
0030
0000
0000
0001
0000
0000
0000
1000
0000
0000
0000
0020
0030
0000
0000
0100
0000
0000
0000
,
0020
0030
0000
0000
1000
0000
0000
0000
0100
0000
0000
0000
0020
0030
0000
0000
0001
0000
0000
0000
1000
0000
0000
0000
0020
0030
0000
0000
0100
0000
0000
0000
,
0002
0003
0000
0000
1000
0000
0000
0000
0100
0000
0000
0000
0010
0000
0000
0000
0002
0003
0000
0000
0100
0000
0000
0000
0010
0000
0000
0000
1000
0000
0000
0000
,
0002
0003
0000
0000
1000
0000
0000
0000
0010
0000
0000
0000
0100
0000
0000
0000
0002
0003
0000
0000
1000
0000
0000
0000
0001
0000
0000
0000
0010
0000
0000
0000
,
0200
0300
0020
0030
0002
0003
2000
3000
0200
0300
2000
3000
0002
0003
2000
3000
0020
0030
0200
0300
0002
0003
0200
0300
0020
0030
2000
3000
0002
0003
0020
0030
,
0200
0300
1000
0000
0100
0000
0000
0000
0010
0000
0001
0000
1000
0000
0000
0000
0010
0000
0100
0000
0001
0000
0000
0000
1000
0000
0000
0000
1000
0000
0000
0000
,
1001
0001
0100
0100
0010
1000
1000
0100
,
0010
0100
1000
1000
0001
0100
0100
0010
,
0100
0001
0010
0100
1000
0001
0100
0100
,
0100
0001
0010
0100
1000
0001
0100
0010
,
1000
0001
0010
0001
1000
0100
0010
0001
,
0200
0300
0000
0000
0010
0000
0000
0000
1000
0000
0000
0000
0100
0000
0000
0000
0020
0030
0000
0000
0001
0000
0000
0000
0100
0000
0000
0000
0001
0000
0000
0000
,
2000
3000
0000
0000
0100
0000
0000
0000
0010
0000
0000
0000
0001
0000
0000
0000
1000
0000
0000
0000
0001
0000
0000
0000
0010
0000
0000
0000
0100
0000
0000
0000
,
2000
0000
0000
0000
0000
3001
0010
0001
,
1000
0010
1000
0001
0010
0001
1000
0000
0010
0000
0100
0000
0010
0000
1000
0000
,
0001
0010
0001
1000
0010
1000
0001
0000
0010
0000
0100
0000
0010
0000
0001
0000
,
1000
0001
1000
0001
0100
0001
0100
0001
1000
0010
1000
0010
1000
0001
1000
0100
,
0010
0001
1000
0001
0010
0001
1000
0001
0100
0000
0010
0000
0100
0000
0001
0000
,
1000
0100
1000
0001
0100
0001
1000
0000
0100
0000
0010
0000
0001
0000
0100
0000
,
0010
0100
0001
1000
1000
0100
0010
0100
,
1000
0000
0001
0000
1000
0000
0001
0100
0010
0000
1000
0000
0010
0000
1000
0001
,
0010
0100
0010
0100
1000
0001
0100
0010
,
1000
0010
1000
0001
0010
0001
1000
0000
0010
0000
0100
0000
0010
0000
1000
0000
,
0001
0010
0001
1000
0010
1000
0001
0000
0010
0000
0100
0000
0010
0000
0001
0000
,
1000
0001
1000
0001
0100
0001
0100
0001
1000
0001
0010
0100
1000
0001
0010
0001
,
1000
0001
0100
0010
1000
0010
0100
0001
1000
0001
1000
0000
0100
0000
0010
0000
,
0001
0100
0001
1000
0100
1000
0001
0000
0100
0000
0010
0000
1000
0000
0010
0000
,
0100
0001
1000
0001
0100
0001
1000
0001
0010
0100
0010
0001
1000
0100
0010
0001
,
1000
0000
0000
0000
0000
0001
0100
0010
,
1000
0010
0100
0001
0100
0010
1000
0000
0001
0000
0010
0000
0100
0000
1000
0000
,
0001
0010
0100
1000
0100
0010
0001
0000
1000
0000
0010
0000
0100
0000
0001
0000
,
0100
0010
0100
0001
1000
0001
1000
0100
0010
0001
0010
0100
1000
0001
1000
0001
,
0100
0010
0100
0001
0100
0010
0100
0001
1000
0001
0010
0000
0100
0000
1000
0000
,
0001
0010
0001
1000
0100
1000
0001
0000
1000
0000
0010
0000
0100
0000
0010
0000
,
1000
0001
1000
0100
0100
0010
0100
1000
,
0001
0000
0100
0000
0001
0000
0100
0010
1000
0000
0001
0000
1000
0000
0001
0010
,
0100
1000
0100
1000
0001
0100
0010
1000
,
0001
0010
0100
1000
0100
0010
0001
0000
1000
0000
0010
0000
0100
0000
0001
0000
,
1000
0010
0100
0001
0100
0010
1000
0000
0001
0000
0010
0000
0100
0000
1000
0000
,
0001
0010
0001
1000
0100
0010
0001
1000
0001
0100
0010
0100
0001
1000
0001
1000
,
0001
0010
0001
1000
0001
0010
0001
1000
0001
0100
0010
0000
0100
0000
0001
0000
,
1000
0001
1000
0100
0010
0100
1000
0000
0001
0000
0100
0000
0010
0000
0100
0000
,
0001
1000
0100
0010
0001
1000
0100
0010
0001
1000
0010
0100
0001
1000
0010
0100
,
0001
0000
0000
0000
0000
0000
0000
0000
0000
0000
0000
0000
0000
0000
0000
0001
1000
0001
1000
0000
0000
0001
1000
0001
,
2000
3010
0010
0200
0310
0010
2000
3001
,
0020
0130
0100
2000
3100
0100
0020
0031
,
2000
3001
0001
0200
0310
0010
2000
3001
,
0020
0130
0100
2000
3001
0001
0200
0310
,
2000
3001
0001
0020
0130
0100
0020
0031
,
2000
3010
0010
0200
0301
0001
2000
3100
,
0020
0031
0001
2000
3010
0010
2000
3001
,
1000
0001
1000
0001
1000
0001
1000
0001
1000
0000
0000
0001
0000
0000
4000
0000
,
3200
0310
0010
0002
1003
1000
0200
0310
,
0002
0103
0100
0020
1030
1000
0002
1003
,
0200
0310
0010
0002
1003
1000
0020
0130
,
0002
1003
1000
0020
1030
1000
0002
0013
,
0200
1300
1000
0002
1003
1000
0020
0130
,
0002
1003
1000
0200
0310
0010
0002
0103
,
0020
1030
1000
0002
1003
1000
0200
0310
,
0001
1000
0001
1000
0001
1000
0001
1000
0001
0000
0000
1000
0000
0000
0004
0000
,
0023
0130
0100
2000
3001
0001
0200
0310
,
2000
3001
0001
0200
0301
0001
2000
3100
,
0020
0031
0001
2000
3001
0001
0200
0310
,
2000
3001
0001
0020
0031
0001
2000
3100
,
0020
0031
0001
2000
3001
0001
0200
0310
,
2000
3001
0001
0200
0301
0001
2000
3100
,
0020
0130
0100
2000
3001
0001
0200
0310
,
1000
0001
1000
0001
1000
0001
1000
0001
1000
0001
0010
0000
0100
0000
1000
0000
,
0001
0000
0000
0100
0000
0000
0001
0000
0000
0000
0010
0000
0100
0000
1000
0000
,
0001
0000
0000
0100
0000
0000
0001
0000
0000
0000
0010
0000
0100
0000
1000
0000
,
0002
0203
0320
2030
,
3200
0000
0000
0000
0300
0010
0100
1000
,
0001
0000
0000
0100
0000
0000
0001
0000
0001
0000
0000
0000
0010
0000
0000
0000
,
0200
0000
0300
1000
1000
0001
1000
0100
,
0020
0000
0000
0000
0031
0000
1000
0010
0200
0000
0000
0000
0301
0000
0010
0100
,
2000
0000
0000
0000
3000
0010
0100
0001
,
1000
0000
0000
0100
0000
0000
1000
0000
0000
0000
0010
0000
0100
0000
0001
0000
,
1000
0000
0000
0100
0000
0000
1000
0000
0000
0000
0010
0000
0100
0000
0001
0000
,
2000
3200
0320
0032
,
0203
0000
0000
0000
0000
0310
0100
0001
,
1000
0000
0000
0100
0000
0000
1000
0000
1000
0000
0000
0000
0010
0000
0000
0000
,
1000
0010
0100
0001
1000
0001
0100
0010
1000
0001
0010
0100
1000
0010
0100
0001
,
2000
0000
0000
0000
0000
3010
1000
0001
,
1000
0100
1000
0001
0100
0001
1000
0000
0100
0000
0010
0000
0100
0000
1000
0000
,
0001
0100
0001
1000
0100
1000
0001
0000
0100
0000
0010
0000
0100
0000
0001
0000
,
1000
0001
1000
0001
0010
0001
0010
0001
1000
0100
1000
0100
1000
0001
1000
0010
,
0100
0001
1000
0001
0100
0001
1000
0001
0010
0000
0100
0000
0010
0000
0001
0000
,
1000
0010
1000
0001
0010
0001
1000
0000
0010
0000
0100
0000
0001
0000
0010
0000
,
0100
0010
0001
1000
1000
0010
0100
0010
,
1000
0000
0001
0000
1000
0000
0001
0010
0100
0000
1000
0000
0100
0000
1000
0001
,
0100
0010
0100
0010
1000
0001
0010
0100
,
1000
0100
1000
0001
0100
0001
1000
0000
0100
0000
0010
0000
0100
0000
1000
0000
,
0001
0100
0001
1000
0100
1000
0001
0000
0100
0000
0010
0000
0100
0000
0001
0000
,
1000
0001
1000
0001
0010
0001
0010
0001
1000
0001
0100
0010
1000
0001
0100
0001
,
1000
0001
0010
0100
1000
0100
0010
0001
1000
0001
1000
0000
0010
0000
0100
0000
,
0001
0010
0001
1000
0010
1000
0001
0000
0010
0000
0100
0000
1000
0000
0100
0000
,
0010
0001
1000
0001
0010
0001
1000
0001
0100
0010
0100
0001
1000
0010
0100
0001
,
1000
0000
0000
0000
0000
0001
0010
0100
,
1000
0100
0010
0001
0010
0100
1000
0000
0001
0000
0100
0000
0010
0000
1000
0000
,
0001
0100
0010
1000
0010
0100
0001
0000
1000
0000
0100
0000
0010
0000
0001
0000
,
0010
0100
0010
0001
1000
0001
1000
0010
0100
0001
0100
0010
1000
0001
1000
0001
,
0010
0100
0010
0001
0010
0100
0010
0001
1000
0001
0100
0000
0010
0000
1000
0000
,
0001
0100
0001
1000
0010
1000
0001
0000
1000
0000
0100
0000
0010
0000
0100
0000
,
1000
0001
1000
0010
0010
0100
0010
1000
,
0001
0000
0010
0000
0001
0000
0010
0100
1000
0000
0001
0000
1000
0000
0001
0100
,
0010
1000
0010
1000
0001
0010
0100
1000
,
0001
0100
0010
1000
0010
0100
0001
0000
1000
0000
0100
0000
0010
0000
0001
0000
,
1000
0100
0010
0001
0010
0100
1000
0000
0001
0000
0100
0000
0010
0000
1000
0000
,
0001
0100
0001
1000
0010
0100
0001
1000
0001
0010
0100
0010
0001
1000
0001
1000
,
0001
0100
0001
1000
0001
0100
0001
1000
0001
0010
0100
0000
0010
0000
0001
0000
,
1000
0001
1000
0010
0100
0010
1000
0000
0001
0000
0010
0000
0100
0000
0010
0000
,
0001
1000
0010
0100
0001
1000
0010
0100
0001
1000
0100
0010
0001
1000
0100
0010
,
0001
0000
0000
0000
0000
0000
0000
0000
0000
0000
0000
0000
0000
0000
0000
1000
0001
1000
0001
0000
0000
1000
0001
1000
,
0002
0000
0000
1003
0100
0010
0001
1000
0100
0010
0001
1000
0001
0000
1000
0000
,
0020
0000
0000
1030
0010
0100
0001
1000
0010
0100
0001
1000
0001
0000
1000
0000
,
0200
0000
0000
1300
0100
0010
0001
1000
0100
0010
0001
1000
0001
0000
1000
0000
,
0020
0000
0000
1030
0010
0100
0001
1000
0010
0100
0001
1000
0001
0000
1000
0000
,
0200
0000
0000
0310
0100
1000
0001
0010
0100
1000
0001
0010
0100
0000
1000
0000
,
0020
0000
0000
0130
0010
1000
0001
0100
0010
1000
0001
0100
0010
0000
1000
0000
,
0200
0000
0000
0310
0100
1000
0001
0010
0100
1000
0001
0010
0100
0000
1000
0000
,
0010
0100
0010
0100
0010
0100
0010
0100
0010
0000
0000
1000
0000
0000
0004
0000
,
0203
0000
0000
0310
0100
0001
1000
0010
0100
0001
1000
0010
1000
0000
0001
0000
,
0020
0000
0000
0130
0010
0001
1000
0100
0010
0001
1000
0100
1000
0000
0001
0000
,
0200
0000
0000
0310
0100
0001
1000
0010
0100
0001
1000
0010
1000
0000
0001
0000
,
0020
0000
0000
0130
0010
0001
1000
0100
0010
0001
1000
0100
1000
0000
0001
0000
,
0200
0000
0000
0301
1000
0010
1000
0001
0100
0001
1000
0010
0100
0000
0001
0000
,
0020
0000
0000
0031
0010
0001
1000
0100
1000
0001
1000
0100
0010
0000
0001
0000
,
0200
0000
0000
0301
0100
0001
1000
0010
1000
0001
0100
0010
1000
0000
0001
0000
,
0010
0100
0010
0100
0010
0100
0010
0100
0010
0000
0000
0001
0000
0000
4000
0000
,
3001
0100
0010
0000
1000
0000
0001
0000
1000
0000
0001
0000
0010
0100
1000
0000
,
0100
0010
0001
0000
1000
0000
0001
0000
1000
0000
0001
0000
0100
0010
1000
0000
,
0010
0100
0001
0000
1000
0000
0001
0000
1000
0000
0001
0000
0010
0100
0010
0000
,
0001
1000
0001
0000
0100
0000
0010
0000
0100
0000
0010
0000
1000
0001
1000
0000
,
0100
0010
0001
0000
1000
0000
0100
0000
1000
0000
0100
0000
0010
0001
1000
0000
,
0001
0100
0010
0000
0100
0000
0001
0000
0100
0000
0001
0000
1000
0100
0010
0000
,
0100
1000
0001
0000
0010
0000
0100
0000
0010
0000
0100
0000
1000
0100
0010
0000
,
0001
1000
0001
1000
0001
1000
0001
1000
0001
0000
0000
0100
0000
0000
0040
0000
,
1030
0001
0100
0000
0010
1000
0010
0000
1000
0001
1000
0000
0100
0010
0001
0000
,
1000
0100
0010
0000
0001
1000
0001
0000
1000
0010
1000
0000
0001
0100
0010
0000
,
0100
0010
1000
0000
0001
1000
0001
0000
0010
0001
0010
0000
0100
0010
0001
0000
,
1000
0100
0010
0000
0001
1000
0001
0000
0100
0010
0100
0000
0001
1000
0010
0000
,
1000
0001
0010
0000
0100
0010
0100
0000
1000
0001
1000
0000
0001
0100
0010
0000
,
1000
0010
0100
0000
0001
1000
0001
0000
0010
0100
0010
0000
0001
1000
0100
0000
,
1000
0001
0100
0000
0010
1000
0010
0000
1000
0001
1000
0000
0100
0010
0001
0000
,
1000
0000
0000
0001
0000
0000
1000
0000
0000
0001
0000
0000
0100
0000
0000
0010
0000
0000
1000
0000
0000
0001
0000
0000
0100
0000
0000
0010
0000
0000
1000
0000
0000
0001
0000
0000
1000
0000
0000
0001
0000
0000
1000
0000
0001
0000
1000
0000
,
0001
0000
0000
0000
;
