#TITLE:Heartbeatz;
#SUBTITLE:;
#ARTIST:Styles & Breeze feat. Nightcore;
#TITLETRANSLIT:;
#SUBTITLETRANSLIT:;
#ARTISTTRANSLIT:;
#CREDIT:owenviau1;
#BANNER:../owenviau1 Simfiles 5-bn.png;
#BACKGROUND:../owenviau1 Simfiles 5-bg.png;
#LYRICSPATH:;
#CDTITLE:../ov1_title.png;
#MUSIC:Nightcore - Heartbeatz.mp3;
#OFFSET:-1.987;
#SAMPLESTART:54.860;
#SAMPLELENGTH:29.999;
#SELECTABLE:YES;
#DISPLAYBPM:181.860;
#BPMS:0.000=181.856,2.000=181.868,3.000=181.856,4.000=181.868,5.000=181.856,7.000=181.868,8.000=181.856,10.000=181.868,11.000=181.856,13.000=181.868,14.000=181.856,16.000=181.868,17.000=181.856,19.000=181.868,20.000=181.856,22.000=181.868,23.000=181.856,25.000=181.868,26.000=181.856,28.000=181.868,29.000=181.856,31.000=181.868,32.000=181.856,33.000=181.868,34.000=181.856,36.000=181.868,37.000=181.856,39.000=181.868,40.000=181.856,41.000=181.868,42.000=181.856,44.000=181.868,45.000=181.856,47.000=181.868,48.000=181.856,49.000=181.868,50.000=181.856,52.000=181.868,53.000=181.856,55.000=181.868,56.000=181.856,57.000=181.868,58.000=181.856,60.000=181.868,61.000=181.856,63.000=181.868,64.000=181.856,65.000=181.868,66.000=181.856,68.000=181.868,69.000=181.856,71.000=181.868,72.000=181.856,73.000=181.868,74.000=181.856,76.000=181.868,77.000=181.856,79.000=181.868,80.000=181.856,81.000=181.868,82.000=181.856,84.000=181.868,85.000=181.856,87.000=181.868,88.000=181.856,89.000=181.868,90.000=181.856,92.000=181.868,93.000=181.856,95.000=181.868,96.000=181.856,97.000=181.868,98.000=181.856,100.000=181.868,101.000=181.856,103.000=181.868,104.000=181.856,105.000=181.868,106.000=181.856,108.000=181.868,109.000=181.856,111.000=181.868,112.000=181.856,113.000=181.868,114.000=181.856,116.000=181.868,117.000=181.856,119.000=181.868,120.000=181.856,121.000=181.868,122.000=181.856,124.000=181.868,125.000=181.856,127.000=181.868,128.000=181.856,129.000=181.868,130.000=181.856,132.000=181.868,133.000=181.856,135.000=181.868,136.000=181.856,137.000=181.868,138.000=181.856,141.000=181.868,142.000=181.856,145.000=181.868,146.000=181.856,149.000=181.868,150.000=181.856,153.000=181.868,154.000=181.856,157.000=181.868,158.000=181.856,161.000=181.868,162.000=181.856,165.000=181.868,166.000=181.856,169.000=181.868,170.000=181.856,173.000=181.868,174.000=181.856,177.000=181.868,178.000=181.856,181.000=181.868,182.000=181.856,185.000=181.868,186.000=181.856,189.000=181.868,190.000=181.856,193.000=181.868,194.000=181.856,197.000=181.868,198.000=181.856,201.000=181.868,202.000=181.856,205.000=181.868,206.000=181.856,209.000=181.868,210.000=181.856,213.000=181.868,214.000=181.856,217.000=181.868,218.000=181.856,221.000=181.868,222.000=181.856,225.000=181.868,226.000=181.856,229.000=181.868,230.000=181.856,233.000=181.868,234.000=181.856,237.000=181.868,238.000=181.856,241.000=181.868,242.000=181.856,245.000=181.868,246.000=181.856,249.000=181.868,250.000=181.856,253.000=181.868,254.000=181.856,257.000=181.868,258.000=181.856,261.000=181.868,262.000=181.856,265.000=181.868,266.000=181.856,269.000=181.868,270.000=181.856,273.000=181.868,274.000=181.856,277.000=181.868,278.000=181.856,281.000=181.868,282.000=181.856,284.000=181.868,285.000=181.856,286.000=181.868,287.000=181.856,288.000=181.868,289.000=181.856,290.000=181.868,291.000=181.856,292.000=181.868,293.000=181.856,294.000=181.868,295.000=181.856,296.000=181.868,297.000=181.856,298.000=181.868,299.000=181.856,300.000=181.868,301.000=181.856,302.000=181.868,303.000=181.856,304.000=181.868,305.000=181.856,306.000=181.868,307.000=181.856,308.000=181.868,309.000=181.856,310.000=181.868,311.000=181.856,312.000=181.868,313.000=181.856,314.000=181.868,315.000=181.856,316.000=181.868,317.000=181.856,318.000=181.868,319.000=181.856,320.000=181.868,321.000=181.856,322.000=181.868,323.000=181.856,324.000=181.868,325.000=181.856,326.000=181.868,327.000=181.856,328.000=181.868,329.000=181.856,330.000=181.868,331.000=181.856,332.000=181.868,333.000=181.856,334.000=181.868,335.000=181.856,336.000=181.868,337.000=181.856,338.000=181.868,339.000=181.856,340.000=181.868,341.000=181.856,342.000=181.868,343.000=181.856,344.000=181.868,345.000=181.856,346.000=181.868,347.000=181.856,348.000=181.868,349.000=181.856,350.000=181.868,351.000=181.856,352.000=181.868,353.000=181.856,354.000=181.868,355.000=181.856,356.000=181.868,357.000=181.856,358.000=181.868,359.000=181.856,360.000=181.868,361.000=181.856,362.000=181.868,363.000=181.856,364.000=181.868,365.000=181.856,366.000=181.868,367.000=181.856,368.000=181.868,369.000=181.856,370.000=181.868,371.000=181.856,372.000=181.868,373.000=181.856,374.000=181.868,375.000=181.856,376.000=181.868,377.000=181.856,378.000=181.868,379.000=181.856,380.000=181.868,381.000=181.856,382.000=181.868,383.000=181.856,384.000=181.868,385.000=181.856,386.000=181.868,387.000=181.856,388.000=181.868,389.000=181.856,390.000=181.868,391.000=181.856,392.000=181.868,393.000=181.856,394.000=181.868;
#STOPS:;
#BGCHANGES:;
// cache tags:
#FIRSTBEAT:32.000;
#LASTBEAT:395.000;
#SONGFILENAME:Songs/owenviau1 Simfiles 5/Heartbeatz - [owenviau1] v1.2/Heartbeatz.sm;
#HASMUSIC:1;
#HASBANNER:1;
#MUSICLENGTH:132.370;
// end cache tags

//---------------dance-single - ----------------
#NOTES:
     dance-single:
     :
     Hard:
     9:
     0.719,0.709,0.091,0.325,0.023,611.000,12.000,43.000,0.000,3.000:
0000
0000
0000
0000
,
0000
0000
0000
0000
,
0000
0000
0000
0000
,
0000
0000
0000
0000
,
0000
0000
0000
0000
,
0000
0000
0000
0000
,
0000
0000
0000
0000
,
0000
0000
0000
0000
,
2002
3003
0000
0000
,
0000
0000
0000
0000
2000
0000
3020
0230
,
0000
0302
0000
0000
0003
0000
0000
0000
,
0200
0000
0000
0320
0000
0000
2032
0000
,
0000
0000
0000
0000
3003
0000
2000
3002
,
0203
0000
0320
2030
0000
3200
0000
0320
,
0000
0032
0000
0000
0000
0000
0000
0000
,
0003
0000
0000
0000
0000
0000
0000
0000
0200
0000
0000
0320
0000
0000
2030
0000
,
0000
3002
0000
0000
0003
0000
0000
0000
,
0000
0000
0000
0000
0000
0000
0000
0000
0020
0000
0000
0230
0000
0000
0302
0000
,
0000
2003
0000
0000
3000
0000
0000
0000
,
0020
0000
0000
2030
0000
0000
3202
0000
,
0000
0000
0000
0000
0303
0000
0002
2003
,
3020
0000
0230
0302
0000
0023
0000
0230
,
0000
2300
0000
0000
0000
0000
0000
0000
,
3000
0000
0000
0000
0000
2000
3002
0023
,
1031
0001
0100
0010
1000
0100
1000
0010
,
0100
0001
0010
0001
1000
0010
0100
0010
,
1000
0100
0010
0001
0100
0001
1000
0100
,
0010
0001
0100
0010
1000
0001
1000
0100
,
1000
0010
0100
0001
0010
0001
1000
0100
,
0010
0001
0100
0001
1000
0010
0100
0010
,
1000
0100
0010
0001
0100
0001
1000
0100
,
1000
0010
0100
0001
1000
0100
0010
0001
,
1100
0100
0010
0001
1000
0001
0010
0100
,
1000
0010
0100
0001
0010
0100
1000
0010
,
1000
0001
0100
0001
0010
0001
1000
0100
,
0010
0001
0100
0010
1000
0010
0100
0001
,
0010
0100
1000
0010
0100
0001
1000
0001
,
0010
0001
0100
0010
1000
0100
1000
0010
,
0100
0001
0010
0100
1000
0010
0100
0001
,
0010
0000
0001
0000
0100
0000
0010
0000
1000
0000
0001
1000
0001
0000
1000
0000
,
1001
0001
1000
0010
0100
1000
0001
0010
,
0100
1000
0010
1000
0001
0100
0001
1000
,
0100
1000
0010
0100
0001
0010
0100
1000
,
0010
1000
0001
0010
0100
1000
0001
1000
,
0010
0100
0001
0010
0001
0100
0001
1000
,
0100
1000
0010
0100
0001
1000
0100
0010
,
0001
0100
0001
1000
0100
1000
0010
0100
,
0001
0010
0100
1000
0010
0100
0001
1000
,
0110
0010
0001
1000
0010
1000
0001
0010
,
0100
1000
0010
0100
0001
0010
0001
1000
,
0100
1000
0010
0100
0001
1000
0001
0010
,
0100
1000
0010
0100
0001
0010
0100
1000
,
0010
1000
0100
0010
0001
0100
0010
0100
,
0001
1000
0100
0010
0001
0100
0001
1000
,
0100
1000
0010
0100
0001
1000
0100
0010
,
0002
0000
0000
0000
0000
0000
0000
0000
0000
0000
1003
0000
0010
1000
0010
0000
,
1001
0100
0010
0001
0100
0010
1000
0100
,
0010
0001
0100
0010
1000
0001
1000
0100
,
1000
0010
0100
0001
0010
0001
0100
0010
,
1000
0100
0010
0001
0100
0010
1000
0001
,
1000
0100
1000
0010
0100
0001
0010
0001
,
1000
0100
0010
0001
0100
0010
1000
0001
,
1000
0100
1000
0010
0100
0001
1000
0100
,
0010
0001
0100
0001
1000
0100
0010
0001
,
1001
0100
1000
0010
0100
0001
0010
0001
,
0100
0010
1000
0001
1000
0100
1000
0010
,
0100
0001
1000
0100
0010
0001
0100
0010
,
1000
0001
1000
0100
1000
0010
0100
0001
,
0010
0001
0100
0010
1000
0100
0010
0001
,
0100
0010
1000
0001
1000
0100
1000
0010
,
0100
0001
0010
0001
1000
0010
0100
0001
,
1000
0000
0000
0000
0000
0001
0010
0100
,
1000
0001
0010
0001
1000
0010
0100
0010
,
1000
0100
0010
0001
0100
0001
1000
0100
,
1000
0010
0100
0001
1000
0100
0010
0001
,
0100
0001
0010
0100
1000
0010
0100
0001
,
1000
0100
1000
0010
0100
0001
0010
0001
,
0100
0010
1000
0001
1000
0100
1000
0010
,
0100
0001
0010
0001
0100
0010
1000
0100
,
0010
0000
0001
0000
0100
0000
0001
0000
1000
0000
0100
0000
0010
0100
0010
0000
,
1001
0001
1000
0010
0100
1000
0001
0010
,
0100
1000
0010
1000
0001
0100
0001
1000
,
0100
1000
0010
0100
0001
0010
0100
1000
,
0010
1000
0001
0010
0100
1000
0001
1000
,
0010
0100
0001
0010
0001
0100
0001
1000
,
0100
1000
0010
0100
0001
1000
0100
0010
,
0001
0100
0001
1000
0100
1000
0010
0100
,
0001
0010
0100
1000
0010
0100
0001
1000
,
0110
0010
0001
1000
0010
1000
0001
0010
,
0100
1000
0010
0100
0001
0010
0001
1000
,
0100
1000
0010
0100
0001
1000
0001
0010
,
0100
1000
0010
0100
0001
0010
0100
1000
,
0010
1000
0100
0010
0001
0100
0010
0100
,
0001
1000
0100
0010
0001
0100
0001
1000
,
0100
1000
0010
0100
0001
1000
0100
0010
,
0001
0000
1000
0000
0001
0000
0100
0000
0010
0000
1000
0000
0010
1000
0010
0000
,
2001
0000
0000
0000
,
0000
0000
0000
0000
,
0000
0000
0000
3000
;

//---------------dance-single - ----------------
#NOTES:
     dance-single:
     :
     Challenge:
     13:
     1.000,1.000,0.536,0.363,1.000,1063.000,71.000,48.000,0.000,1.000:
0000
0000
0000
0000
,
0000
0000
0000
0000
,
0000
0000
0000
0000
,
0000
0000
0000
0000
,
0000
0000
0000
0000
,
0000
0000
0000
0000
,
0000
0000
0000
0000
,
0000
0000
0000
0000
,
2002
3003
0000
0000
,
0000
0000
0000
0000
2000
0000
3020
0230
,
0000
0302
0000
0000
0003
0000
0000
0000
,
2200
0000
3300
0220
0000
0330
2002
0000
,
0000
0000
0000
0000
3003
0000
2000
3002
,
0203
0000
0320
2030
0000
3200
0000
0320
,
0000
0032
0000
0000
0000
0000
0000
0000
,
0003
0000
0000
0000
0000
0000
0000
0000
0200
0000
0000
0320
0000
0000
2030
0000
,
0000
0002
0000
0000
3003
0000
0000
0000
,
0000
0000
0000
0000
0000
0000
0000
0000
0020
0000
0000
0230
0000
0000
0302
0000
,
0000
2000
0000
0000
3003
0000
0000
0000
,
0220
0000
0330
2200
0000
3300
0202
0000
,
0000
0000
0000
0000
0303
0000
0002
2003
,
3020
0000
0230
0302
0000
0023
0000
0230
,
0000
2300
0000
0000
0000
0000
0000
0000
,
3000
0000
0000
0000
0000
2000
3002
0023
,
1031
0001
0010
0001
1000
0010
1000
0100
0010
0001
0100
0001
0010
0100
1000
0100
,
0010
0001
1000
0010
1000
0001
0100
0001
1000
0100
0010
0100
1000
0100
0010
0001
,
0100
0010
0100
0001
1000
0100
0010
0001
0100
0010
0100
0001
1000
0100
0010
0001
,
0100
0010
1000
0001
1000
0100
0010
0001
1000
0100
1000
0010
0100
0001
0010
0001
,
0100
0010
1000
0100
0010
0001
1000
0100
0010
0001
0100
0001
0010
0100
1000
0100
,
0010
0001
1000
0010
1000
0100
0010
0001
0100
0010
1000
0100
1000
0010
0100
0001
,
1000
0100
0010
0001
0100
0001
0010
0100
1000
0100
0010
0001
1000
0010
0100
0010
,
1000
0001
0100
0010
0100
0001
1000
0100
0010
0001
0010
0100
1000
0001
0100
0010
,
1001
0100
0010
0001
1000
0010
1000
0100
0010
0001
0100
0001
0010
0100
1000
0100
,
0010
0001
1000
0010
1000
0001
0100
0001
1000
0100
0010
0100
1000
0100
0010
0001
,
0100
0010
0100
0001
1000
0100
0010
0001
0100
0010
0100
0001
1000
0100
0010
0001
,
0100
0010
1000
0001
1000
0100
0010
0001
1000
0100
1000
0010
0100
0001
0010
0001
,
0100
0010
1000
0100
0010
0001
1000
0100
0010
0001
0100
0001
0010
0100
1000
0100
,
0010
0001
1000
0010
1000
0100
0010
0001
0100
0010
1000
0100
1000
0010
0100
0001
,
1000
0100
0010
0001
0100
0001
0010
0100
1000
0100
0010
0001
1000
0010
0100
0010
,
1000
0001
0100
0010
0100
0001
1000
0100
0010
0000
1000
0000
0100
0010
0001
0100
,
1001
0010
0100
0001
1000
0100
0010
0001
0100
0001
1000
0100
0010
0001
0100
0010
,
1000
0010
0100
0001
0010
0100
1000
0001
0010
0001
0100
0010
1000
0100
1000
0001
,
0100
0010
1000
0100
0010
0001
1000
0100
0010
0001
0010
0100
1000
0010
1000
0001
,
0100
0001
0100
0010
1000
0100
0010
0001
0100
0010
1000
0100
1000
0001
0100
0001
,
0100
0010
1000
0100
0010
0001
0100
0010
1000
0100
0010
0001
0010
0100
1000
0010
,
1000
0001
0100
0001
1000
0010
1000
0100
0010
0001
0100
0001
0010
0100
1000
0010
,
1000
0010
0100
0001
0100
0010
1000
0001
0100
0010
1000
0100
0010
0001
0010
0100
,
1000
0000
0000
0010
0000
0000
0100
0000
0000
0001
0000
0000
0010
0000
0000
0100
0000
0000
1000
0000
0000
0010
0000
0000
0100
0000
0000
0001
0000
0000
1000
0000
0100
0000
1000
0000
0100
0000
0000
0010
0000
0000
0001
0000
1000
0000
0010
0000
,
1001
0100
0010
0001
1000
0010
1000
0100
0010
0001
0100
0001
0010
0100
1000
0100
,
0010
0001
1000
0010
1000
0001
0100
0001
1000
0100
0010
0100
1000
0100
0010
0001
,
0100
0010
0100
0001
1000
0100
0010
0001
0100
0010
0100
0001
1000
0100
0010
0001
,
0100
0010
1000
0001
1000
0100
0010
0001
1000
0100
1000
0010
0100
0001
0010
0001
,
0100
0010
1000
0100
0010
0001
1000
0100
0010
0001
0100
0001
0010
0100
1000
0100
,
0010
0001
1000
0010
1000
0100
0010
0001
0100
0010
1000
0100
1000
0010
0100
0001
,
1000
0100
0010
0001
0100
0001
0010
0100
1000
0100
0010
0001
1000
0010
0100
0001
,
2000
0000
0000
0000
0000
0000
0000
0000
0000
0000
3010
0000
0001
1000
0001
0000
,
0110
0001
1010
1000
0101
0010
1001
0010
,
1100
0001
1010
0010
1100
0001
0110
1000
,
0011
0010
0101
1000
0011
0010
1100
0001
,
0110
0100
1001
0100
1010
0001
0110
1000
,
0101
1000
0011
0001
1100
0001
0110
0100
,
1001
0001
0110
0001
1010
0010
0101
1000
,
0011
0010
1100
0001
0110
0100
1001
1000
,
0011
0100
0110
0001
1100
0001
0110
0100
,
1001
1000
0110
0100
0011
1000
0101
0010
,
1001
0100
0110
0001
1010
0001
1100
0010
,
0101
1000
0011
0001
1100
0001
0110
0100
,
1001
0100
1010
0001
0110
1000
0101
1000
,
0011
0010
1100
0010
1001
0010
0110
0001
,
1000
0001
1000
0100
0010
0001
0100
0010
1000
0010
0100
0001
0010
0100
1000
0010
,
0100
0001
0100
0010
1000
0010
0100
0001
1000
0100
0010
0001
0100
0001
0010
0100
,
1001
0010
0101
1000
0110
1000
0011
0100
,
1001
0100
0010
0001
1000
0010
1000
0100
0010
0001
0100
0001
0010
0100
1000
0100
,
0010
0001
1000
0010
1000
0001
0100
0001
1000
0100
0010
0100
1000
0100
0010
0001
,
0100
0010
0100
0001
1000
0100
0010
0001
0100
0010
0100
0001
1000
0100
0010
0001
,
0100
0010
1000
0001
1000
0100
0010
0001
1000
0100
1000
0010
0100
0001
0010
0001
,
0100
0010
1000
0100
0010
0001
1000
0100
0010
0001
0100
0001
0010
0100
1000
0100
,
0010
0001
1000
0010
1000
0100
0010
0001
0100
0010
1000
0100
1000
0010
0100
0001
,
1000
0100
0010
0001
0100
0001
0010
0100
1000
0100
0010
0001
1000
0010
0100
0001
,
1000
0001
0100
0010
1000
0001
0100
0001
0010
0100
1000
0000
0001
0010
0100
0000
,
1001
0100
0010
0001
1000
0010
1000
0100
0010
0001
0100
0001
0010
0100
1000
0100
,
0010
0001
1000
0010
1000
0001
0100
0001
1000
0100
0010
0100
1000
0100
0010
0001
,
0100
0010
0100
0001
1000
0100
0010
0001
0100
0010
0100
0001
1000
0100
0010
0001
,
0100
0010
1000
0001
1000
0100
0010
0001
1000
0100
1000
0010
0100
0001
0010
0001
,
0100
0010
1000
0100
0010
0001
1000
0100
0010
0001
0100
0001
0010
0100
1000
0100
,
0010
0001
1000
0010
1000
0100
0010
0001
0100
0010
1000
0100
1000
0010
0100
0001
,
1000
0100
0010
0001
0100
0001
0010
0100
1000
0100
0010
0001
1000
0010
0100
0010
,
1000
0001
0100
0010
0100
0001
1000
0100
0010
0001
0010
0100
1000
0001
0100
0010
,
1001
0100
0010
0001
1000
0010
1000
0100
0010
0001
0100
0001
0010
0100
1000
0100
,
0010
0001
1000
0010
1000
0001
0100
0001
1000
0100
0010
0100
1000
0100
0010
0001
,
0100
0010
0100
0001
1000
0100
0010
0001
0100
0010
0100
0001
1000
0100
0010
0001
,
0100
0010
1000
0001
1000
0100
0010
0001
1000
0100
1000
0010
0100
0001
0010
0001
,
0100
0010
1000
0100
0010
0001
1000
0100
0010
0001
0100
0001
0010
0100
1000
0100
,
0010
0001
1000
0010
1000
0100
0010
0001
0100
0010
1000
0100
1000
0010
0100
0001
,
1000
0100
0010
0001
0100
0001
0010
0100
1000
0100
0010
0001
1000
0010
0100
0010
,
1000
0001
0100
0010
0100
0001
1000
0100
0010
0000
1000
0000
0100
0010
0001
0000
,
2002
0000
0000
0000
,
0000
0000
0000
0000
,
0000
0000
0000
0000
0000
3003
0000
0000
;
