#TITLE:PARANOiA KFL;
#SUBTITLE:;
#ARTIST:(^180^);
#TITLETRANSLIT:;
#SUBTITLETRANSLIT:;
#ARTISTTRANSLIT:;
#CREDIT:;
#BANNER:paranoia_kfl.png;
#BACKGROUND:paranoia_kfl-bg.png;
#LYRICSPATH:;
#CDTITLE:cdtitle.png;
#MUSIC:paranoia_kfl.mp3;
#OFFSET:-0.042;
#SAMPLESTART:65.333;
#SAMPLELENGTH:12.000;
#SELECTABLE:YES;
#DISPLAYBPM:180.000;
#BPMS:0.000=180.000,25.688=559.996,28.000=180.000,162.000=359.999,163.000=180.000,167.000=359.998,168.000=180.000;
#STOPS:20.000=0.500
,21.000=0.166
,22.000=0.333
,23.000=0.500
,24.000=0.353
,61.000=0.686
,124.000=0.333
,157.500=0.166
,158.500=0.166
,159.500=0.166
,160.500=0.166
,161.500=0.166
,163.500=0.166
,164.500=0.166
,165.500=0.166
,166.500=0.166
,168.500=0.166
,169.000=0.166
,170.000=0.166
,171.000=0.166
,172.000=0.166
,173.000=0.166
,174.500=0.333
,175.000=0.333
,175.500=0.166
;
#BGCHANGES:;
// cache tags:
#FIRSTBEAT:10.500;
#LASTBEAT:251.500;
#SONGFILENAME:Songs/Japanese Collaboration Mix/paranoia_kfl/paranoia_kfl.sm;
#HASMUSIC:1;
#HASBANNER:1;
#MUSICLENGTH:91.525;
// end cache tags

//---------------dance-single - Challenge----------------
#NOTES:
     dance-single:
     Challenge:
     Challenge:
     10:
     0.651,1.000,0.470,0.514,0.027,327.000,43.000,47.000,0.000,0.000:
0000
0000
0000
0000
,
0000
0000
0000
0000
,
0000
0000
0000
0000
0000
1000
0001
2001
,
0100
0000
0000
0000
0000
0000
0000
3000
,
1000
1000
1000
1001
0000
0000
0001
0000
,
1001
1100
0101
0110
,
1001
0220
0000
0000
,
0300
1030
0100
1000
0100
1000
0001
0100
,
0001
0000
1000
0000
0100
0001
0010
0001
,
0100
0000
0010
0000
1000
0100
0100
0000
,
0001
0000
0101
0000
1000
0000
0010
1000
,
0001
0100
0101
0000
0010
0001
0010
0000
,
1000
0000
0100
0000
1000
0000
0010
0100
,
1000
0100
0010
0001
0100
0001
0001
0100
,
0010
1000
0010
0100
0001
1000
0001
1000
,
0010
0000
0000
0000
0000
0000
0000
0000
0200
0000
0000
0000
0000
0000
0000
0000
0020
0330
0000
0000
0000
0000
0000
0000
0000
0000
0000
0000
0000
0000
0000
0000
1000
0000
0000
0000
0000
0000
0000
0000
0100
0000
0000
0000
0000
0000
0000
0000
0100
0000
0000
0000
0000
0000
0000
0000
0000
0000
0000
0000
0000
0000
0000
0000
,
0001
0000
0100
1000
0000
1000
0100
0000
,
0010
0100
0010
0000
0001
0100
0100
0000
,
1000
0000
0100
0000
1000
0010
0110
0001
,
0100
0001
0010
0000
1000
0000
0100
0000
,
0001
0000
0100
0001
0000
0001
0100
0000
,
0010
0100
0010
0000
0001
0000
0100
0000
,
1000
0000
0010
0000
0001
0100
0101
0010
,
0100
0110
0100
1000
,
0100
0001
0101
0010
,
0010
1000
0001
0000
0010
0000
1000
0000
,
0100
0000
1000
0000
0001
0100
0101
0010
,
1000
0100
0010
0001
,
0010
0101
0100
0010
,
0100
1000
1000
0000
0010
0100
1000
0010
,
0100
0001
0100
0010
1000
0001
0100
0001
,
0010
0000
0010
0000
0000
0001
0000
0000
,
0100
0000
0000
0010
0000
0010
0001
0001
,
0001
0000
0100
0000
0000
1000
0000
0000
,
1000
0000
0000
0100
0000
1000
0101
0000
,
1010
0000
0100
0000
0000
0001
0000
0000
,
0010
0000
0000
0001
0000
0010
0001
0001
,
0001
0000
0100
0000
0000
1000
0000
0000
,
0010
0000
0000
0100
0000
0002
2000
0000
,
3003
0000
0000
0000
0000
0000
0000
0000
1001
0000
0000
0000
0200
0000
0000
0300
1010
0000
0000
0000
0200
0000
0000
0300
0011
0000
0000
0000
2000
0000
0000
3000
,
0110
0000
0000
0000
0002
0000
0000
0003
1010
0000
0000
0000
2000
0000
0000
3000
0100
0000
0000
0000
0000
0000
0000
0000
0002
0000
0000
0000
0200
0000
0000
0303
,
1000
0000
0000
0000
2020
0000
0000
3030
0100
0000
0000
0000
0202
0000
0000
0303
1000
0000
0000
0000
0022
0000
0000
0033
0100
0000
0000
0000
0000
0000
0000
0000
,
0002
0000
0000
0000
0020
0000
0000
0033
2200
0000
0000
3300
0020
0000
0030
0000
0202
0000
0000
0303
2000
0000
3000
0000
0220
0000
0000
0330
0002
0000
0003
0000
,
2020
0000
0000
3030
0200
0000
0300
0000
2002
0000
0000
3003
0020
0000
0030
0000
0220
0000
0330
0000
2002
0000
3003
0000
0220
0000
0330
0000
2200
0000
0000
0000
,
3000
0010
0010
0010
0010
0010
0310
0000
,
1000
0010
0100
0000
0001
0000
0010
0000
,
0001
0000
0100
0011
0000
1000
0100
0000
,
1000
0001
0100
0000
0010
0000
0001
0000
,
0100
0001
0010
0001
0100
0010
1000
0000
,
0010
0001
0100
0000
0010
0000
1000
0000
,
0100
0000
0001
1100
0000
0010
0100
0000
,
0001
1000
0001
0000
0010
0000
0001
0000
,
0001
0010
0100
1000
0001
0100
0010
0000
,
0110
1001
0100
0001
,
0010
0000
1000
0101
0000
1000
0100
0000
,
0010
0001
0010
0000
0001
0000
0100
0000
,
0001
0100
0000
0001
0000
0000
0010
0100
0000
0010
0000
0000
0001
1000
0001
0000
,
1000
0100
0010
0100
1000
0001
0100
0010
,
1000
0100
0001
0010
0100
0001
1000
0100
,
0001
0010
1000
0010
0100
0001
1000
0100
,
1000
0100
0010
0001
1000
0020
0200
0000
,
0330
0000
0010
1100
,
0000
0000
0001
0000
1000
0000
1001
1001
;
