#TITLE:Tokyo Style Speedcore;
#SUBTITLE:;
#ARTIST:M1dy;
#TITLETRANSLIT:;
#SUBTITLETRANSLIT:;
#ARTISTTRANSLIT:;
#CREDIT:;
#BANNER:../speedcore rejects ban.png;
#BACKGROUND:../speedcore rejects bg.png;
#LYRICSPATH:;
#CDTITLE:;
#MUSIC:Tokyo Style Speedcore.ogg;
#OFFSET:0.120;
#SAMPLESTART:85.000;
#SAMPLELENGTH:15.000;
#SELECTABLE:YES;
#BPMS:0.000=200.000;
#STOPS:;
#BGCHANGES:;
// cache tags:
#FIRSTBEAT:11.750;
#LASTBEAT:427.500;
#SONGFILENAME:Songs/Speedcore Rejects/Tokyo Style Speedcore - [Happy Feet!]/Tokyo Style Speedcore.sm;
#HASMUSIC:1;
#HASBANNER:1;
#MUSICLENGTH:129.854;
// end cache tags

//---------------dance-single - Happy Feet----------------
#NOTES:
     dance-single:
     Happy Feet:
     Challenge:
     14:
     1.000,1.000,0.732,0.285,1.000,774.000,95.000,37.000,276.000,10.000:

0000
0000
0000
0000
,
0000
0000
0000
0000
,
0000
0000
0000
0000
0000
0000
0000
0000
0000
0000
0000
0000
0000
0000
0000
1111
,
0000
0000
0000
0000
,
4000
3004
4003
3004
4003
3004
4003
3004
,
2MM3
3MM0
M0M0
0M0M
,
00MM
0000
0000
0000
MM00
0000
0000
0000
M0M0
0000
0000
0000
0M0M
0000
0000
1111
,
0000
0MM0
0M0M
M0M0
,
0004
4003
3004
4003
3004
4003
3004
4003
,
3MM2
0MM3
MM00
0M0M
,
0MM0
0000
0000
0000
M0M0
0000
0000
0000
00MM
0000
0000
0000
MM00
0000
0000
1111
,
0000
0000
0000
0000
0001
1000
0001
1000
0001
1000
0001
1000
0100
1000
0100
1000
,
0001
0000
0000
0001
0000
0000
2000
0000
0000
0000
0000
0000
3004
0400
0000
0000
0000
0000
0000
0000
0000
0000
0000
0003
,
03M0
00M0
00M0
00M0
00M0
00M0
00M0
00M0
00M0
00M0
0MM0
0M00
0M00
0M00
0M00
0M00
,
0M00
0M00
0M00
0M00
0M00
0M00
0M00
0M00
0M00
0M00
0M00
0M00
0M00
0M00
0M00
0M00
,
0M01
0010
0001
1000
0001
1000
0010
0100
0010
1000
0100
0010
0001
0010
0001
1000
,
0100
1000
0001
0010
0001
1000
0010
0100
0010
1000
0001
0100
0001
1000
0001
0100
,
0010
1000
0010
0100
0001
1000
0001
1000
0100
1000
0001
0010
0100
0010
0001
0010
,
0001
1000
0001
0100
0010
1000
0010
0100
0010
1000
0100
1000
0001
1000
0010
0000
,
0100
0010
0100
0001
0100
0001
1000
0100
1000
0001
0010
0001
0010
0100
1000
0100
,
1000
0010
0100
0010
1000
0001
0100
0001
1000
0001
1000
0001
0010
0001
0010
0100
,
0010
0001
1000
0010
0100
0010
0100
0001
1000
0100
1000
0001
0010
0100
1000
0001
,
1000
0000
0020
0030
0000
0000
0200
0300
0000
0000
0002
0003
0000
0000
2000
3000
0001
0000
0010
0000
0100
0000
1000
0000
0001
0000
0010
0000
0100
0000
1000
0000
,
0001
1000
0100
1000
0010
0100
0001
1000
,
0001
0000
0010
0000
0100
0000
0010
0001
0010
0000
0100
0000
2000
0000
3001
0000
,
0100
0010
1000
0001
1000
0100
1000
0010
,
0100
0000
0000
0000
0000
0000
0001
0000
0000
1000
0000
0000
0001
0000
0000
0100
0000
0000
0001
0000
0000
0000
0000
0000
0010
0000
0000
0000
0000
0000
0100
0000
0000
0000
0000
0000
1000
0000
0001
0000
1000
0000
0001
0000
0000
1000
0000
0000
,
0100
0000
0000
0000
0000
0000
0010
0000
0000
0001
0000
0000
1000
0000
0001
0000
1000
0000
0001
0000
0000
0000
0000
0000
0100
0000
0000
0000
0000
0000
0001
0000
0000
0000
0000
0000
0010
0000
0000
0000
0000
0000
0100
0000
0000
0000
0000
0000
,
1000
0000
0010
0000
0100
0000
0001
0000
1000
0100
1000
0000
0002
0000
0013
0000
,
0100
0000
1000
0000
0001
0000
0100
0000
0001
0010
0001
0000
1000
0000
0010
0000
,
M000
0000
000M
0000
M000
0000
000M
0000
1000
0100
0010
0001
0100
0010
1000
0001
,
0100
0010
1000
0010
0100
0001
1000
0100
,
1000
0000
0001
0000
1000
0000
0001
0100
0001
0000
1000
0000
0100
0000
0010
0000
,
0001
1000
0001
0010
0001
1000
0010
0100
,
0001
0000
1000
0000
0001
0000
1000
0001
1000
0000
0000
0100
0000
0000
0000
0010
,
0000
0000
0001
0000
0000
1000
0000
0000
,
0000
0001
0000
0000
0000
0000
0000
0000
0100
0000
0000
0000
0000
0000
0000
0000
,
2222
0000
0000
0000
0000
0000
0000
0000
0000
0000
0000
0000
0000
3333
0000
0000
,
0000
0000
0000
0000
0000
0000
0000
0000
1000
0100
0010
0001
0100
0010
1000
0100
,
0010
0001
0100
0010
1000
0100
0010
0001
,
0001
1000
0010
0100
0001
1000
1000
1000
,
1000
0001
0010
0001
1000
0010
0010
0010
,
0100
0001
1000
0001
1000
0100
1000
0001
0010
0000
0000
000M
0000
M000
0M00
0000
,
0001
1000
0001
0100
0010
1000
0100
0010
,
0001
0000
1000
0000
0010
0000
0100
0000
0001
0000
1000
0000
0001
0000
0100
0010
,
0100
0001
1000
0100
1000
0001
0010
0100
,
1000
0000
0010
0000
1000
0100
1000
0000
0001
0010
0001
0000
1000
0001
1000
0000
,
0010
0100
0001
0010
0100
0010
0001
1000
,
0010
0000
0100
0000
0001
0000
1000
0000
0001
0000
0010
0000
0001
0000
1000
0010
,
1000
0100
1000
0001
0010
0100
0010
0001
,
1000
0000
0000
0000
0000
0000
0001
0000
0000
0000
1000
0000
0010
0000
0000
0000
1000
0000
0001
0000
0000
0000
0100
0000
0000
0000
0004
0000
0010
0003
0100
0000
,
0010
0100
1100
1000
1001
0001
1001
1000
,
1010
0010
0110
0100
0101
0001
1001
0001
,
0011
0010
0110
0100
1100
1000
1001
0001
,
1001
0000
1000
0000
1010
0000
0010
0000
1000
0001
1000
0001
1000
0001
1000
0001
,
1000
0010
0110
0100
0101
0001
1001
1000
,
1100
0100
0110
0010
0011
0001
1001
1000
,
1001
0001
0101
0100
0110
0010
1010
1000
,
1001
0000
1000
0000
1100
0000
0100
0000
0010
0001
0010
0001
0010
0001
0010
0001
,
0010
MM00
00MM
0M0M
,
M0M0
0000
0000
0000
0000
0000
0000
0000
0000
0000
0000
0000
0000
0000
0000
0000
0M0M
0000
0000
0000
0000
0000
0000
0000
0000
0000
0000
0000
0000
0000
0000
0000
0MM0
0000
0000
0000
0000
0000
0000
0000
0000
0000
0000
0000
0000
0000
0000
0000
2220
0000
0000
0000
0000
0000
0000
0000
0000
0000
0000
0000
0000
0000
0000
3330
,
0222
M333
0M0M
M00M
,
MM00
00MM
0M0M
0MM0
,
2222
3333
0MM0
0M0M
,
2022
3M33
M0M0
0MM0
,
2202
33M3
M0M0
0M0M
,
1000
0000
1000
0000
0002
0000
0000
0000
0013
0100
0010
0100
0010
0000
0100
0000
,
11MM
MM11
1MM1
M1M1
,
M11M
0000
1M1M
0000
1MM1
0000
1100
1000
,
1MM1
M1M1
M11M
1M1M
,
1001
0000
0001
0000
0010
0001
0010
0000
0001
0100
0001
0000
1000
0000
1000
0000
,
1M1M
M11M
M1M1
MM11
,
11MM
0000
M11M
0000
MM11
0000
0110
0100
,
11MM
1MM1
1M1M
M11M
,
1010
0000
1000
0001
1000
0000
0001
0000
1000
0000
1000
0000
0004
0000
0000
0003
,
1000
0100
1000
0001
1000
0001
0010
0001
0010
0100
1000
0001
0100
0001
1000
0010
,
0100
0010
1000
0010
1000
0001
1000
0100
1000
0100
0010
0001
0010
0001
1000
0001
,
0010
0100
0010
0001
1000
0010
0100
0001
1000
0001
0100
0010
1000
0100
1000
0100
,
1000
0001
1000
0001
1000
0100
1000
0001
0010
0001
1000
0010
0100
0001
1000
0001
,
0100
0101
1010
0110
,
0101
0000
0011
0000
1100
0000
1001
0001
,
0011
0110
1001
1100
,
10M1
0000
0000
0000
00M0
0000
0000
0000
00M0
0000
0000
0000
01M1
0000
0000
0000
00M0
0000
0000
0000
00M0
0000
0000
0000
11M0
0000
00M0
0000
00M0
0000
10M0
0000
00M0
0001
00M0
0000
10M0
0000
00M0
0000
00M0
0000
00M1
0000
00M0
0000
00M0
0000
,
11M0
MM11
M1M1
M11M
,
1M1M
0000
1MM1
0000
11MM
0000
M11M
0010
,
MM11
11MM
1MM1
M1M1
,
M11M
0000
0010
1000
0010
0000
1000
0000
0004
0000
0013
0000
MMMM
0000
0000
0000
,
0001
1000
0001
0100
0001
1000
0100
1000
0001
1000
0001
0010
0001
0010
0100
1000
,
0001
0010
0001
1000
0100
1000
0100
0010
0100
1000
0001
1000
0001
0100
0010
1000
,
0010
0100
0010
1000
0001
0100
0001
1000
0010
1000
0001
0010
0001
1000
0010
0100
,
0001
1000
0100
1000
0100
0010
0001
1000
0010
0100
0001
1000
0100
1000
0001
0010
,
0100
1000
0100
1000
0001
0010
0001
0010
0100
0010
0100
0010
0001
1000
0001
0100
,
0001
1000
0001
1000
0010
1000
0010
0100
0001
1000
0001
0010
0100
1000
0001
1000
,
0010
1000
0001
0010
0001
1000
0001
1000
0100
1000
0001
1000
0001
0100
0001
1000
,
0001
0010
0100
0010
0001
0100
0010
1000
0100
0010
0001
0100
0010
1000
0100
0010
,
0001
MM00
0M0M
M00M
,
1000
0001
1000
0001
0100
0010
1000
0004
,
2003
0000
3000
0000
,
0001
0000
0000
0000
1000
0000
0000
0000
0001
0000
0010
0000
0001
0000
0000
0000
1000
0000
0000
0000
0010
0000
0000
0000
4000
0000
0001
3000
0100
0000
0001
0000
,
0100
M00M
00MM
MM00
,
0001
0000
0010
0000
0001
0000
1000
0000
0004
0010
0000
0013
040M
1000
0000
1300
,
0M02
0000
0000
0000
1003
0100
1000
0001
1000
0001
0100
0001
1000
0010
0100
0001
,
1000
0000
0000
1000
0000
0000
0002
0000
0000
0000
0000
0000
4003
0400
0000
0000
0000
0000
0000
0000
0000
0000
3000
0300
,
00M0
00M0
00M0
00M0
00M0
00M0
00M0
00M0
00M0
00M0
00MM
000M
000M
000M
000M
000M
,
000M
000M
00M0
0M00
M000
000M
00M0
0M00
M000
0M00
00M0
000M
M000
0M00
00M0
000M
,
00M0
0M00
00M0
000M
00M0
0M00
0M00
0M00
0M00
0M00
0M00
0M00
0M00
0M00
0M00
0M00
,
0M00
0M00
0M00
0M00
2222
0000
0000
0000
0000
0000
0000
0000
0000
0000
3333
0000
;
