#TITLE:Star Field;
#SUBTITLE:;
#ARTIST:Sada;
#TITLETRANSLIT:;
#SUBTITLETRANSLIT:;
#ARTISTTRANSLIT:;
#CREDIT:;
#BANNER:Star Field.jpg;
#BACKGROUND:star field-bg.jpg;
#LYRICSPATH:;
#CDTITLE:blubear.jpg;
#MUSIC:Star Field.mp3;
#OFFSET:-0.602;
#SAMPLESTART:10.880;
#SAMPLELENGTH:12.000;
#SELECTABLE:YES;
#BPMS:0.000=140.000,24.000=70.000,40.000=35.000,41.000=140.000,169.000=70.000,171.000=140.000;
#STOPS:;
#BGCHANGES:;
// cache tags:
#FIRSTBEAT:7.500;
#LASTBEAT:238.000;
#SONGFILENAME:Songs/other/Star Field/Star Field.sm;
#HASMUSIC:1;
#HASBANNER:1;
#MUSICLENGTH:114.293;
// end cache tags

//---------------dance-single - ----------------
#NOTES:
     dance-single:
     :
     Hard:
     9:
     0.480,0.521,0.201,0.105,0.315,349.000,23.000,12.000,0.000,0.000:
0000
0000
0000
0000
,
0000
0000
0000
0000
0000
0000
0000
0001
,
1000
0000
0100
0000
0000
0100
0000
1000
0000
0010
0000
0010
1000
0000
0001
0000
,
0010
0000
0100
0000
0000
1000
0000
0100
0000
1000
0000
1000
0010
0000
0100
0000
,
0010
0000
1000
0000
0000
0100
0000
1000
0000
0010
0000
0010
1000
0000
0001
0000
,
0010
0000
0010
0000
0000
0001
0000
1000
0000
0000
0000
0000
1001
0000
0000
0000
,
0020
0000
0000
0000
0000
0030
0100
1000
,
0010
0000
0100
0001
0000
0001
0010
0000
0000
0000
0000
0000
0000
0000
0100
0000
,
2000
0000
0000
0000
0000
0000
3010
0100
,
0001
0000
0010
0001
0000
0100
0001
0000
1000
0000
0000
1000
0000
0000
0100
0000
,
1001
0000
1001
0000
0100
0000
0001
1000
,
0100
0000
0010
0000
0100
1000
0000
1000
,
0010
0100
0001
0000
0001
0010
0000
1000
,
0010
0001
0101
1000
,
0010
0000
1010
0000
0100
0001
0010
0000
,
0010
0000
0100
1000
0001
0000
0100
0001
,
0010
0000
0011
0000
1000
0100
0000
0010
,
0001
0000
1000
0000
0000
0010
1000
0000
,
0001
0000
0000
0000
1001
0000
0100
0000
0001
1000
0001
0010
0000
0000
0000
0000
,
1100
0000
0010
0100
0001
0000
0010
0100
,
0001
0010
0011
0000
0100
1000
0000
0010
,
1001
0000
0100
0001
0010
0000
0100
0000
,
1100
0000
0000
0000
0010
0000
1000
0000
0001
0010
0001
1000
0000
0000
0000
0000
,
1010
0000
0100
0000
0001
0010
0100
0000
,
1100
0000
0010
0000
0010
1000
0000
0100
,
1000
0000
0001
0000
0100
0001
0000
0001
,
1000
0000
0000
0000
0100
1000
0000
0001
0000
0000
0100
0000
0001
0000
0000
0001
,
0000
0010
0000
0100
1000
0000
0001
0100
,
0001
0000
1000
0000
0100
1000
0000
0010
0000
0000
0100
0000
0010
0000
0000
0010
,
0000
1000
0000
0100
1000
0000
0010
1000
,
0001
0000
0010
0000
0001
0100
0000
0001
0000
0000
0010
0000
0001
0000
0000
0001
,
0000
1000
0000
0010
1010
0000
0001
0010
,
0011
0000
0000
0000
0010
0100
0000
0010
0000
0000
0100
0000
1000
0000
0000
1000
,
0000
0010
0000
0100
0001
0000
0001
0100
,
0001
0000
0010
0000
0100
0010
0000
0001
0000
0000
0100
0000
0001
0000
0000
0001
,
0000
1000
0000
0100
1100
0000
0001
0010
,
0011
0000
0000
0000
0100
1000
0000
0001
0000
0000
1000
0000
0100
0000
0000
0100
,
0000
0000
0010
0000
0100
1000
0000
0001
0000
0000
1000
0000
0100
0000
0000
0100
,
0000
0000
0010
0000
0100
1000
0000
0001
0000
0000
1000
0000
0100
1000
0000
0001
,
0000
0000
1000
0000
0100
1000
0000
0001
0000
0000
1000
0000
0100
1000
0000
0001
,
0000
0000
1000
0000
0001
0000
0000
0001
0100
0000
0000
0001
0100
0000
0000
0001
,
0100
0000
0000
0001
1000
0000
0100
0000
0010
0100
0010
0100
0010
0100
0010
0100
,
0010
0100
0010
0100
0010
0000
0000
0000
0000
0000
0000
0000
1001
0000
0000
0000
,
0100
0000
0001
0100
0001
0000
0010
0000
,
0011
0000
1000
0100
1000
0000
0020
0030
,
0010
0200
0300
0100
0002
0000
0000
0000
,
1003
0000
0100
1000
0001
0000
1001
0100
,
0001
1000
0100
1000
0000
0000
0000
0000
1010
0000
0000
0000
0100
0000
0001
0000
,
1000
0000
0100
0001
0010
0000
0020
0030
,
0010
0200
0300
0100
2000
0000
3020
0030
,
0010
0000
0200
0000
0000
0000
0300
0000
0001
1000
0001
1000
0010
0000
0000
0000
,
1010
0000
1000
0001
0010
0100
1000
0010
,
0100
0001
0010
0010
0100
0100
1000
0000
,
0000
0000
0001
1000
0001
0000
0000
0000
0100
0000
0001
0000
0000
0000
0001
0000
,
0010
0001
0100
0010
1000
0100
1000
0000
,
0010
1000
0001
0000
0100
0001
0000
0010
,
0001
0000
0010
0000
1000
0000
0000
1000
0000
0000
0010
0000
0001
0000
0000
0100
,
0000
0000
0010
0000
0001
0000
0000
0010
0000
0000
1000
0000
0100
0000
0000
1000
,
0000
0000
0001
0000
0100
0000
0000
0001
0000
0000
0010
0000
2002
0000
0000
0000
,
0000
0000
3003
0000
;
