#TITLE:Seven;
#SUBTITLE:;
#ARTIST:DM Ashura;
#TITLETRANSLIT:;
#SUBTITLETRANSLIT:;
#ARTISTTRANSLIT:;
#CREDIT:;
#BANNER:seven-bn.png;
#BACKGROUND:Seven-bg.png;
#LYRICSPATH:;
#CDTITLE:;
#MUSIC:Seven.mp3;
#OFFSET:-0.040;
#SAMPLESTART:42.020;
#SAMPLELENGTH:12.000;
#SELECTABLE:YES;
#BPMS:0.000=140.000;
#STOPS:;
#BGCHANGES:;
// cache tags:
#FIRSTBEAT:15.000;
#LASTBEAT:210.500;
#SONGFILENAME:Songs/toune 4/Seven/Seven.sm;
#HASMUSIC:1;
#HASBANNER:1;
#MUSICLENGTH:92.324;
// end cache tags

//---------------dance-single - ----------------
#NOTES:
     dance-single:
     :
     Challenge:
     10:
     0.667,0.941,0.607,0.292,0.498,348.000,56.000,27.000,12.000,1.000:
0000
0000
0000
0000
,
0000
0000
0000
0000
,
0000
0000
0000
0000
,
0000
0000
0000
0000
0000
0000
0000
0000
0000
0000
0000
0000
0000
0000
0000
0000
0000
0000
0000
0000
0000
0000
0000
0000
1002
0000
0000
M000
0000
0000
0000
0000
,
0000
0000
0000
0000
0000
0000
0000
0000
1000
0000
0000
M000
0000
0000
0000
0000
0000
0000
0000
0000
0100
0000
0000
0M00
0000
0000
0000
0000
0000
0000
0000
0000
,
0000
0000
0000
0000
0100
0000
0000
0M00
0000
0000
0000
0000
0000
0000
0000
0000
0010
0000
0000
00M0
0000
0000
0000
0000
0000
0000
0000
0000
0000
0000
0000
0000
,
0010
0000
0000
00M0
0000
0000
0000
0000
0000
0000
0000
0000
1000
0000
0000
M000
0000
0000
0000
0000
0000
0000
0000
0000
0000
0000
0000
0000
1003
0000
0000
M000
,
0100
0010
1000
0010
0100
0000
0001
0000
0010
0100
0001
0100
0010
0000
1000
0000
,
0010
0100
0010
0100
0010
0000
1000
0000
0001
1000
0001
1000
0001
0100
0001
0100
,
0010
0100
0010
0100
0010
1000
0010
1000
0001
1000
0010
0100
0001
1000
0010
0100
,
0001
1000
0010
0100
0001
1000
0010
0100
0001
0000
0101
0000
0100
0000
0101
0000
,
0001
0011
0010
0011
0000
1100
0000
0011
,
0000
1000
0100
1010
1000
1010
0010
0110
,
0100
0110
0000
0011
0000
0110
0000
1000
,
0100
0011
0001
1001
1000
1001
0001
0011
,
0000
0101
0000
1010
0000
1000
0010
0110
,
0010
0110
0100
0101
0001
0101
0000
0110
,
0000
1100
0000
1000
0000
0200
0000
0010
,
0000
0001
0310
0M00
0200
0000
0010
0000
,
1000
0310
0M00
0020
0000
0001
0000
0100
,
0031
00M0
0020
0000
1000
0000
0100
1030
,
00M0
0000
1001
0000
0000
0000
0110
0000
0000
0000
1000
0010
0100
0000
0000
0000
,
0011
0000
0000
0000
1010
0000
0000
0000
0100
0010
0001
0000
0000
0000
1100
0000
,
0000
0000
0101
0000
0000
0000
0001
0010
0100
0000
2002
0000
0000
0000
0000
0000
,
0000
3003
1001
0000
,
0000
0000
0100
0110
0000
0011
0000
0101
,
0000
1000
0010
0000
1100
0000
0110
0000
,
0010
0000
0001
0000
0000
0000
0000
0000
0000
0000
0000
0000
0000
0000
1000
0010
,
2020
0000
3030
0220
0000
0330
0022
0000
,
0033
0220
0000
0330
1000
0100
0010
0001
,
0011
0000
1010
0000
1000
0020
0000
0000
,
0000
0000
0000
0030
1000
0100
0001
0100
,
1000
0100
0001
0100
0000
1000
0010
0001
,
0010
1000
0010
0000
1000
0010
0100
0001
,
0010
0100
0000
1000
0010
0100
0010
1000
,
0010
0000
0100
0001
0010
0001
0100
0010
,
0000
0010
0100
0010
0001
0010
0100
0000
,
0001
1000
0010
0100
0001
1000
0010
0100
,
0001
0000
0010
0000
0100
0000
1000
0000
0001
1000
0010
0100
0001
1000
0010
0100
,
0001
0010
0100
1000
0001
0010
0100
1000
0010
0100
0010
0100
0001
1000
0001
1000
,
0010
1000
0010
1000
0001
1000
0010
0100
0001
1000
0010
0100
1000
0100
0010
0001
,
1000
0100
0010
0001
1000
0001
1000
0001
0100
0010
0100
0010
1000
0100
1000
0100
,
0010
0001
0010
0001
1000
0001
1000
0001
0100
0010
0100
0001
1000
0010
1000
0001
,
0100
0010
1000
0001
0100
0010
1000
0001
0100
0010
1000
0001
0100
0001
0100
0001
,
1000
0010
1000
0010
0100
0010
0100
0010
1000
0100
1000
0100
0010
0001
0010
0001
,
1000
0010
0100
0001
1000
0010
0100
0001
1001
0000
0000
0000
0000
0000
0000
0000
,
0000
0000
0000
0000
0100
0010
0100
0000
0000
0000
0011
0000
0000
0000
0101
0000
,
0000
1000
0010
0000
0110
0000
1100
0000
,
0001
0000
0010
0000
0000
0000
0000
0000
0000
0000
0000
0000
0000
0000
0100
0001
,
0202
0000
0303
2020
0000
3030
0022
0000
,
0033
0220
0000
0330
0010
0100
0010
0001
,
0010
0000
1100
0000
1001
0202
0000
0000
,
0000
0020
0000
0000
0000
0333
0000
0000
;

//---------------dance-single - ----------------
#NOTES:
     dance-single:
     :
     Hard:
     7:
     0.460,0.483,0.325,0.119,0.000,256.000,30.000,11.000,0.000,0.000:
0000
0000
0000
0000
,
0000
0000
0000
0000
,
0000
0000
0000
0000
,
0000
0000
0000
1001
,
0000
0000
0101
0000
0000
1010
0000
0000
,
0000
0101
0000
0000
0011
0000
0000
0000
,
0110
0000
0000
1001
0000
0000
0000
0110
,
0100
0001
0100
0010
0100
0001
0100
0010
,
1000
0100
1000
0001
1000
0100
1000
0001
,
0010
0100
1000
0100
0010
0002
0000
0000
,
0000
0000
0000
0000
1003
0010
0100
0001
,
0010
0100
1000
0010
0000
0101
0000
0110
,
0000
0100
0001
0010
0100
0010
0001
1000
,
0010
0100
0000
1001
0000
1010
0000
1000
,
0001
0010
0100
1000
0100
0010
0001
0010
,
0000
1100
0000
0110
0000
1000
0100
0010
,
0100
0001
0100
0010
0100
0001
0000
1001
,
0000
1001
0000
1001
0000
2000
0000
0100
,
0000
0100
3100
0000
0002
0000
0100
0000
,
0100
0103
0000
0020
0000
0100
0000
0100
,
0130
0000
1002
0000
0100
0000
0100
0103
,
0000
0020
0000
1000
0000
0100
0130
0000
,
0020
0000
0100
0000
0001
0031
0000
0020
,
0000
0001
0000
1000
1030
0200
0000
0000
,
0000
0000
0000
0300
1001
0000
0000
0000
,
0000
0000
1000
0100
0000
0011
0000
1001
,
0000
0100
0010
0000
0100
0000
0001
0000
,
0010
0001
0000
0000
0000
0000
0000
0010
,
0100
0000
0000
1000
0010
0000
0100
0010
,
0000
1000
0100
0000
0001
1000
0010
1000
,
0001
0000
0100
0000
0010
2000
0000
0000
,
0000
0000
3000
0000
0100
0010
0100
0010
,
0100
0001
0100
0001
0000
1000
0000
0010
,
0000
0100
0001
0010
0001
0010
0001
0100
,
0001
0100
0000
0010
0000
1000
0000
0100
,
0010
0100
0010
0100
0010
1000
0010
1000
,
0000
0010
0000
0100
0000
0010
1000
0100
,
1000
0100
1000
0001
1000
0001
0000
1001
,
0000
1001
0000
0000
0010
0100
0001
1000
,
0010
0100
0001
1000
0010
0100
0010
1000
,
0010
0100
0001
0010
0100
1000
0001
0010
,
0100
1000
0001
0010
0001
0100
0001
0010
,
0001
1000
0010
0100
0001
1000
0010
0100
,
1000
0100
1000
0010
1000
0100
1000
0100
,
0010
0001
1000
0100
0010
0001
1000
0010
,
0100
0010
1000
0001
0011
0000
0000
0000
,
0000
0000
1000
0100
0000
0110
0000
1001
,
0000
0001
0010
0000
1100
0000
0011
0000
,
1000
0010
0000
0000
0000
0000
0000
0010
,
1000
0000
0000
0010
0001
0000
0010
0100
,
0000
0001
1000
0000
0010
0100
0001
1000
,
1001
0000
1100
0000
0010
0200
0000
0000
,
0000
0000
0300
0000
;

//---------------dance-single - ----------------
#NOTES:
     dance-single:
     :
     Medium:
     5:
     0.325,0.398,0.282,0.043,0.000,180.000,26.000,4.000,0.000,0.000:
0000
0000
0000
0000
,
0000
0000
0000
0000
,
0000
0000
0000
0000
,
0000
0000
0000
1000
,
0000
0000
0001
0000
0000
1000
0000
0000
,
0000
0001
0000
0000
1000
0000
0000
0000
,
0001
0000
0000
1000
0000
0000
0000
0001
,
0100
0101
0100
0101
,
0001
1001
0001
1002
,
0100
0000
0010
0000
0103
0020
0000
0000
,
0000
0000
1030
0001
,
1000
0000
0010
0100
0000
0100
0000
0100
,
0000
0100
0001
0000
0010
0000
0001
0000
,
0010
0001
0000
0001
0000
0001
0000
0001
,
1000
0000
0100
0000
1000
0000
0100
0010
,
0000
0010
0000
0010
0000
0010
1000
0000
,
0001
0000
1000
0000
0001
1000
0000
1000
,
0000
1000
0000
1000
0000
0010
0000
0100
,
0000
0010
0000
0000
0001
0000
0010
0000
,
0001
0000
0000
0010
0000
0100
0000
0010
,
0000
1000
0010
1000
,
0000
0110
0000
1001
0000
0110
0000
0000
,
0011
0000
1100
0000
0011
0000
0000
1010
,
0000
0101
0000
1010
0000
0200
0000
0000
,
0000
0000
0301
0000
,
0000
0001
0010
0100
,
0010
0001
1000
0000
,
1001
0000
0000
0000
0000
0000
0000
0001
,
0010
0000
0000
0100
0000
0000
0010
0000
,
0000
1000
0000
0000
0001
0000
1000
0000
,
1010
0000
0010
0000
0100
0010
0000
0000
,
0000
0000
0001
1000
,
0001
0000
1000
0100
0000
0010
0000
0001
,
0000
1000
0010
0000
1000
0000
0100
0000
,
0010
0100
0000
1001
0000
1001
0000
0010
,
0100
0000
0011
0000
0011
0000
1000
0100
,
0000
0101
0000
1010
0000
0100
0001
0000
,
0110
0000
1001
0000
1000
0100
0000
0011
,
0000
1010
0000
0100
0010
0000
1000
0000
,
0100
1000
0010
0001
,
0100
0001
0010
0100
,
1000
0100
0010
0001
,
1000
0001
0010
0001
,
1000
0010
0100
0001
,
0010
0000
0001
0000
0100
0000
0001
0010
,
0100
1000
0010
0100
0110
0000
0000
0000
,
0000
0000
0010
0100
0000
0001
0000
0010
,
0000
0001
0010
0000
0100
0000
1000
0000
,
0100
0010
0000
0000
0000
0000
0000
0010
,
0010
0000
0000
0001
0000
0000
1000
0000
,
0000
0010
0000
0000
0100
0001
0100
0001
,
0100
0000
0010
0000
1000
0020
0000
0000
,
0000
0000
0030
0000
;

//---------------dance-single - ----------------
#NOTES:
     dance-single:
     :
     Easy:
     3:
     0.218,0.256,0.000,0.054,0.000,136.000,0.000,5.000,0.000,0.000:
0000
0000
0000
0000
,
0000
0000
0000
0000
,
0000
0000
0000
0000
,
0000
0000
0000
1000
,
0000
0010
0000
0000
,
0000
0000
0100
0000
,
0001
0000
0000
0000
,
0010
1000
0010
0100
,
0010
1000
0010
0100
,
0010
0001
0010
0100
,
0010
0001
0010
1000
,
0001
1000
0000
0000
,
0000
0100
0001
0010
,
0001
0000
0000
0000
,
0010
1000
0100
1000
,
0000
0000
0000
0100
,
0010
1000
0001
2000
,
0000
0000
3000
0000
0000
0010
0000
0001
,
0000
0010
0000
0000
0100
0000
0100
0000
,
0100
0000
0000
0010
0000
1000
0000
0010
,
0000
0100
0100
0100
,
0000
0001
0000
1000
0000
0001
0000
0000
,
0100
0000
0100
0000
0100
0000
0000
0010
,
0000
0001
0000
0100
0000
0000
0020
0000
,
0000
0000
1030
0000
,
0000
1000
0001
0100
,
0010
1000
0001
0010
,
0001
0000
0000
0000
,
1000
0000
0000
0001
0000
0000
1000
0000
,
0000
0001
0000
0000
1000
0000
0010
0000
,
0100
0010
1000
0000
,
0000
0000
1000
0010
,
1000
0010
0000
0000
,
0000
0001
0100
0001
,
0100
0000
0000
0000
,
0010
1000
0100
0001
,
0000
0000
0000
0100
,
0001
0010
1000
0000
,
0000
0000
0010
1000
,
0100
1000
0010
0001
,
0100
0001
0010
0100
,
1000
0100
0010
0001
,
0010
1000
0010
0001
,
0100
1000
0100
0001
,
0010
1000
0100
0002
,
0000
0000
0103
0000
,
0000
0010
1000
0010
,
0100
0010
0001
1000
,
0010
0000
0000
0000
,
1000
0000
0000
0010
0000
0000
0100
0000
,
0000
0001
0000
0000
1000
0000
0100
0000
,
0010
0000
0001
0000
2000
0002
0000
0000
,
0000
0000
3003
0000
;

//---------------dance-single - ----------------
#NOTES:
     dance-single:
     :
     Beginner:
     1:
     0.084,0.142,0.000,0.000,0.000,54.000,0.000,0.000,0.000,0.000:
0000
0000
0000
0000
,
0000
0000
0000
0000
,
0000
0000
0000
0000
,
0000
0000
0000
0100
,
0000
0100
0000
0000
,
0000
0000
0010
0000
,
0010
0000
0000
0000
,
1000
0000
0000
0000
,
0001
0000
0000
0000
,
1000
0000
0000
0001
,
0000
0000
0010
0010
,
0010
0000
0000
0000
,
0000
1000
1000
1000
,
0000
0000
0000
0000
,
0001
0001
0001
0000
,
0000
0000
0000
0100
,
0100
0100
0000
0000
,
0000
0000
0000
0000
,
0000
0010
0010
0000
,
0000
0000
0000
0000
,
0001
0001
0000
0000
,
0000
0000
0000
0100
,
0100
0000
0000
0000
,
0000
0000
0000
1000
,
0000
0000
0001
0000
,
0000
0010
0000
0000
,
0000
0000
0100
0000
,
0000
0000
0000
0000
,
0010
0000
0000
0000
,
0000
0000
0000
0001
,
0000
0000
0000
0000
,
0000
0000
0100
0100
,
0100
0000
0000
0000
,
0000
0001
0001
0001
,
0000
0000
0000
0000
,
0010
0010
0010
0000
,
0000
0000
0000
1000
,
1000
1000
0000
0000
,
0000
0000
0010
0000
,
0000
0000
0000
0000
,
0000
0001
0000
0000
,
0000
0000
0000
0000
,
0010
0000
0000
0000
,
0000
0000
0000
1000
,
0000
0000
0000
0000
,
0000
0000
0001
0000
,
0000
0100
0000
0000
,
0000
0000
0010
0000
,
0000
0000
0000
0000
,
0100
0000
0000
0000
,
0000
0000
0000
0000
,
0000
0000
0010
0000
,
0000
0000
0100
0000
;
