#TITLE:Cry My Name;
#SUBTITLE:Ziddy;
#ARTIST:Bloodbath;
#TITLETRANSLIT:;
#SUBTITLETRANSLIT:;
#ARTISTTRANSLIT:;
#CREDIT:;
#BANNER:cry my name-bn.jpg;
#BACKGROUND:cry my name-bg.jpg;
#LYRICSPATH:;
#CDTITLE:;
#MUSIC:Bloodbath - Cry My Name.mp3;
#OFFSET:0.000;
#SAMPLESTART:91.400;
#SAMPLELENGTH:30.000;
#SELECTABLE:YES;
#BPMS:0.000=100.000,52.417=201.001,125.000=100.000,173.000=200.001,203.000=100.001,372.000=200.001,452.000=50.001,455.875=200.002,472.375=50.002,476.125=200.002,492.500=100.002;
#STOPS:93.000=0.060
,118.000=0.020
,455.875=0.120
,471.750=0.020
,476.125=0.060
;
#BGCHANGES:;
// cache tags:
#FIRSTBEAT:4.667;
#LASTBEAT:568.000;
#SONGFILENAME:Songs/toune 3/(Ziddy)Cry My Name/cry my name.sm;
#HASMUSIC:1;
#HASBANNER:1;
#MUSICLENGTH:280.441;
// end cache tags

//---------------dance-single - w00t----------------
#NOTES:
     dance-single:
     w00t:
     Challenge:
     11:
     1.000,1.000,1.000,0.446,1.000,1472.000,460.000,125.000,0.000,34.000:
0000
0000
0000
0000
,
0000
0000
0000
0000
0000
0000
0000
0000
2002
0000
0000
0200
3003
0000
0020
0300
0000
0002
0030
0000
0020
0003
0000
0200
0030
0000
2000
0300
0000
0000
0000
0000
0000
0000
0000
0000
0000
0000
0000
0000
0000
0000
0000
0000
0000
0000
0000
0000
,
0000
0000
0000
0000
3000
0000
0000
0000
2002
0000
0000
0020
3003
0000
0200
0030
0000
2000
0300
0000
0200
3000
0000
0020
0300
0000
0002
0030
0000
0000
0000
0000
0000
0000
0000
0000
0000
0000
0000
0000
0000
0000
0003
0000
1010
0000
0000
0000
,
0000
0000
0000
0000
0000
0000
0000
0000
0202
0000
0000
0020
0303
0000
2030
0000
0000
0020
3000
0000
0002
0030
0000
0200
0003
0000
0020
0300
0000
0000
0000
0000
0000
0000
0000
0000
0000
0000
0000
0000
0000
0000
0000
0000
0000
0000
0000
0000
,
0000
0000
0000
0000
0000
0000
0000
0030
2002
0000
0000
0200
3003
0000
0020
0300
0000
0002
0030
0000
0020
0003
0000
0200
0030
0000
2000
0300
0000
0000
0000
0000
0000
0000
0000
0000
3000
0000
0001
0000
0000
0001
0000
0000
0010
0000
0000
0010
,
0000
0000
0001
0000
0000
0001
0000
0000
1001
0000
0000
0100
0000
0000
0010
0000
0000
0001
0000
0000
1010
0000
0000
0100
0000
0000
1000
0000
0000
0100
0000
0000
0011
0000
0000
0100
0000
0000
1000
0000
0000
0010
0000
0000
1100
0000
0000
0001
,
0000
0000
0010
0000
0000
0100
0000
0000
0011
0000
0000
0100
0000
0000
1000
0000
0000
0010
0000
0000
0101
0000
0000
1000
0000
0000
0100
0000
0000
0010
0000
0000
0101
0000
0000
0010
0000
0000
1000
0000
0000
0100
0000
0000
0011
0000
0000
0100
,
0000
0000
1000
0000
0000
0010
0000
0000
1100
0000
0000
0001
0000
0000
1000
0000
0000
0100
0000
0000
1010
0000
0000
1000
0000
0000
0001
0000
0000
0100
0000
0000
0011
0000
0000
1000
0000
0000
0001
0000
0000
0010
0000
0000
0101
0000
0000
1000
,
0000
0000
0010
0000
0000
0001
0000
0000
0101
0000
0000
0010
0000
0000
1000
0000
0000
0001
0000
0000
1100
0000
0000
0010
0000
0000
1000
0000
0000
0001
0000
0000
0101
0000
0000
0010
0000
0000
1000
0000
0000
0001
0000
0000
1100
0000
0000
0010
,
0000
0000
1000
0000
0000
0001
0000
0000
0110
0000
0000
0100
0000
0000
1000
0000
0000
0001
0000
0000
1100
0000
0000
0010
0000
0000
1000
0000
0000
0001
0000
0000
1100
0000
0000
0010
0000
0000
1000
0000
0000
0001
0000
0000
0110
0000
0000
1000
,
0000
0000
0100
0000
0000
0001
0000
0000
0110
0000
0000
1000
0000
0000
0100
0000
0000
0001
0000
0000
0011
0000
0000
1000
0000
0000
0100
0000
0000
0001
0000
0000
1100
0000
0000
0010
0000
0000
0100
0000
0000
0001
0000
0000
1100
0000
0000
0010
,
0000
0000
0100
0000
0000
0001
0000
0000
1010
0000
0000
0100
0000
0000
0001
0000
0000
0010
0000
0000
1100
0000
0000
0010
0000
0000
0100
0000
0000
0001
0000
0000
1010
0000
0000
0100
0000
0000
0001
0000
0000
0010
0000
0000
1100
0000
0000
0010
,
0000
0000
1000
0000
0000
0001
0000
0000
0110
0000
0000
1000
0000
0000
0001
0000
0000
0100
0000
0000
0011
0000
0000
1000
0000
0000
0010
0000
0000
0100
0000
0000
1010
0000
0000
0100
0000
0000
0001
0000
0000
0010
0000
0000
1100
0000
0000
0001
,
0000
0000
1100
0000
0000
1100
0000
0000
0000
0000
0000
0000
0000
0000
0000
0000
0000
0000
0000
0000
0000
0000
0000
0000
0000
0000
0000
0000
0000
0000
0000
0000
0000
0000
0000
0000
0000
0000
0000
0000
0000
0000
0000
0000
0000
0000
0000
0000
,
0000
0000
0000
0000
,
0000
0000
1001
0000
1001
0100
0011
0100
,
1010
0100
0011
0100
1010
0001
0110
1000
,
0101
0010
1100
0010
0101
0010
1100
0001
,
1010
0100
0011
1000
0101
0010
1100
0010
,
1001
0100
0011
0100
1010
0100
0011
1000
,
0101
0010
1100
0010
1001
0100
1010
0001
,
1100
0010
1001
0100
0011
0100
1010
0100
,
0011
0000
0100
0000
1010
0000
0100
0000
0011
0100
1000
0011
0100
1000
0011
0100
,
1000
0011
0100
1000
0022
0000
0000
0033
1001
0000
0100
0000
0011
0000
0100
0000
,
1010
0100
0011
0100
1010
0100
0011
0100
,
1010
0001
0110
1000
0101
0010
1100
0010
,
1001
0100
0011
0100
1010
0100
1010
0001
,
1100
0010
0101
0010
1001
0100
0011
1000
,
0101
0010
1100
0010
1001
0100
0011
1000
,
0101
0010
1100
0001
1010
0100
1001
0010
,
1001
0000
0100
0000
0011
1000
0100
0011
1000
0100
0011
1000
0100
0011
1000
0100
,
0011
0000
1000
0000
0000
0100
0000
0000
0011
0000
0100
0000
1000
0000
0100
0000
0011
0000
0100
0000
1000
0000
0001
0000
1010
0000
0100
0000
0001
0000
0010
0000
,
1100
0010
0100
0001
1010
0100
0001
0010
1100
0010
1000
0001
0110
1000
0001
0010
,
1100
0010
0100
0001
1010
0100
0001
0010
1100
0010
0001
1000
0101
0010
0100
1000
,
0011
0000
0100
0000
1000
0000
0010
0000
1001
0000
0100
0000
0010
0000
0001
0000
1100
0000
0010
0000
0001
0000
0100
0000
0011
1000
0100
0001
0010
1000
0100
0001
,
0010
1000
0100
0001
0010
1000
0100
0001
0110
0000
0000
0000
0110
0000
0000
0000
0110
0000
0000
0000
0110
0000
0000
0000
0110
0000
0000
0000
0110
0000
0000
0000
,
0110
0110
0110
0110
0110
0110
0110
0110
,
0110
0000
0110
0000
1100
0010
0001
0100
1010
0001
0100
0010
1100
0001
0010
1000
,
0101
0010
0100
1000
0011
0100
1000
0010
0101
1000
0010
0100
1001
0010
0100
1000
,
0011
0100
1000
0001
0010
0100
1000
0001
0110
0000
0000
0000
0110
0000
0000
0000
0110
0000
0000
0000
0110
0000
0000
0000
0110
0000
0000
0000
0110
0000
0000
0000
,
0110
0110
0110
0110
0110
0110
0110
0110
,
0110
0000
0110
0000
0110
0001
0010
0100
1010
0100
0001
0010
1100
0010
0001
0100
,
1010
0001
0100
0010
1001
0100
0010
1000
0101
0010
0100
1000
0011
0100
0010
1000
,
0110
0001
0100
0001
0100
0001
0100
0001
0200
0000
0000
0000
0300
0000
0000
0000
1001
0000
0000
0000
0100
0000
0000
0000
0011
0000
0000
0000
0100
0000
0000
0000
,
1010
0100
0011
0100
1010
0100
0011
0100
,
1010
0100
1001
0010
1100
0010
1001
0100
,
1001
0010
0101
0010
1100
0001
1010
0100
,
1001
0010
1100
0001
1010
0100
0011
0100
,
1010
0100
0011
1000
0110
0001
1010
0100
,
0011
0100
1010
1010
0101
0101
1010
1010
,
0202
0000
0000
0000
0000
0000
0000
0000
0000
0303
0000
0000
1001
0000
0000
0000
0000
0000
0000
0000
1001
0000
0000
0000
0000
0000
0000
0000
1001
0000
0000
0000
0000
0000
0000
0000
1001
0000
0000
0000
0000
0000
0000
0000
0000
0000
0000
0000
,
0100
0010
0001
0010
1100
0010
0001
0100
0010
0100
0001
0010
1100
0010
0100
0001
,
1000
0100
0001
1000
0101
0010
0100
1000
0001
0100
0010
1000
0101
0010
0100
1000
,
0100
0001
0010
0100
1001
0010
0100
1000
0001
0100
1000
0010
1100
0001
0010
1000
,
0001
0010
0100
1000
0011
0100
0010
1000
0001
0010
1000
0100
1010
0100
1000
0100
,
0010
0100
1000
0100
0011
0100
1000
0010
0001
0100
0010
1000
0101
0010
0100
1000
,
0001
0010
0100
1000
0101
0010
0100
1000
0100
0001
0010
0100
1010
0100
0001
0010
,
0100
1000
0100
0001
0110
1000
0001
0100
0010
1000
0100
0010
1001
0100
0010
0100
,
0001
0010
0100
0001
1010
0100
0010
0001
0010
0100
1000
0100
0011
0100
1000
0010
,
1001
0000
0000
0000
0000
0000
0000
0000
0000
0000
0000
0000
0000
0000
0000
0000
0000
0000
0000
0000
0000
0000
0000
0000
0000
0000
0000
0000
0000
0000
0000
0000
0000
0000
0000
0000
0100
0000
0000
0000
0010
0001
0010
0000
0000
0100
0000
0000
,
1000
0100
0010
0001
0010
0100
1010
0001
1010
0000
0000
0000
0000
0000
1010
1010
,
0000
0000
0000
0000
,
1001
0100
0010
0001
0010
0100
1001
0100
0001
0100
1000
0010
0101
1000
0010
0001
,
0100
0010
1001
0100
0010
1000
0100
0001
1010
0100
0010
0001
0100
0010
1001
0100
,
0010
0001
0100
0010
2001
0001
0001
0001
0001
0001
3102
0100
0100
0100
0100
0100
,
1103
0010
0001
0010
0100
1000
0011
0100
1000
0010
0100
0001
1010
0100
0001
0010
,
0100
1000
0101
0010
0100
1000
0100
0010
0101
0010
0100
1000
0100
0001
1010
0100
,
0010
0001
0100
0010
0201
0001
0001
0001
0001
0001
1320
1000
1000
1000
1000
1000
,
0131
0010
0100
1000
0100
0010
1001
0100
0010
0001
0010
0100
1001
0010
0100
1000
,
0100
0010
0101
0010
0100
1000
0100
0010
1001
0100
0010
0100
1000
0001
0110
1000
,
0100
0001
0010
0100
2001
0001
0001
0001
0001
0001
3102
0100
0100
0100
0100
0100
,
0113
1000
0001
0010
0100
1000
0011
0100
0010
1000
0001
0100
1010
0100
0001
0010
,
0100
1000
0101
0010
0100
0001
1000
0100
0011
0100
1000
0010
0100
0001
1010
0100
,
0001
0010
1000
0100
1002
1000
1000
1000
1000
1000
0123
0100
0100
0100
0100
0100
,
1130
0100
0001
0010
1000
0100
0011
0100
0010
1000
0001
0100
1010
0100
0001
0010
,
0100
1000
0011
0100
0010
1000
0001
0100
1010
0100
0001
1000
0010
0100
1010
0001
,
0100
0010
1000
0001
0210
0010
0010
0010
0010
0010
1302
1000
1000
1000
1000
1000
,
1103
0010
0100
1000
0100
0010
0001
0010
0100
1000
0100
0010
0100
1000
0100
0010
,
0001
0010
0100
0010
0001
0010
0100
1000
0100
0010
0001
0010
0100
1000
0100
0010
,
0100
1000
0100
0010
0001
0010
0100
1000
0100
0010
0001
0010
0100
1000
0100
0010
,
0001
0010
0100
1000
0100
0010
0001
0010
0100
1000
0100
1000
0100
0010
0001
0010
,
0001
0010
0100
0010
0100
1000
0100
0010
0001
0010
0100
1000
0100
0010
0100
0010
,
0001
0010
0100
1000
0100
0010
0100
1000
0100
0010
0001
0010
0100
0010
0001
0010
,
0100
0000
0000
0000
,
0000
0000
0000
0000
,
2002
0000
0000
0020
3003
0000
0200
0030
0000
2000
0300
0000
0200
3000
0000
0020
0300
0000
0002
0030
0000
0000
0000
0000
0000
0000
0000
0000
0000
0000
0000
0000
0000
0000
0000
0000
0000
0000
0000
0000
0000
0000
0000
0000
0000
0000
0003
0000
,
2002
0000
0000
3023
0000
0000
0230
0000
0000
2300
0000
0000
3200
0000
0000
0320
0000
0000
0032
0000
0000
0000
0000
0000
0000
0000
0000
0000
0000
0000
0000
0000
0000
0000
0000
0000
1010
0000
0000
0000
0000
0000
0000
0000
0003
0000
0000
0000
,
0202
0323
0230
2300
3002
0023
0230
0000
0000
0000
0000
0000
0000
0000
0000
0000
,
0322
0233
2300
3020
0230
0302
2003
0000
0000
0000
0000
3200
2300
0000
0000
0000
,
3022
0233
0302
0023
2030
3200
0320
0000
0000
0000
0000
0000
0000
0000
0000
0000
,
0232
0323
0230
2300
3002
0023
0032
0000
0000
0000
0000
0000
1103
0000
0000
0000
,
0220
0332
0023
2030
3200
0320
2030
0000
0000
0000
0000
0000
0000
0000
0000
0000
,
3022
0233
2300
3020
0230
0302
0023
0000
0000
0000
1030
1000
0100
0100
1000
1000
,
0011
0000
1001
0100
0011
0100
1010
0100
,
0011
1000
0011
0100
1010
0100
0011
1000
,
0101
0010
1100
0010
1001
0100
0011
1000
,
0101
0010
1001
0100
0011
1000
0101
0010
,
1100
0001
0110
1000
0101
0010
1100
0010
,
1001
0100
0011
1000
0110
0001
1010
0100
,
1001
0010
1100
0010
0101
0010
1100
0010
,
1001
0000
0100
0000
0011
0100
1000
0011
0100
1000
0011
0100
1000
0011
0100
1000
,
0011
0000
1001
0100
0011
0100
1010
0100
,
0011
1000
0110
0001
1010
0100
1001
0010
,
1100
0010
1001
0100
0011
0100
1010
0100
,
0011
0100
1010
0100
1001
0010
1100
0010
,
1100
0010
0101
0010
1100
0010
0101
0010
,
1001
0100
1010
0100
1001
0010
1100
0001
,
0110
1000
0101
0010
1001
0100
1010
0100
,
0011
0100
1000
0001
1100
0000
0010
0000
0101
0000
0110
0000
1100
0000
0011
0000
,
2200
3300
0001
0110
0001
1100
0010
0101
,
0010
1100
0001
0110
1000
0011
0001
1010
,
0001
1100
0010
0101
0010
1001
0001
1010
,
1000
0101
1000
0101
0001
1100
0010
0101
,
0000
1001
0000
1001
0000
1001
0000
1001
0000
1001
0000
1001
0000
1001
0000
1001
0000
1001
0000
1001
0000
1001
0000
1001
0000
1001
0000
1001
0000
1001
0000
1001
,
0000
0000
0001
1100
0001
0110
1000
0101
,
0010
1100
0001
0110
0001
1010
0100
0011
,
0100
1010
0100
0011
0100
1010
0100
0011
,
1000
0101
0010
1100
0001
1010
0100
0011
,
0000
0000
0000
1001
0000
1001
0000
1001
0000
1001
0000
1001
0000
1001
0000
1001
0000
1001
0000
1001
0000
1001
0000
1001
0000
1001
0000
1001
0000
1001
0000
1001
,
0000
2002
0000
0000
3003
0000
0000
0000
1001
0000
0000
0000
0100
0000
0000
0000
0011
0000
0000
0000
1000
0000
0000
0000
0101
0000
0000
0000
1000
0000
0000
0000
,
0011
0100
1010
0001
1100
0001
0110
0001
,
1010
0001
1001
1001
0011
1001
1001
1001
,
0000
1001
0000
1001
0000
1001
0000
1001
0000
0000
0000
0000
,
0000
0000
1001
0100
0010
0001
1010
0100
0010
0001
1100
0010
0001
0100
1010
0100
,
0010
0001
1010
0100
0001
0010
1100
0010
0100
1000
0101
0010
1000
0001
0110
1000
,
0001
0100
1010
0100
0001
0010
1100
0010
0100
0001
1010
0100
0001
0010
1100
0010
,
0001
1000
0110
0001
0010
0100
1010
0100
0001
0010
1100
0010
0001
0100
1001
0110
,
1001
1001
0110
0001
0010
0100
1001
0010
0100
0001
1010
0100
0010
0001
1010
0100
,
0001
0010
1001
0100
0010
0100
0011
0100
0010
1000
0101
0010
0100
0001
1100
0010
,
0100
0001
1010
0100
0001
0010
1100
0010
0001
0100
0011
0100
1000
0001
1010
0100
,
0010
0001
0110
1000
0100
0010
0101
0010
0100
1000
0011
0100
0010
1000
0101
0010
,
0101
0000
0000
0101
0000
0000
2002
0000
0000
0020
0003
0000
0200
0030
0000
0020
0300
0000
0002
0030
0000
0020
0003
0000
0200
0030
0000
0000
0000
0000
0000
0000
0000
0000
0000
0000
0000
0000
0000
0000
0000
0000
0000
0000
0000
0000
0000
0000
,
0000
0000
0000
0000
,
0000
0000
0000
0000
,
0000
0000
0000
0000
,
0000
0000
0000
0000
,
0000
0000
0000
0000
,
0000
0000
0000
0000
,
0000
0000
0000
0000
,
0000
0000
0000
0000
,
0000
0000
0000
0000
,
0000
0000
0000
0000
,
3300
0000
0000
0000
;
