#TITLE:Yellow Supernova (Upliftcore Version);
#SUBTITLE:EXoduz Violation;
#ARTIST:Sunhiausa;
#TITLETRANSLIT:;
#SUBTITLETRANSLIT:;
#ARTISTTRANSLIT:;
#CREDIT:;
#BANNER:../Banner.png;
#BACKGROUND:../Background.png;
#LYRICSPATH:;
#CDTITLE:;
#MUSIC:Yellow Supernova (Upliftcore).ogg;
#OFFSET:1.141;
#SAMPLESTART:15.355;
#SAMPLELENGTH:12.000;
#SELECTABLE:YES;
#DISPLAYBPM:206.000;
#BPMS:0.000=205.000,60.000=210.000,68.000=206.500,100.000=204.000,102.000=206.000,284.000=210.000,292.000=206.500,324.000=204.000,325.000=206.000;
#STOPS:;
#BGCHANGES:;
// cache tags:
#FIRSTBEAT:4.000;
#LASTBEAT:459.500;
#SONGFILENAME:Songs/EXoduz Violation/Yellow Supernova (Upliftcore)/SM.sm;
#HASMUSIC:1;
#HASBANNER:1;
#MUSICLENGTH:138.517;
// end cache tags

//---------------dance-single - ----------------
#NOTES:
     dance-single:
     :
     Challenge:
     17:
     1.000,1.000,0.079,0.397,1.000,1525.000,11.000,55.000,0.000,0.000:

0000
0000
0000
0000
,
2000
3010
0010
0002
2003
3100
0100
0002
,
2003
3010
0010
0002
0203
0310
0010
0200
,
2300
3010
0010
0002
2003
3100
0100
0002
,
2003
0000
3100
0000
0100
0000
0002
0000
0013
0000
0010
0000
2000
0000
3001
1000
,
0001
0200
0301
0101
0010
2000
3010
0110
,
0100
0002
1003
1001
0001
0020
0031
0011
,
0100
2000
3100
1100
1000
0020
1030
1010
,
0100
0002
0103
0101
0010
2000
3010
1010
,
0100
0001
1000
0010
0100
0001
0010
0100
1000
0100
1000
0010
0100
0001
1000
0001
,
1000
0000
0000
0100
0000
0000
0010
0000
0000
0001
0000
0000
1000
0000
0000
0010
0000
0000
0100
0000
0000
0001
0000
0000
1000
0000
0000
0100
0000
0000
0010
0000
0000
0001
0000
0000
0010
0000
0000
0100
0000
0000
1000
0000
0010
0000
0100
0000
,
0001
1000
0010
0100
0001
0010
0100
1000
0100
1000
0010
0100
0001
1000
0001
1000
,
0010
0000
0000
0100
0000
0000
0001
0000
0000
1000
0000
0000
0010
0000
0000
0100
0000
0000
0001
0000
0000
0010
0000
0000
0001
0000
0000
1000
0000
0000
0010
0000
0000
0100
0000
0000
0001
0000
0000
1000
0000
0000
0010
0000
0100
0000
0001
0000
,
0010
0100
1000
0010
0100
0001
1000
0001
1000
0010
0100
0001
0010
0100
1000
0010
,
0100
0000
0000
0001
0000
0000
1000
0000
0000
0001
0000
0000
1000
0000
0000
0010
0000
0000
0100
0000
0000
0001
0000
0000
0010
0000
0000
0100
0000
0000
1000
0000
0000
0010
0000
0000
0100
0000
0000
0001
0000
0000
1000
0000
0010
0000
0100
0000
,
0001
1000
0010
0100
0001
0010
0100
1000
0001
0010
0100
1000
0010
0100
0001
1000
,
0001
0000
0000
1000
0000
0000
0010
0000
0000
0100
0000
0000
0001
0000
0000
0010
0000
0000
0100
0000
0000
1000
0000
0000
0100
0000
0000
0010
0000
0000
0001
0000
0000
1000
0000
0000
0010
0000
0000
0100
0000
0000
0001
0000
1000
0000
0010
0000
,
0200
0000
0000
0000
0002
0000
0000
0303
,
0010
1000
0010
0100
0001
0010
0001
0010
0100
1000
0010
0100
0001
1000
0010
0100
,
0002
0000
0000
0000
2000
0000
0000
3003
,
0100
1000
0010
0100
0001
1000
0001
1000
0010
0100
0001
0010
0100
1000
0100
0010
,
0002
0000
0000
0000
2000
0000
0000
3003
,
0010
0100
0001
1000
0010
0100
0001
0010
0001
0010
0100
1000
0010
0100
0001
1000
,
0020
0000
0000
0000
0200
0000
0000
0330
,
0001
0010
0100
1000
0100
0010
0001
1000
0010
0100
0001
1000
0001
1000
0100
0010
,
0004
0000
0000
0000
4000
0000
0000
3003
,
0100
1000
0010
0100
0010
0100
0001
1000
0010
0100
0001
0010
0100
1000
0100
0010
,
0002
0000
0000
0000
2000
0000
0000
3003
,
0010
0100
0001
1000
0001
1000
0010
0100
0001
0010
0100
1000
0100
0010
0001
1000
,
0020
0000
0000
0000
0200
0000
0000
0330
,
0001
1000
0001
1000
0010
0100
0001
1000
0100
0010
0001
1000
0010
0100
0001
1000
,
0020
0000
0000
0000
2000
0000
0000
3030
,
0100
0010
0001
0010
0100
1000
0010
0100
0001
1000
0100
0010
0001
1000
0010
0100
,
0001
1000
0010
0100
0001
0010
0100
1000
0100
1000
0010
0100
0001
1000
0100
0010
,
0100
0000
0000
1000
0000
0000
0001
0000
0000
0010
0000
0000
0100
0000
0000
0010
0000
0000
0001
0000
0000
1000
0000
0000
0010
0000
0000
0100
0000
0000
0001
0000
0000
1000
0000
0000
0100
0000
0000
0010
0000
0000
0001
0000
1000
0000
0010
0000
,
0100
0001
1000
0010
0100
0001
0010
0100
1000
0001
0010
0100
1000
0010
0100
0001
,
1000
0000
0000
0010
0000
0000
0100
0000
0000
0001
0000
0000
0010
0000
0000
0100
0000
0000
1000
0000
0000
0100
0000
0000
1000
0000
0000
0010
0000
0000
0100
0000
0000
0001
0000
0000
1000
0000
0000
0010
0000
0000
0100
0000
0001
0000
1000
0000
,
0010
0100
1000
0010
0100
0001
1000
0001
1000
0010
0100
0001
0010
0100
1000
0010
,
0100
0000
0000
0001
0000
0000
1000
0000
0000
0010
0000
0000
0100
0000
0000
0001
0000
0000
0010
0000
0000
0100
0000
0000
1000
0000
0000
0100
0000
0000
0010
0000
0000
0001
0000
0000
1000
0000
0000
0100
0000
0000
0010
0000
0001
0000
1000
0000
,
0010
0100
0001
0010
0100
1000
0001
0010
0100
1000
0010
1000
0010
0100
0001
1000
,
0010
0000
0000
0100
0000
0000
0001
0000
0000
0010
0000
0000
0100
0000
0000
1000
0000
0000
0100
0000
0000
0010
0000
0000
0001
0000
0000
1000
0000
0000
0010
0000
0000
0100
0000
0000
0001
0000
0000
1000
0000
0000
0001
0000
1000
0000
0010
0000
,
0100
0001
1000
0010
0100
0001
0010
0100
1000
0100
0010
0001
1000
0010
0100
0001
,
1000
0000
0000
0010
0000
0000
0100
0000
0000
0001
0000
0000
0010
0000
0000
0100
0000
0000
1000
0000
0000
0100
0000
0000
0010
0000
0000
0001
0000
0000
1000
0000
0000
0010
0000
0000
1000
0000
0000
0010
0000
0000
0100
0000
0001
0000
1000
0000
,
0010
0100
0001
1000
0001
1000
0100
0010
0100
1000
0001
0010
0100
0010
0001
1000
,
0010
0000
0000
0100
0000
0000
0001
0000
0000
1000
0000
0000
0001
0000
0000
1000
0000
0000
0100
0000
0000
0010
0000
0000
0001
0000
0000
0100
0000
0000
0010
0000
0000
1000
0000
0000
0001
0000
0000
0100
0000
0000
0010
0000
1000
0000
0001
0000
,
0100
0010
1000
0100
0010
0001
1000
0010
0100
0001
0010
0001
0010
0100
1000
0010
,
0100
0000
0000
0001
0000
0000
1000
0000
0000
0001
0000
0000
1000
0000
0000
0100
0000
0000
0010
0000
0000
0001
0000
0000
0100
0000
0000
0010
0000
0000
1000
0000
0000
0010
0000
0000
1000
0000
0000
0010
0000
0000
0100
0000
0001
0000
1000
0000
,
0010
0100
0001
0010
0100
1000
0001
0010
0100
1000
0010
0100
0010
0100
0001
1000
,
0001
0000
0000
1000
0000
0000
0010
0000
0000
0100
0000
0000
0001
0000
0000
0010
0000
0000
0100
0000
0000
1000
0000
0000
0001
0000
0000
0010
0000
0000
0100
0000
0000
1000
0000
0000
0010
0000
0000
0100
0000
0000
0001
0000
1000
0000
0010
0000
,
0100
0001
1000
0010
0100
0001
0010
0001
0010
0100
1000
0010
0100
0001
1000
0001
,
1000
0000
0010
0000
0100
0000
0001
0000
0010
0000
0100
0000
1000
0000
0010
0000
0100
0000
0001
0000
1000
0000
0001
0000
1000
0000
0010
0000
0100
0000
0001
0010
,
0100
1000
0010
0100
0001
1000
0001
1000
0010
0100
0001
0010
0100
1000
0010
0100
,
0010
0000
0100
0000
0001
0000
1000
0000
0010
0000
1000
0000
0010
0000
0100
0000
0001
0000
0010
0000
0100
0000
1000
0000
0010
0000
0100
0000
0001
0000
1000
0010
,
0100
0001
1000
0010
0100
0001
0010
0001
0010
0100
1000
0010
0100
0001
1000
0001
,
1000
0000
0001
0000
0100
0000
0010
0000
1000
0000
0100
0000
0010
0000
0001
0000
0010
0000
0100
0000
1000
0000
0010
0000
0100
0000
0001
0000
1000
0000
0010
0100
,
0001
1000
0010
0100
0001
0010
0100
1000
0001
0010
0100
1000
0010
0100
0001
1000
,
0001
0000
1000
0000
0010
0000
0100
0000
0001
0000
0010
0000
0100
0000
1000
0000
0001
0000
0010
0000
0100
0000
1000
0000
0010
0000
0100
0000
0001
0000
1000
0010
,
0100
0001
1000
0001
1000
0010
0100
0001
0010
0100
1000
0001
0010
0100
1000
0010
,
0100
0000
0001
0000
1000
0000
0010
0000
0100
0000
0001
0000
0010
0000
0100
0000
1000
0000
0100
0000
0010
0000
0001
0000
1000
0000
0010
0000
0100
0000
0001
1000
,
0010
0100
0001
0010
0100
1000
0001
0010
0100
1000
0010
0100
0010
0100
0001
1000
,
0001
0000
1000
0000
0010
0000
0100
0000
0001
0000
0010
0000
0100
0000
1000
0000
0001
0000
0010
0000
0100
0000
1000
0000
0010
0000
0100
0000
0001
0000
1000
0010
,
0100
0001
1000
0010
0100
0001
0010
0001
0010
0100
1000
0010
0100
0001
1000
0001
,
1000
0000
0100
0000
0010
0000
0001
0000
1000
0000
0010
0000
0100
0000
0001
0000
0010
0000
0100
0000
1000
0000
0010
0000
0100
0000
0001
0000
1000
0000
0001
1000
,
0001
1000
0010
0100
0001
0010
0100
1000
0001
0010
0100
1000
0010
1000
0010
0100
,
0001
0000
1000
0000
0001
0000
1000
0000
0100
0000
0010
0000
0001
0000
0010
0000
0100
0000
1000
0000
0010
0000
0100
0000
0001
0000
1000
0000
0100
0000
1000
0001
,
0010
0100
1000
0001
0010
0100
1000
0010
0100
0001
1000
0001
1000
0001
1000
0010
,
0100
0000
0001
0000
0010
0000
0100
0000
1000
0000
0010
0000
0100
0000
0001
0000
1000
0000
0100
0000
0010
0000
0001
0000
1000
0000
0010
0000
0100
0000
0001
1000
,
0010
0100
0001
0100
0001
1000
0010
1000
0010
0100
0001
0010
0100
1000
0100
0010
,
0001
0000
1000
0000
0010
0000
0100
0000
0001
0000
0010
0000
0001
0000
0010
0000
0100
0000
1000
0000
0010
0000
0100
0000
0001
0000
1000
0000
0001
0000
1000
0001
,
0100
0010
1000
0100
0010
0001
1000
0100
0010
0001
1000
0010
1000
0010
0100
0001
,
0010
0000
0100
0000
1000
0000
0001
0000
0010
0000
0100
0000
1000
0000
0010
0000
0100
0000
0001
0000
1000
0000
0001
0000
1000
0000
0010
0000
0100
0000
0001
0010
,
0100
1000
0010
0100
0001
1000
0001
1000
0010
0100
0001
0010
0100
1000
0010
0100
,
0001
0000
1000
0000
0001
0000
1000
0000
0010
0000
0100
0000
0001
0000
0010
0000
0100
0000
1000
0000
0001
0000
0100
0000
0010
0000
1000
0000
0001
0000
0100
0010
,
2000
0000
0000
0000
0002
0000
0000
3003
,
1000
0010
0100
0001
0010
0100
1000
0100
1000
0010
0100
0001
1000
0010
0100
0010
,
0200
0000
0000
0000
0002
0000
0000
0303
,
1000
0001
1000
0001
0100
0010
1000
0100
0010
0001
1000
0100
0010
0001
1000
0010
,
0200
0000
0000
0000
0002
0000
0000
0303
,
1000
0001
0100
0001
1000
0010
0100
0001
0010
0100
1000
0010
0100
0001
1000
0100
,
0020
0000
0000
0000
0002
0000
0000
0033
,
1000
0001
0010
0100
1000
0001
0100
0001
1000
0010
0100
0001
0010
0100
1000
0010
,
0200
0000
0000
0000
0002
0000
0000
0303
,
1000
0001
0100
0010
1000
0100
0010
0001
1000
0001
1000
0010
0100
0001
0010
0100
,
2000
0000
0000
0000
0002
0000
0000
3003
,
0010
0100
1000
0001
0010
0100
1000
0010
0100
0001
1000
0001
1000
0100
0010
0001
,
2000
0000
0000
0000
0020
0000
0000
3030
,
0100
0001
1000
0010
0100
0001
1000
0001
1000
0010
0100
0001
0010
0100
1000
0001
,
0020
0000
0000
0000
0200
0000
0000
0330
,
1000
0001
0100
0001
1000
0010
0100
0001
0010
0100
1000
0010
0100
0001
1000
0010
,
0100
0001
1000
0001
0100
0001
1000
0010
0100
0001
0010
0100
1000
0100
0010
0001
,
1000
0010
0100
0001
1000
0100
0010
0100
1000
0001
0010
0100
0010
0001
1000
0010
,
0100
0010
1000
0100
0010
0001
0100
0010
0100
0001
0010
0100
1000
0001
0010
0100
,
0010
0100
1000
0010
0100
0001
1000
0100
0010
0001
0100
0010
1000
0010
0100
0001
,
1000
0100
0010
0001
1000
0100
0010
0001
1000
0001
0100
0001
1000
0010
0100
0001
,
0010
0100
1000
0010
0100
0001
1000
0001
1000
0100
0010
0001
1000
0010
0100
0001
,
0010
0100
1000
0001
0010
0100
1000
0010
0100
0001
1000
0001
1000
0100
0010
0001
,
1000
0010
0100
0001
0010
0100
1000
0001
0010
0100
1000
0010
0100
0001
1000
0001
,
1000
0010
0100
0001
0010
0100
1000
0010
0100
0001
1000
0001
1000
0100
0010
0001
,
0010
0100
1000
0010
0100
0001
0100
0001
0010
0100
1000
0010
0100
0001
1000
0100
,
0010
0100
1000
0010
0100
0001
1000
0100
0010
0001
1000
0010
0100
0001
0010
0100
,
1000
0001
0100
0001
1000
0010
0100
0001
0010
0100
1000
0010
0100
0010
1000
0100
,
0010
0100
1000
0010
0100
0001
1000
0100
0010
0001
1000
0001
0100
0001
0010
0100
,
1000
0001
0010
0100
1000
0010
0100
0001
1000
0100
0010
0001
1000
0010
0100
0001
,
1000
0100
0010
0001
1000
0010
0100
0001
0010
0100
1000
0001
1000
0001
0100
0010
,
1000
0001
0100
0001
1000
0001
0100
0010
1000
0100
0010
0100
1000
0001
0010
0100
,
4000
3001
0010
0100
1000
0010
0100
0001
1000
0001
1000
0010
0100
0001
0010
0100
,
1000
0100
0010
0001
1000
0010
0100
0001
1000
0001
1000
0100
0010
0001
1000
0010
,
0100
0001
0010
0100
1000
0001
0010
0100
1000
0010
0100
0001
1000
0001
1000
0010
,
0100
0001
0010
0100
1000
0100
0010
0001
1000
0100
0010
0100
1000
0001
0010
0100
,
0010
0001
1000
0010
0100
0001
1000
0001
1000
0100
0010
0001
0100
0010
1000
0010
,
0100
0001
1000
0100
0010
0001
1000
0010
0100
0001
0010
0001
0100
0001
0100
0010
,
1000
0010
1000
0100
0010
0001
1000
0010
0100
0001
0010
0100
1000
0100
0010
0001
,
1000
0010
0100
0001
1000
0001
1000
0100
0010
0001
1000
0100
0010
0100
2020
0000
,
0000
0000
0000
0000
,
0000
0000
0000
0000
0000
0000
0000
3030
;
