#TITLE:CaptivAte ~CHIKAI~;
#SUBTITLE:IcyWorld;
#ARTIST:DJ YOSHITAKA feat. A/I;
#TITLETRANSLIT:;
#SUBTITLETRANSLIT:;
#ARTISTTRANSLIT:;
#CREDIT:;
#BANNER:CaptivAte ~CHIKAI~.png;
#BACKGROUND:bg.jpg;
#LYRICSPATH:;
#CDTITLE:CDTitle.png;
#MUSIC:CaptivAte ~CHIKAI~.mp3;
#OFFSET:-0.217;
#SAMPLESTART:1.292;
#SAMPLELENGTH:15.000;
#SELECTABLE:YES;
#BPMS:0.000=159.995,1.000=160.005,2.000=159.995,3.000=160.005,4.000=159.995,5.000=160.005,6.000=159.995,7.000=160.005,8.000=159.995,9.000=160.005,10.000=159.995,11.000=160.005,12.000=159.995,13.000=160.005,14.000=159.995,15.000=160.005,16.000=159.995,17.000=160.005,18.000=159.995,19.000=160.005,20.000=159.995,21.000=160.005,22.000=159.995,23.000=160.005,24.000=159.995,25.000=160.005,26.000=159.995,27.000=160.005,28.000=159.995,29.000=160.005,30.000=159.995,31.000=160.005,32.000=159.995,33.000=160.005,34.000=159.995,35.000=160.005,36.000=159.995,37.000=160.005,38.000=159.995,39.000=160.005,40.000=159.995,41.000=160.005,42.000=159.995,43.000=160.005,44.000=159.995,45.000=160.005,46.000=159.995,47.000=160.005,48.000=159.995,49.000=160.005,50.000=159.995,51.000=160.005,52.000=159.995,53.000=160.005,54.000=159.995,55.000=160.005,56.000=159.995,57.000=160.005,58.000=159.995,59.000=160.005,60.000=159.995,61.000=160.005,62.000=159.995,63.000=160.005,64.000=159.995,65.000=160.005,66.000=159.995,67.000=160.005,68.000=159.995,69.000=160.005,70.000=159.995,71.000=160.005,72.000=159.995,73.000=160.005,74.000=159.995,75.000=160.005,76.000=159.995,77.000=160.005,78.000=159.995,79.000=160.005,80.000=159.995,81.000=160.005,82.000=159.995,83.000=160.005,84.000=159.995,85.000=160.005,86.000=159.995,87.000=160.005,88.000=159.995,89.000=160.005,90.000=159.995,91.000=160.005,92.000=159.995,93.000=160.005,94.000=159.995,95.000=160.005,96.000=159.995,97.000=160.005,98.000=159.995,99.000=160.005,100.000=159.995,101.000=160.005,102.000=159.995,103.000=160.005,104.000=159.995,105.000=160.005,106.000=159.995,107.000=160.005,108.000=159.995,109.000=160.005,110.000=159.995,111.000=160.005,112.000=159.995,113.000=160.005,114.000=159.995,115.000=160.005,116.000=159.995,117.000=160.005,118.000=159.995,119.000=160.005,120.000=159.995,121.000=160.005,122.000=159.995,123.000=160.005,124.000=159.995,125.000=160.005,126.000=159.995,127.000=160.005,128.000=159.995,129.000=160.005,130.000=159.995,131.000=160.005,132.000=159.995,133.000=160.005,134.000=159.995,135.000=160.005,136.000=159.995,137.000=160.005,138.000=159.995,139.000=160.005,140.000=159.995,141.000=160.005,142.000=159.995,143.000=160.005,144.000=159.995,145.000=160.005,146.000=159.995,147.000=160.005,148.000=159.995,149.000=160.005,150.000=159.995,151.000=160.005,152.000=159.995,153.000=160.005,154.000=159.995,155.000=160.005,156.000=159.995,157.000=160.005,158.000=159.995,159.000=160.005,160.000=159.995,161.000=160.005,162.000=159.995,163.000=160.005,164.000=159.995,165.000=160.005,166.000=159.995,167.000=160.005,168.000=159.995,169.000=160.005,170.000=159.995,171.000=160.005,172.000=159.995,173.000=160.005,174.000=159.995,175.000=160.005,176.000=159.995,177.000=160.005,178.000=159.995,179.000=160.005,180.000=159.995,181.000=160.005,182.000=159.995,183.000=160.005,184.000=159.995,185.000=160.005,186.000=159.995,187.000=160.005,188.000=159.995,189.000=160.005,190.000=159.995,191.000=160.005,192.000=159.995,193.000=160.005,194.000=159.995,195.000=160.005,196.000=159.995,197.000=160.005,198.000=159.995,199.000=160.005,200.000=159.995,201.000=160.005,202.000=159.995,203.000=160.005,204.000=159.995,205.000=160.005,206.000=159.995,207.000=160.005,208.000=159.995,209.000=160.005,210.000=159.995,211.000=160.005,212.000=159.995,213.000=160.005,214.000=159.995,215.000=160.005,216.000=159.995,217.000=160.005,218.000=159.995,219.000=160.005,220.000=159.995,221.000=160.005,222.000=159.995,223.000=160.005,224.000=159.995,225.000=160.005,226.000=159.995,227.000=160.005,228.000=159.995,229.000=160.005,230.000=159.995,231.000=160.005,232.000=159.995,233.000=160.005,234.000=159.995,235.000=160.005,236.000=159.995,237.000=160.005,238.000=159.995,239.000=160.005,240.000=159.995,241.000=160.005,242.000=159.995,243.000=160.005,244.000=159.995,245.000=160.005,246.000=159.995,247.000=160.005,248.000=159.995,249.000=160.005,250.000=159.995,251.000=160.005,252.000=159.995,253.000=160.005,254.000=159.995,255.000=160.005,256.000=159.995,257.000=160.005,258.000=159.995,259.000=160.005,260.000=159.995,261.000=160.005,262.000=159.995,263.000=160.005,264.000=159.995,265.000=160.005;
#STOPS:;
#BGCHANGES:;
// cache tags:
#FIRSTBEAT:2.000;
#LASTBEAT:263.000;
#SONGFILENAME:Songs/IcyWorld MiniPack/CaptivAte CHIKAI IcyWorld/CaptivAte ~CHIKAI~.sm;
#HASMUSIC:1;
#HASBANNER:1;
#MUSICLENGTH:100.265;
// end cache tags

//---------------dance-single - ----------------
#NOTES:
     dance-single:
     :
     Challenge:
     10:
     1.000,1.000,1.000,0.170,1.000,962.000,436.000,17.000,0.000,68.000:
0000
0000
0000
0000
0000
0000
0000
0000
0000
0000
0000
0000
0000
0000
0000
0000
1000
0100
0010
0001
1000
0100
0010
0001
1100
0000
0010
0000
0001
0000
0100
0000
,
0011
0100
0010
1100
0001
0010
1100
0010
0101
1000
0100
0010
1100
0010
0001
0100
,
0011
0100
0010
1100
0001
0010
1100
0010
0101
1000
0100
0010
1100
0010
0001
0100
,
0011
0100
0010
1100
0001
0010
1100
0010
0101
1000
0100
0010
1100
0010
0001
0100
,
0011
0100
0010
1100
0001
0010
1100
0010
0101
1000
0100
0010
1100
0010
0001
0100
,
0011
0100
0010
1100
0001
0010
1100
0010
0101
1000
0100
0010
1100
0010
0001
0100
,
0011
0100
0010
1100
0001
0010
1100
0010
0101
1000
0100
0010
1100
0010
1001
0100
,
0011
0100
0011
1100
0001
0010
1100
0010
0101
1000
0101
0010
1100
0010
1001
0100
,
0011
0100
0011
1100
0001
0010
1100
0010
0101
1000
0101
0010
1101
0010
1001
0100
,
0011
0100
0011
1100
0011
0100
1010
0001
0110
1000
0101
0010
1101
0010
1001
0100
,
0011
0100
0011
1100
0011
0100
1001
0010
0101
1000
0101
0010
1101
0010
1001
0100
,
0011
0100
0011
1100
0011
0100
1001
0010
0101
1000
0101
0010
1101
0010
1001
0100
,
0011
0100
0011
1100
0011
0100
1001
0010
0101
1000
0101
0010
1101
0010
1001
0100
,
0011
0100
0011
1100
0011
0100
1001
0010
0101
1000
0101
0010
1101
0010
1001
0100
,
0011
0100
0011
1100
0011
0100
1001
0010
0101
1000
0101
0010
1101
0010
1001
0110
,
1001
0000
0100
0000
0011
0000
1100
0000
0011
0000
1100
0000
0011
0000
1000
0000
0101
0000
1010
0000
0101
0000
0010
0000
1001
0100
0010
0001
1000
0100
0010
0001
,
1000
0100
0010
0001
1000
0100
0010
0001
2200
0000
3300
0000
0000
0000
2200
0000
3300
0000
0000
0000
2200
0000
3322
0000
0000
0000
0000
0000
0000
0033
0000
0000
,
2200
0000
0010
0000
0001
3300
1100
0000
0011
0000
1100
0000
0011
0000
1100
0000
0011
0000
0100
0000
1001
0000
0010
0000
0101
0000
1000
0000
0101
0000
0010
0000
,
1101
0010
1001
0100
0011
1100
0011
1100
0011
0100
1001
0010
0101
1010
0101
0010
,
1101
0010
1001
0100
1011
0100
1001
0010
1101
0010
1001
0100
1011
0100
1001
0010
,
1101
0010
1001
0100
1011
0100
1001
0010
1001
0100
1001
0010
1101
0010
1001
0100
,
1011
0100
0011
1000
0111
1000
0110
0001
1110
0001
0110
1000
0111
1000
0110
0001
,
1110
0001
1100
0010
1101
0010
0101
1000
0111
1000
0110
0001
1110
0001
1100
0010
,
1101
0010
0101
1000
0111
1000
0011
0100
1011
0100
1010
0001
1110
0001
1010
0100
,
1011
0100
1010
0001
1110
0001
0110
1000
0110
0001
0110
1000
0111
1000
0100
0010
,
1101
0010
0100
1000
0111
1000
0100
0010
1101
0010
0100
1000
0111
1000
0100
0010
,
1101
0010
0100
1000
0111
1000
0100
0010
1101
0010
0100
1000
0111
1000
0100
0010
,
1101
0010
0100
0001
1110
0001
0010
0100
1011
0100
0010
0001
1110
0001
0010
0100
,
1011
0100
0010
0001
1110
0001
0010
0100
1011
0100
1001
0010
1101
0010
0101
1000
,
0111
1000
0101
0010
1101
0010
0101
1000
0111
1000
0101
0010
1101
0010
0101
1000
,
0111
1000
0101
0010
1101
0010
0101
1000
0111
1000
0101
0010
1101
0010
0100
0010
,
0100
0000
0010
0000
0100
0000
0010
0000
1101
0000
0010
0000
0100
0000
0010
0000
0100
0000
0010
0000
0100
0000
0010
0000
1001
0010
0100
1000
0001
0010
0100
1000
,
0001
0010
0100
1000
0001
0010
0100
1000
0011
0000
0100
0000
0010
0000
0001
0000
0100
0000
1000
0000
0100
0000
0010
0000
1101
0000
0000
0000
0010
0000
0001
0000
,
0110
1000
0101
1010
0101
0000
0110
1000
0100
0000
0101
1000
0011
0000
0100
0010
,
0101
0000
0110
1000
0010
0000
0100
0010
0101
0000
0010
0100
1010
0000
0101
1000
,
0011
0000
1001
0100
0011
0000
0100
0010
0001
0000
0101
1010
0101
0000
0011
1000
,
0101
0000
1010
0100
0001
0000
0011
0100
1000
0000
0100
0001
1010
0000
0101
1000
,
0011
0000
0101
0010
0100
0000
0011
0100
0010
0000
0101
0010
1100
0000
0101
1000
,
0011
0000
0101
0010
0100
0000
0010
0100
0001
0000
0011
1100
0011
0000
1100
0001
,
0110
0000
0011
0100
1001
0000
0100
0010
0001
0000
0010
0001
0110
0000
1010
0001
,
0110
0000
0011
0100
1001
0000
0011
1100
0011
0000
1100
0010
0101
0000
0010
0100
,
1000
0000
0110
0110
0110
0000
0010
0101
0010
0000
1100
0010
0101
0000
1010
0001
,
0110
0000
0110
0110
0110
0000
0100
0011
0100
0000
0101
1000
0011
0000
1100
0001
,
0110
0000
0011
0011
0011
0000
0100
0010
0001
0000
0011
1100
0011
0000
0101
1000
,
0011
0000
0110
0001
1010
0000
0100
1010
0100
0000
1100
0010
0101
0000
1010
0100
,
0011
0000
0110
0110
0110
0000
0001
0110
1000
0000
1010
0100
1001
0000
0101
1000
,
0110
0000
0011
0100
1000
0000
0100
0001
0110
0000
0001
0010
0101
0000
1010
0001
,
0110
0000
0101
1000
0011
0000
0100
0011
0100
0000
0011
0000
0110
0000
1000
0000
,
0100
0000
0010
0000
1001
0000
0000
1001
0000
0000
1001
0110
2002
0000
3003
0000
,
1001
0000
0010
0000
0000
0000
0010
0000
1000
0100
0010
0100
0001
0010
0100
0010
,
1000
0100
0010
0100
0001
0010
0100
0010
1000
0100
0010
0100
1000
0100
0010
0001
,
0010
0100
0010
0100
1000
0010
0100
0010
1000
0100
0010
0001
1000
0100
0010
0100
,
1000
0100
0010
0001
1000
0100
0010
0100
1000
0100
1010
0001
1110
0000
0000
0000
,
1110
0001
0100
0010
1000
0100
0010
0001
0100
0010
0100
1000
0100
0010
0001
0010
,
1001
0110
1001
0100
1010
0101
1010
0100
1001
0110
1001
0100
1010
0101
1010
0101
,
1010
0101
1010
0101
1010
0101
1010
0101
1010
0101
1010
0101
1020
0000
0000
0000
,
0000
0000
0000
0000
1130
0000
0000
0101
0000
0000
0110
0000
1001
0110
1001
0100
,
1011
0100
1001
0110
1001
0010
0100
1000
0100
0010
0001
0010
0101
1000
0101
1010
,
0101
1010
0101
1010
0101
0010
0101
1010
0100
1001
0110
1000
0110
0001
1010
0101
,
1010
0101
1010
0101
1010
0001
0110
1001
0110
1000
0101
1010
0101
0010
1100
0011
,
1100
0011
1100
0010
0101
1000
0110
1001
0110
1001
0110
1000
0011
0100
1001
0110
,
1001
0110
1001
0010
1100
0010
0101
1010
0100
1010
0101
0010
1100
0010
1100
0011
,
1100
0011
1100
0010
0101
0010
0101
1010
0100
1010
0101
0010
1100
0001
0110
1001
,
0110
0000
1001
0000
0110
0000
1000
0000
0001
0010
0100
1000
0001
0010
0100
1000
0001
0010
0100
1000
0001
0010
0100
1000
0011
0100
0010
0100
0010
0100
0010
0100
,
0010
0100
0010
0100
0010
0100
0010
0100
1011
0000
0000
0000
0000
0000
1011
0000
0000
0000
0000
0000
1101
0000
0000
0000
1111
0000
0000
0000
0000
0000
0000
0000
,
2222
0000
0000
0000
0000
0000
0000
0000
0000
0000
0000
0000
0000
0000
0000
0000
0000
0000
0000
3333
0000
0000
0000
0000
0000
0000
0000
0000
0000
0000
0000
0000
;

//---------------dance-double - ----------------
#NOTES:
     dance-double:
     :
     Hard:
     9:
     0.667,0.689,0.299,0.189,0.344,419.000,30.000,19.000,0.000,0.000:
00000000
00000000
00000000
00000000
00000000
00000000
00000000
00000000
00000000
00000000
00000000
00000000
10000000
00000000
00000000
01000000
,
00000000
00000000
00010000
00000000
01000000
00000000
00000000
10000000
00000000
00000000
00100000
00000000
00010000
00000000
00000000
00001000
,
00000000
00000000
00100000
00000000
00001000
00000000
00000000
00010000
00000000
00000000
00000010
00000000
00010000
00000000
00000000
00001000
,
00000000
00000000
00000100
00000000
00000001
00000000
00000000
00000100
00000000
00000000
00001000
00000000
00010000
00000000
00000000
00100000
,
00000000
00000000
00010000
00000000
00001000
00000000
00000000
00000010
00000000
00000000
00001000
00000000
00010000
00000000
00000000
01000000
,
00000000
00000000
10000000
00000000
00100000
00000000
00000000
10000000
00000000
00000000
01000000
00000000
00010000
00000000
00000000
00001000
,
00000000
00000000
00000100
00000000
00000001
00000000
00000000
00000010
00000000
00000000
00000001
00000000
00000100
00000000
00000000
00001000
,
00000000
00000000
00010000
00000000
01000000
00000000
00000000
10000000
00000000
00000000
01000000
00000000
00010000
00000000
00001000
00000000
,
00000100
00000001
00000010
00001000
00010000
00100000
20000000
01000000
,
00000000
31000000
00200000
00010000
00000000
00310000
20000000
00100000
,
00000000
30100000
02000000
00001000
00000000
03001000
00020000
00000100
,
00000000
00030100
00002000
00000010
00000000
00003010
00000100
00000001
,
00000100
00000010
00010000
00001000
00100000
00010000
02000000
00100000
,
00000000
03100000
20000000
01000000
00000000
31000000
00200000
00001000
,
00000000
00301000
00020000
00000010
00000000
00030010
00000100
00000001
,
00000010
00000100
00010000
00001000
01000000
00100000
20000000
00000000
,
00000000
00000000
30000000
00000000
10100000
00000000
00000000
01010000
00000000
00000000
10010000
00000000
01000000
00000000
00000000
00000000
,
01100000
00000000
00100000
00000000
01000000
00000000
00010000
00000000
10000000
00000000
00100000
00000000
01000000
00000000
00000000
00001000
,
00000000
00000000
00010000
00000000
00000100
00000000
00000000
00000010
00000000
00000000
00001000
00000000
00000010
00000000
00000001
00000000
,
00000100
00000000
00000000
00000000
00000010
00000000
00001000
00000000
00000100
00000000
00000000
00010000
00001000
00000000
00000100
00000000
,
00001000
00010000
00000000
01000000
00000000
10000000
00100000
01000000
,
00100000
10000000
00010000
00000000
00100000
00001000
00010000
00000010
,
00000100
00000010
00001000
00000000
00000001
00000000
00000100
00001000
,
00010000
00000000
01000000
00010000
00001000
00000000
00100000
00010000
,
10000000
00010000
01000000
00100000
01000000
00100000
01100000
00000000
,
10100000
00000000
00000000
00000000
11000000
00000000
00000000
00000000
01010000
00000000
00000000
00100000
00010000
00000000
00000000
01000000
,
00000000
00000000
00100000
00000000
00010000
00000000
00000000
00001000
00000000
00000000
00000100
00000000
00000110
00000000
00000000
00000000
,
00000101
00000000
00000000
00000000
00000011
00000000
00000000
00000000
00001010
00000000
00000000
00000100
00001000
00000000
00000010
00000000
,
00010000
00001000
01000000
00010000
10000000
01000000
00100000
00010000
,
00010000
00000000
01000000
00100000
00100000
00000000
00010000
00001000
,
00000100
00001000
00010000
01000000
00010000
00001000
00000010
00000001
,
00000001
00000000
00001000
00000010
00000010
00000000
00000001
00000010
,
00001000
00010000
02000000
00000000
00000000
00000000
13000000
01000000
,
00010000
00100000
00000000
01000000
00000000
10000000
01000000
00010000
,
00001000
00000100
00000000
00000100
00000010
00000000
00000001
00001000
,
00000010
00000000
00000100
00000000
00000100
00000000
00000000
00000000
00001000
00000000
00010000
00001000
00010000
00000000
01000000
00000000
,
10000000
00010000
00000000
01000000
00100000
01000000
00010000
00100000
,
01000000
00010000
00000000
00001000
00000000
00010000
00001000
00000010
,
00000100
00000000
00001000
00000000
00000000
00000000
00000010
00000000
00000000
00000000
00000100
00000001
00000100
00000000
00001000
00000000
,
00010000
00100000
00100000
00000000
10000000
00000000
00010000
01000000
,
00010000
00000000
00100000
00000000
00001000
00000000
00010000
00001000
00010000
00000000
00001000
00000000
00011000
00000000
00000000
00000000
,
00000000
00000000
00000100
00001000
00000100
00000000
00000000
00000010
00000000
00000000
00000001
00000000
00001000
00000000
00000010
00000000
,
00010000
00000000
00001000
00010000
00001000
00000000
00000000
00100000
00000000
00000000
01000000
00000000
10000000
00000000
00000000
00000000
,
00000000
00000000
00100000
01000000
00100000
00000000
00000000
00000000
00000000
00000000
00010000
00001000
00010000
00000000
00000100
00000000
,
00000010
00000000
00000001
00000000
00001000
00000000
00000000
00000100
00000000
00000000
00000010
00000000
00000100
00000000
00010000
00000000
,
00001000
00000000
01000000
00100000
01000000
00000000
00000000
00010000
00000000
00000000
10000000
00000000
01000000
00000000
00100000
00000000
,
00010000
02000000
00000000
00000000
03001000
00000000
00100000
00001000
,
00010000
00000000
00000010
00000000
00000100
00000000
00000000
00001000
00000000
00000000
00010000
00000000
00011000
00000000
00000000
00000000
,
00000000
00000000
00000000
00000000
10100000
00000000
00000000
01010000
00000000
00000000
00101000
00000000
00010000
00000000
00000000
00000000
,
00022000
00000000
00000000
00000000
,
00000000
00000000
00033000
00000000
00000000
00010000
00010000
00000000
,
00001000
00000100
00000001
00000010
,
00000001
00000000
00000100
00000000
00000010
00010000
00010010
00000000
,
01001000
00000000
00000000
00000000
00010000
00000000
00000000
00100000
00000000
00000000
00010000
00000000
01000000
00000000
00000000
00100000
,
00000000
00000000
10000000
00000000
01000000
00000000
00000000
00100000
00000000
00000000
01000000
00000000
10000000
00000000
00100000
00000000
,
00010000
00000000
00001000
00000000
00000010
00000000
00000001
00000000
00000100
00000000
00000010
00000000
00001000
00000000
00000001
00001000
,
00000000
00000001
00001000
00000000
00001001
00000000
00000000
00010010
00000000
00000000
00101000
00000000
00001000
00000000
00100000
00001000
,
00000000
00100000
00001000
00000000
00010000
00000000
00001000
00010000
00000000
00001000
01000000
00000000
00010000
00000000
10000000
00010000
,
00000000
10000000
00010000
00000000
00100000
00000000
00010000
00100000
00000000
00100000
00001000
00000000
00010000
00000000
00000100
00001000
,
00000000
00001000
00000100
00000000
00010000
00000000
00001000
01000000
00000000
01000000
00001000
00000000
00010000
00000000
00001000
00100000
,
00000000
00100000
00001000
00000000
00010000
00000000
00000010
00001000
00000000
00001000
00000001
00000000
00000001
00000000
00000010
00000001
,
00000000
00000001
00000010
00000000
00000010
00000000
00000100
00010000
00000000
00010000
00001000
00000000
01000000
00000000
00010000
10000000
,
00000000
00010000
10000000
00000000
00100000
00000000
10000000
00010000
00000000
10000000
01000000
00000000
00100000
00000000
00001000
00010000
,
00000000
00010000
00001000
00000000
00022000
00000000
00000000
00000000
00000000
00000000
00033000
00000000
00011000
00000000
00000000
00000000
,
00000000
00000000
00000000
00000000
00010100
00000000
00000000
01001000
00000000
00000000
00010100
00000000
00011000
00000000
00000000
00000000
,
00022000
00000000
00000000
00033000
,
00000000
00000000
00000000
00000000
;
