#TITLE:Le Poussin Piou;
#SUBTITLE:;
#ARTIST:DJ Kentai;
#TITLETRANSLIT:;
#SUBTITLETRANSLIT:;
#ARTISTTRANSLIT:;
#CREDIT:Rynker;
#BANNER:le pussy poo bn.png;
#BACKGROUND:le pussy poo bg.png;
#LYRICSPATH:;
#CDTITLE:;
#MUSIC:DJKentai - Le Poussin Piou.ogg;
#OFFSET:0.000;
#SAMPLESTART:46.980;
#SAMPLELENGTH:12.000;
#SELECTABLE:YES;
#BPMS:0.000=250.020;
#STOPS:;
#BGCHANGES:;
// cache tags:
#FIRSTBEAT:16.000;
#LASTBEAT:612.000;
#SONGFILENAME:Songs/SPEEEDCOOOORE 3/Le Poussin Piou - [Rynker]/pussypeu.sm;
#HASMUSIC:1;
#HASBANNER:1;
#MUSICLENGTH:149.080;
// end cache tags

//---------------dance-single - Rynker----------------
#NOTES:
     dance-single:
     Rynker:
     Challenge:
     15:
     1.000,1.000,0.174,0.020,0.973,1108.000,26.000,3.000,6.000,0.000:



0000
0000
0000
0000
,
0000
0000
0000
0000
,
0000
0000
0000
0000
,
0000
0000
0000
0000
,
1001
0000
0001
0100
0000
0001
1000
0000
0000
1100
0000
0000
,
0000
1001
1000
0100
,
0010
0000
0000
0000
0000
0000
0000
0000
0000
0000
0000
0000
0001
0000
0000
0000
0000
0000
0000
0000
0000
0000
0000
0000
0010
0100
0000
0000
0000
0000
0000
0000
0000
0000
0000
0000
0010
0100
0000
0000
0000
0000
0000
0000
0000
0000
0000
0000
,
1000
0001
0100
0010
,
1000
0100
0010
0000
,
0001
0000
0100
0000
0010
0000
1000
0000
0001
0000
1000
0100
1000
0100
1000
0000
,
0100
0010
0001
0100
0010
0100
0001
1000
,
0100
0000
1000
0000
0001
0000
0010
0000
0001
0000
1000
0000
0010
0000
0100
0001
,
0100
0001
1000
0100
0010
0100
1000
0001
,
0100
0000
0010
0000
1000
0000
0010
0000
0100
0000
0001
0000
1000
0001
0000
1000
,
0001
0000
0000
0000
0000
0000
0010
0000
0000
0000
0000
0000
0001
0000
0000
0000
0000
0000
1000
0000
0000
0000
0000
0000
0010
0100
0000
0000
0000
0000
0000
0000
0000
0000
0000
0000
0010
0100
0000
0000
0000
0000
0000
0000
0000
0000
0000
0000
,
0001
1000
0100
0010
0001
0000
1000
0000
,
0010
0000
0000
1001
,
0001
0000
0100
0000
0001
1000
0001
1000
0001
0000
0000
0000
1000
0000
0000
0000
,
0100
0000
0010
0000
0000
0000
0001
0010
,
0100
0000
1000
0000
0001
0000
0100
0001
0100
0001
0100
0000
0010
0000
1000
0000
,
0001
0100
0001
1000
0100
0010
0100
1000
,
0001
0000
0010
0000
0100
0000
1000
0000
0001
0100
0001
1000
0001
0000
1000
0000
,
0100
0010
0100
1000
0001
1000
0010
0100
,
0001
0000
1000
0000
0100
0000
0010
0000
0001
1000
0400
0000
0310
0000
0001
0000
,
0100
0000
0010
0000
1000
0000
0100
0000
0010
0000
0100
0000
1000
0001
0100
0010
,
0100
0000
0001
0000
0001
1000
0000
0001
,
0100
0000
0010
0100
0001
1000
0001
0000
0000
0000
0000
0000
0000
0000
0000
0000
,
1000
0000
0001
0000
0001
0100
0000
0010
,
1000
0000
0001
0010
0100
1000
0100
0000
0000
0000
0000
0000
0000
0000
1000
0100
,
0010
0001
0001
0100
0010
0100
0001
0010
,
0100
1000
0100
0010
0001
1000
0001
0100
,
0010
0100
0001
1000
0100
1000
0001
0100
,
0010
1000
0001
1000
0001
1000
0100
0000
0010
0000
0001
0000
1000
0000
0001
0000
,
0100
0000
0001
0100
0001
0100
0001
1000
0010
0100
0001
1000
0001
1000
0100
0010
,
0001
0010
0100
1000
0004
0000
1003
0000
0000
0000
0000
0000
1001
0000
0000
0000
,
0001
0000
1000
0000
1000
0100
0010
0001
,
1000
0000
0004
0003
0000
0000
0001
0000
0100
0000
0000
0000
0020
0000
0030
0000
,
1000
0000
0100
0000
4000
3000
0100
0000
0010
0000
0001
0100
0001
0100
0001
0000
,
1000
0000
0000
0000
0001
0000
0000
0000
0000
0000
0000
0000
0000
0000
0000
0000
0000
0000
2000
0000
0000
3000
0000
0000
,
0001
0100
0001
1000
0010
1000
0001
0000
0000
0000
0000
0000
0000
0000
0000
0000
,
1000
0000
0100
0000
0010
0100
0000
0100
,
1000
0000
0001
0100
0001
0100
0001
0000
0000
0000
0000
0000
0000
0000
1000
0100
,
0010
0001
1000
0001
0100
0010
0100
0001
,
0010
0100
1000
0100
0010
0001
1000
0001
,
0100
0010
0100
0001
1000
0100
0010
0100
,
1000
0001
1000
0010
0100
0001
0100
0000
0001
0000
1000
0000
0100
0000
0010
0000
,
0001
0000
1000
0001
0100
0010
1000
0001
1000
0001
0010
0100
1000
0100
0010
0001
,
1000
0001
1000
0010
4000
3000
0001
0000
0100
0000
0000
0000
0000
0000
0000
0000
,
0001
1100
1100
0000
,
1000
0000
0101
0000
,
0001
0000
1100
0000
1100
0000
0000
1000
,
0000
0000
0101
0000
,
0001
1100
1100
0000
,
1000
0000
0000
0000
0101
0000
0000
0010
,
0000
0100
1000
0000
,
0001
0000
1100
0000
,
0010
1100
1100
0000
,
0001
0000
0010
0100
,
1000
0000
0001
0000
0100
0001
0010
0100
,
0010
0100
1000
0100
1000
0000
0000
0000
0001
0000
0000
0000
0001
0000
0000
0000
,
0000
0000
0000
0000
0100
0010
0100
0010
,
0100
0000
0001
0001
,
0000
0000
1000
0000
,
0100
1000
0001
0010
0001
1000
0001
0100
,
0010
0100
0001
1000
0100
0010
0100
1000
,
0001
0100
0010
1000
0100
0010
0100
1000
,
0001
0100
0010
0100
0001
1000
0001
0000
1000
0000
0001
0000
0010
0000
0100
0000
,
1000
0000
0100
0010
0001
0010
0100
1000
0001
1000
0001
1000
0001
0100
0010
0100
,
0001
1000
0001
0100
0010
1000
0001
0000
0000
0000
0000
0000
1000
0010
0100
0001
,
0100
0010
1000
0001
1000
0010
0100
0001
0100
0010
1000
0001
1000
0001
0100
0010
,
0100
0001
1000
0010
1000
0001
0100
0000
0001
1000
0100
0010
0001
0010
0100
0000
,
1000
0001
1000
0001
0010
0000
0100
0010
0100
0000
1000
0100
1000
0001
0010
0100
,
1000
0001
1000
0001
0010
0100
1000
0000
0000
0000
0000
0000
0100
0000
0010
0000
,
0100
0010
0100
1000
0001
1000
0001
0100
,
0010
0000
0100
0000
0001
0000
1000
0000
0100
0000
0010
0001
1000
0000
0001
0010
,
0100
1000
0001
0100
0010
0100
0001
0010
,
0100
0000
1000
0000
0100
0000
0010
0000
0001
0000
1000
0000
0010
0100
0001
1000
,
0100
0010
0001
0010
0100
1000
0001
0100
0001
0000
0100
0000
0001
0000
1000
0000
,
0100
0010
0001
1000
0100
0010
0001
1000
0010
0000
0100
0000
0001
0000
1000
0000
,
0001
1000
0001
1000
0010
0100
0001
1000
0001
0000
1000
0000
0100
0000
0010
0000
,
0001
0010
0100
1000
0100
0010
0001
1000
0001
0000
1000
0000
0010
0000
0100
0000
,
0001
0100
0010
1000
0001
1000
0010
0000
1000
0000
0100
0000
0010
0000
0001
0000
,
4000
3000
0004
0003
0400
0300
0040
0030
1000
0000
0100
0000
0010
0000
0001
0000
,
0400
0300
0040
0030
4000
3000
0004
0003
0010
0000
0100
0000
1000
0000
0001
0000
,
0400
0300
0040
0030
4000
3000
0004
0003
0040
0030
0400
0300
0040
0030
0004
0003
,
4000
3000
0004
0003
1000
0001
0400
0300
0010
1000
0004
0003
4000
3000
0400
0300
,
4000
3000
0400
0300
4000
3000
0400
0300
0010
0001
0010
0100
1000
0001
1000
0001
,
0100
0010
1000
0001
0010
0000
0000
0000
,
0100
0000
0000
0000
1000
0000
0000
0000
1000
0000
0001
0100
0010
1000
0001
0100
,
0001
0000
1000
0001
,
1000
0000
0100
4000
3004
0403
0301
0000
,
1000
0010
1000
0000
0001
0000
0010
0000
0100
0000
1000
0000
0001
0000
0100
0000
,
0010
0000
0100
0000
0001
0000
1000
0000
0100
0000
0010
0001
1000
0000
0100
0000
,
0010
0001
0100
0010
0100
0001
1000
0010
,
0100
0000
0001
0000
0010
0100
1000
0001
1000
0000
0001
0000
0100
0000
0010
0000
,
0100
0001
0010
0100
1000
0100
0010
0001
,
1000
0000
1000
0000
0001
0100
0010
0100
,
0001
0010
0100
1000
0100
0010
0001
1000
,
0001
0000
0100
0001
1000
0010
0100
0000
0001
0000
1000
0000
0001
0000
0100
0000
,
0001
1000
0010
0100
0001
0100
0001
1000
,
0100
0010
0001
0010
0001
1000
0100
0010
,
0001
0000
1000
0000
0001
0000
0010
0000
0100
1000
0100
0010
0001
1000
0100
1000
,
0001
0100
0010
1000
0001
0100
0010
1000
0001
0100
0001
1000
0001
0100
0010
0100
,
0001
0000
1000
0100
0010
0001
0010
0100
,
1000
0001
0100
0010
0100
0001
1000
0100
,
0010
0000
0001
1000
0001
0000
1000
0100
1000
0000
0001
0000
0010
0000
0100
0000
,
1000
0001
0100
0010
0100
0001
1000
0100
,
0010
0000
0001
0000
1000
0001
0100
0001
1000
0010
0100
0001
1000
0100
0010
0004
,
4000
0000
0000
0000
0000
3003
0000
0000
1001
0000
0000
0000
0000
0000
0000
0000
,
1000
0100
1000
0000
0001
0100
0010
1000
0001
0000
0000
0000
0000
0000
0000
0000
,
1000
0100
0010
0001
4000
0000
3000
0000
1001
0000
0000
0000
0000
0000
0000
0000
,
1000
0100
1000
0001
0010
0001
1000
0100
0010
0001
1000
0001
1000
0100
0010
0001
,
1000
0001
0100
0010
0100
0001
1000
0010
0100
0001
1000
0001
1000
0010
0100
0001
,
4000
3000
0400
0300
0040
0030
0004
0003
4000
3000
0040
0030
0400
0300
0004
0003
,
0040
0030
0400
0300
4000
3000
0040
0030
1000
0000
0001
0000
0010
0000
0100
0000
,
1000
0001
0100
0010
0100
0001
0010
0100
,
1000
0001
0100
0010
1000
0000
0001
0000
,
0010
0100
1000
0001
0100
0010
1000
0001
,
0010
0100
1000
0100
0010
0001
1000
0001
,
0100
0000
0010
0000
0100
0000
0001
1000
0001
0100
0010
0100
0001
1000
0010
0100
,
0001
0100
0010
1000
0010
0100
0001
1000
0100
0010
0100
1000
0001
0010
0001
1000
,
0000
0000
0000
0000
1000
0100
1000
0100
,
0010
0001
1000
0100
0010
0001
0010
0100
1000
0000
0001
0000
0100
0000
0010
0000
,
0100
0001
1000
0010
0100
0001
1000
0001
0100
0000
0010
0000
1000
0000
0001
0000
,
1000
0100
0010
0100
1000
0001
1000
0001
0010
0100
1000
0100
0010
0001
1000
0001
,
0100
0010
0100
0001
1000
0010
0100
0001
1000
0000
0000
0000
0000
0000
0000
0000
,
0001
0000
0101
0000
,
0000
0000
0110
0000
,
0010
0000
0000
0000
0101
0000
0000
1000
,
0010
0100
0001
0000
1000
0000
0000
0000
,
0100
0000
0010
0000
,
0001
0000
1000
0010
,
0100
0001
1000
0100
,
0010
0001
0010
0100
,
1000
0001
0100
0001
,
1000
0100
0010
0001
0010
0001
0100
0010
,
1000
0100
1000
0001
1000
0001
0100
0010
,
1000
0010
0100
0001
0010
0001
0010
0100
,
1000
0000
0001
0000
0100
0010
0100
0001
1000
0010
0100
0001
1000
0100
0010
0001
,
0000
0000
0000
0000
1000
0010
0100
0001
,
0010
0000
0000
0000
0000
0000
0100
0000
0000
0000
0000
0000
1000
0000
0000
0000
0000
0000
0001
0000
0000
0000
0000
0000
0100
0010
0000
0000
0000
0000
0000
0000
0000
0000
0000
0000
0100
0010
0000
0000
0000
0000
0000
0000
0000
0000
0000
0000
,
1000
0001
0100
0001
1000
0000
0001
1000
0001
0000
1000
0000
0100
0000
0010
0000
,
0001
1000
0001
0100
0010
0100
0001
1000
,
0100
0000
0010
0000
0001
0010
0100
0000
1000
0100
0010
0001
1000
0100
0010
0001
,
1000
0000
0001
0000
0100
0000
0010
0000
1000
0010
0100
0000
0001
0100
0010
1000
,
0001
0000
0100
0000
0010
0000
0100
0000
0001
1000
0100
0010
0001
0010
0100
1000
,
0001
0000
1000
0000
0001
0000
0100
0000
0010
1000
0001
0100
0010
0100
0001
1000
,
0001
0000
1000
0000
0100
0000
0010
0000
0001
0010
0100
0000
1000
0001
0100
0001
,
1000
0010
0100
0001
1000
0001
0100
0010
0400
0300
0004
0003
4000
3000
0400
0300
,
0040
0030
0001
0000
0000
0000
0001
0000
2000
0000
0000
0000
0000
0000
0000
0000
,
0000
0000
0000
0000
0000
0000
0000
0000
0000
0000
0000
0000
0000
0000
0000
3000
,
0000
0000
0000
0000
,
MMMM
0000
0000
0000
0000
0000
0000
M000
,
M000
0000
0000
0000
;

//---------------dance-single - Rynker----------------
#NOTES:
     dance-single:
     Rynker:
     Hard:
     12:
     0.864,1.000,0.322,0.020,0.389,765.000,48.000,3.000,6.000,0.000:

0000
0000
0000
0000
,
0000
0000
0000
0000
,
0000
0000
0000
0000
,
0000
0000
0000
0000
,
1001
0000
0001
0100
0000
0001
1000
0000
0000
1100
0000
0000
,
0000
1001
1000
0100
,
0010
0000
0000
0000
0000
0000
0000
0000
0000
0000
0000
0000
0001
0000
0000
0000
0000
0000
0000
0000
0000
0000
0000
0000
0010
0100
0000
0000
0000
0000
0000
0000
0000
0000
0000
0000
0010
0100
0000
0000
0000
0000
0000
0000
0000
0000
0000
0000
,
1000
0001
0100
0010
,
1000
0100
0010
0000
,
0001
0000
0100
0000
0010
0000
1000
0000
0001
0000
1000
0100
1000
0100
1000
0000
,
0100
0010
0001
0100
0010
0100
0001
1000
,
0100
0000
1000
0000
0001
0000
0010
0000
0001
0000
1000
0000
0010
0000
0100
0001
,
0100
0001
1000
0100
0010
0100
1000
0001
,
0100
0000
0010
0000
1000
0000
0010
0000
0100
0000
0001
0000
1000
0001
0000
1000
,
0001
0000
0000
0000
0000
0000
0010
0000
0000
0000
0000
0000
0001
0000
0000
0000
0000
0000
1000
0000
0000
0000
0000
0000
0010
0100
0000
0000
0000
0000
0000
0000
0000
0000
0000
0000
0010
0100
0000
0000
0000
0000
0000
0000
0000
0000
0000
0000
,
0001
1000
0100
0010
0001
0000
1000
0000
,
0010
0000
0000
1001
,
0001
0000
0100
0000
0001
1000
0001
1000
0001
0000
0000
0000
1000
0000
0000
0000
,
0100
0000
0010
0000
0000
0000
0001
0010
,
0100
0000
1000
0000
0001
0000
0100
0001
0100
0001
0100
0000
0010
0000
1000
0000
,
0001
0100
0001
1000
0100
0010
0100
1000
,
0001
0000
0010
0000
0100
0000
1000
0000
0001
0100
0001
1000
0001
0000
1000
0000
,
0100
0010
0100
1000
0001
1000
0010
0100
,
0001
0000
1000
0000
0100
0000
0010
0000
0001
1000
0400
0000
0310
0000
0001
0000
,
0100
0000
0010
0000
1000
0000
0100
0000
0010
0000
0100
0000
1000
0001
0100
0010
,
0100
0000
0001
0000
0001
1000
0000
0001
,
0100
0000
0010
0100
0001
1000
0001
0000
0000
0000
0000
0000
0000
0000
0000
0000
,
1000
0000
0001
0000
0001
0100
0000
0010
,
1000
0000
0001
0010
0100
1000
0100
0000
0000
0000
0000
0000
0000
0000
1000
0100
,
0010
0001
0001
0100
0010
0100
0001
0010
,
0100
1000
0100
0010
0001
1000
0001
0100
,
0010
0100
0001
1000
0100
1000
0001
0100
,
0040
0000
1030
0001
0010
0100
1000
0001
,
0100
0000
0010
0100
0001
4000
0004
0000
0000
0000
0000
0000
0000
0000
0000
0000
,
0000
3003
4000
3001
0000
0000
1001
0000
,
0001
0000
1000
0000
1000
0100
0010
0001
,
1000
0000
0004
0003
0000
0000
0001
0000
0100
0000
0000
0000
0020
0000
0030
0000
,
1000
0000
0100
0000
4000
3000
0100
0000
0010
0000
0001
0100
0001
0100
0001
0000
,
1000
0000
0000
0000
0001
0000
0000
0000
0000
0000
0000
0000
0000
0000
0000
0000
0000
0000
2000
0000
0000
3000
0000
0000
,
0004
0400
0000
0303
0000
0000
0000
0000
,
1000
0000
0100
0000
0010
0100
0000
0100
,
1000
0000
0001
0100
0001
0100
0001
0000
0000
0000
0000
0000
0000
0000
1000
0100
,
0010
0001
1000
0001
0100
0010
0100
0001
,
0010
0100
1000
0100
0010
0001
1000
0001
,
0100
0010
0100
0001
1000
0100
0010
0100
,
4000
0004
0000
3000
1003
0100
0010
0001
,
4000
0040
0000
0000
0000
0000
0000
0000
,
0000
0000
3030
0000
4000
3000
0001
0000
0100
0000
0000
0000
0000
0000
0000
0000
,
0001
1100
1100
0000
,
1000
0000
0101
0000
,
0001
0000
1100
0000
1100
0000
0000
1000
,
0000
0000
0101
0000
,
0001
1100
1100
0000
,
1000
0000
0000
0000
0101
0000
0000
0010
,
0000
0100
1000
0000
,
0001
0000
1100
0000
,
0010
1100
1100
0000
,
0001
0000
0010
0100
,
1000
0000
0001
0000
0100
0001
0010
0100
,
0010
0100
1000
0100
1000
0000
0000
0000
0001
0000
0000
0000
0001
0000
0000
0000
,
0000
0000
0000
0000
0100
0010
0100
0010
,
0100
0000
0001
0001
,
0000
0000
1000
0000
,
0100
1000
0001
0010
0001
1000
0001
0100
,
0010
0100
0001
1000
0100
0010
0100
1000
,
0001
0100
0010
1000
0100
0010
0100
1000
,
0001
0100
0010
0100
0001
1000
0001
0000
1000
0000
0001
0000
0010
0000
0100
0000
,
1000
0004
4000
0000
0000
0000
0000
0000
,
0000
0000
0000
0000
0000
0000
0000
3003
0000
0000
0000
0000
4000
0000
0000
0000
,
0000
3004
0000
0043
,
0430
4300
3004
0403
,
0340
4030
3400
0340
,
0034
0000
4003
0000
3100
0010
0100
0010
,
0100
1000
0001
1000
0010
0100
0001
0010
,
0100
0000
1000
0000
0001
0000
1000
0000
0100
0000
0010
0001
1000
0000
0001
0010
,
0100
1000
0001
0100
0010
0100
0001
0010
,
0100
0000
1000
0000
0100
0000
0010
0000
0001
0000
1000
0000
0010
0100
0001
4000
,
0400
0000
0000
0000
0000
0000
0000
0300
3000
0000
0100
0000
0010
0000
0001
0000
,
4000
0004
0000
3000
1003
0010
0100
0001
,
4000
0004
0000
3000
1003
0001
0010
0100
,
4000
0400
0000
3000
1300
0100
0010
0001
,
4000
0004
0000
3000
1003
0100
0010
0001
,
4000
3000
0004
0003
0400
0300
0040
0030
1000
0000
0100
0000
0010
0000
0001
0000
,
0400
0300
0040
0030
4000
3000
0004
0003
0010
0000
0100
0000
1000
0000
0001
0000
,
0400
0300
0040
0030
4000
3000
0004
0003
0040
0030
0400
0300
0040
0030
0004
0003
,
4000
3000
0004
0003
1000
0001
0400
0300
0010
1000
0004
0003
4000
3000
0400
0300
,
4000
3000
0400
0300
4000
3000
0400
0300
0040
0000
0004
0000
0000
0000
0030
0000
,
0013
0100
1000
0001
0100
0000
0000
0000
,
0001
0000
0000
0000
1000
0000
0000
0000
1000
0000
0001
0100
0010
1000
0001
0100
,
0001
0000
1000
0001
,
1000
0000
0100
4000
3004
0403
0301
0000
,
1000
0010
1000
0000
0001
0000
0010
0000
0100
0000
1000
0000
0001
0000
0100
0000
,
0010
0000
0100
0000
0001
0000
1000
0000
0100
0000
0010
0001
1000
0000
0100
0000
,
0010
0001
0100
0010
0100
0001
1000
0010
,
0100
0000
0001
0000
0010
0100
1000
0001
1000
0000
0001
0000
0100
0000
0010
0000
,
0100
0001
0010
0100
1000
0100
0010
0001
,
1000
0000
1000
0000
0001
0100
0010
0100
,
0001
0010
0100
1000
0100
0010
0001
1000
,
0001
0000
0100
0001
0100
0001
1000
0000
0001
0000
1000
0000
0001
0000
0100
0000
,
0001
1000
0010
0100
0001
0100
0001
1000
,
0100
0010
0001
0010
0001
1000
0100
0010
,
0001
1000
0001
0010
0400
4000
0000
0000
,
0000
0000
0000
0000
,
3300
0000
1000
0100
0010
0001
0010
0100
,
1000
0001
0100
0010
0100
0001
1000
0100
,
0010
0000
0001
1000
0001
0000
1000
0100
1000
0000
0001
0000
0010
0000
0100
0000
,
1000
0001
0100
0010
0100
0001
1000
0100
,
0010
0000
0001
0000
1000
0001
0100
0004
4000
0000
0000
0000
0000
0000
0000
0000
,
0000
0000
0000
0000
0000
3003
0000
0000
1001
0000
0000
0000
0000
0000
0000
0000
,
1000
0100
1000
0000
0001
0100
0010
1000
0001
0000
0000
0000
0000
0000
0000
0000
,
1000
0100
0010
0001
4000
0000
3000
0000
1001
0000
0000
0000
0000
0000
0000
0000
,
1000
0001
0100
0010
1000
0100
0010
0001
,
0100
0010
1000
0100
0010
0001
0100
0010
,
4000
3000
0400
0300
0040
0030
0004
0003
4000
3000
0040
0030
0400
0300
0004
0003
,
0040
0030
0400
0300
4000
3000
0040
0030
1000
0000
0001
0000
0010
0000
0100
0000
,
1000
0001
0100
0010
0100
0001
0010
0100
,
1000
0001
0100
0010
1000
0000
0001
0000
,
0010
0100
1000
0001
0100
0010
1000
0001
,
0010
0100
1000
0100
0010
0001
1000
0001
,
0100
0010
0100
0004
4000
0000
0000
0000
,
0000
0000
0000
0000
0000
0000
0000
0003
,
3000
0000
0000
0000
0001
0010
0001
0010
,
0400
4000
0000
0300
3100
0010
0001
1000
,
0004
0400
0000
0003
0301
0100
0001
1000
,
0040
4000
0000
0000
0000
0000
0000
0000
,
0000
0000
3030
0000
,
1000
0000
1010
0000
,
0000
0000
0110
0000
,
0100
0000
0000
0000
1010
0000
0000
0001
,
0100
0010
1000
0000
0001
0000
0000
0000
,
0010
0000
0100
0000
,
1000
0000
0001
0100
,
0010
1000
0001
0010
,
0100
1000
0100
0010
,
0001
1000
0010
1000
,
0001
0010
0100
1000
0100
1000
0010
0100
,
0001
0010
0001
1000
0001
1000
0010
0100
,
0001
0100
0010
1000
0100
1000
0100
0010
,
0001
1000
0004
0000
4003
0000
3004
0000
,
1003
0000
0000
0000
0001
0100
0010
1000
,
0100
0000
0000
0000
0000
0000
0010
0000
0000
0000
0000
0000
0001
0000
0000
0000
0000
0000
1000
0000
0000
0000
0000
0000
0010
0100
0000
0000
0000
0000
0000
0000
0000
0000
0000
0000
0010
0100
0000
0000
0000
0000
0000
0000
0000
0000
0000
0000
,
0001
1000
0010
1000
0001
0000
1000
0001
1000
0000
0001
0000
0010
0000
0100
0000
,
1000
0001
1000
0010
0100
0010
1000
0001
,
0010
0000
0100
0000
1000
0100
0010
0000
0004
0000
4000
0000
0000
0000
0003
0000
,
3001
0000
1000
0000
0010
0000
0100
0000
0001
0100
0010
0000
4000
0000
0000
0000
,
3010
0100
0001
1000
0004
0400
0000
0003
,
0301
1000
0100
0010
0004
4000
0000
0003
,
3001
0000
1000
0000
0100
0000
0010
0000
0001
0010
0100
0000
4000
0000
0400
0000
,
0000
0000
0000
0000
0000
0000
3300
0000
4000
3000
0004
0003
4000
3000
0400
0300
,
0040
0030
0001
0000
0000
0000
0001
0000
2000
0000
0000
0000
0000
0000
0000
0000
,
0000
0000
0000
0000
0000
0000
0000
0000
0000
0000
0000
0000
0000
0000
0000
3000
,
0000
0000
0000
0000
,
MMMM
0000
0000
0000
0000
0000
0000
M000
,
M000
0000
0000
0000
;
