#TITLE:Machete Mirage v2;
#SUBTITLE:Bucketheadland 2 (2003);
#ARTIST:Buckethead;
#TITLETRANSLIT:;
#SUBTITLETRANSLIT:;
#ARTISTTRANSLIT:;
#CREDIT:;
#BANNER:Machete Mirage-banner.png;
#BACKGROUND:Machete Mirage-bg.png;
#LYRICSPATH:;
#CDTITLE:omegaspike_cdtitle.PNG;
#MUSIC:Buckethead - Bucketheadland 2 - 05 - Machete Mirage.mp3;
#OFFSET:-6.190;
#SAMPLESTART:48.000;
#SAMPLELENGTH:13.000;
#SELECTABLE:YES;
#BPMS:0.000=160.000,76.000=80.000,94.000=160.000,198.000=80.000,212.000=160.000;
#STOPS:226.750=9.665
;
#BGCHANGES:;
// cache tags:
#FIRSTBEAT:4.000;
#LASTBEAT:383.563;
#SONGFILENAME:Songs/Astronomic Metal Collection/(OMEGAspike)Machete Mirage v2/Buckethead - Bucketheadland 2 - 05 - Machete Mirage.sm;
#HASMUSIC:1;
#HASBANNER:1;
#MUSICLENGTH:180.945;
// end cache tags

//---------------dance-single - ----------------
#NOTES:
     dance-single:
     :
     Hard:
     13:
     1.000,1.000,1.000,1.000,1.000,1246.000,230.000,295.000,0.000,4.000:
0000
0000
0000
0000
,
0001
0010
0100
1000
0010
0100
0001
0010
0100
1000
0001
0100
0010
1000
0001
0010
,
1100
1000
1000
1000
,
0001
0010
0100
1000
0010
0100
0001
0010
0100
1000
0001
0100
0010
1000
0001
0010
,
1100
1000
1000
1000
,
0001
0010
0100
1000
0010
0100
0001
0010
0100
1000
0001
0100
0010
1000
0001
0010
,
1100
1000
1000
1000
,
0001
0010
0100
1000
0010
0100
0001
0010
0100
1000
0001
0100
0010
1000
0001
0010
,
0001
0010
0100
1000
0010
0100
0001
0010
0100
1000
0001
0100
0010
1000
0001
0010
,
0001
0010
0100
1000
0010
0100
0001
0010
0100
1000
0001
0100
0010
1000
0001
0010
,
2200
3300
2200
3300
2200
3300
0220
0330
0000
0000
0000
0000
0000
0000
0220
0330
,
2200
3300
2200
3300
2200
3300
0220
0330
0000
0000
0000
0000
0000
0000
0220
0330
,
2200
3300
2200
3300
2200
3300
0220
0330
0000
0000
0000
0000
0000
0000
0000
0000
,
0001
0010
0100
1000
0010
0100
0001
0010
0100
1000
0001
0100
0010
1000
0001
0010
,
2200
3300
2200
3300
2200
3300
0220
0330
1000
0000
0001
0000
1000
0000
0220
0330
,
2200
3300
2200
3300
2200
3300
0220
0330
1000
0000
0001
0000
1000
0000
0220
0330
,
2200
3300
2200
3300
2200
3300
0220
0330
1000
0000
0001
0000
1000
0000
0000
0000
,
0001
0010
0100
1000
0010
0100
0001
0010
0100
1000
0001
0100
0010
1000
0001
0010
,
0001
0010
0100
1000
0010
0100
0001
0010
0100
1000
0001
0100
0010
1000
0001
0010
,
2200
0000
0000
0000
0000
0000
0000
0000
0000
3300
2200
0000
0000
0000
0000
3300
1100
0000
1100
0000
1100
0000
1100
0000
0022
0000
0000
0033
0220
0000
0000
0330
,
1100
0000
0022
0000
0000
0033
2200
0000
0000
3300
0220
0000
0000
0000
0000
0330
1100
0000
1100
0000
1100
0000
1100
0000
0022
0000
0000
0033
0220
0000
0000
0330
,
1100
0000
0022
0000
0000
0033
2200
0000
0000
3300
0220
0000
0000
0000
0000
0330
1100
0000
1100
0000
1100
0000
1100
0000
0022
0000
0000
0033
0220
0000
0000
0330
,
1100
0000
0022
0000
0000
0033
2200
0000
0000
3300
0220
0000
0000
0000
0000
0330
1100
0000
1100
0000
1100
0000
1100
0000
0022
0000
0000
0033
0220
0000
0000
0330
,
0011
0000
0000
0000
0000
0000
0000
0000
0000
0000
0000
0000
0110
0000
0000
0000
0000
0000
0000
0000
0000
0000
0000
0000
1010
0000
0000
0000
0000
0000
0000
0000
0000
0000
0000
0000
0110
0000
0000
0000
0000
0000
0000
0000
0000
0000
0000
0000
0011
0000
0000
0000
0000
0000
0000
0000
0000
0000
0000
0000
1001
0000
0000
0000
0000
0000
0000
0000
0000
0000
0000
0000
0011
0000
1000
0000
0000
0000
0000
0000
0000
0000
0000
0000
0000
0000
0000
0000
0000
0000
0000
0000
0000
0000
0000
0000
2200
0000
0000
0000
0000
0000
0000
0000
0000
0000
0000
0000
3300
0000
0000
0000
0000
0000
0000
0000
0000
0000
0000
0000
2200
0000
0000
0000
0000
0000
0000
0000
0000
0000
0000
0000
3300
0000
0000
0000
0000
0000
0000
0000
0000
0000
0000
0000
2200
0000
0000
0000
0000
0000
0000
0000
0000
0000
0000
0000
3300
0000
0000
0000
0000
0000
0000
0000
0000
0000
0000
0000
0220
0000
0000
0000
0000
0000
0000
0000
0000
0000
0000
0000
0330
0000
0000
0000
0000
0000
0000
0000
0000
0000
0000
0000
,
1000
0000
0001
0000
1000
0000
0220
0330
2200
3300
2200
3300
2200
3300
0220
0330
,
1000
0000
0001
0000
1000
0000
0220
0330
2200
3300
2200
3300
2200
3300
0220
0330
,
1000
0000
0001
0000
1000
0000
0000
0000
0001
0010
0100
1000
0010
0100
0001
0010
,
0100
1000
0001
0100
0010
1000
0001
0010
2200
3300
2200
3300
2200
3300
0220
0330
,
1000
0000
0001
0000
1000
0000
0220
0330
2200
3300
2200
3300
2200
3300
0220
0330
,
1000
0000
0001
0000
1000
0000
0220
0330
2200
3300
2200
3300
2200
3300
0220
0330
,
1000
0000
0001
0000
1000
0000
0000
0000
0001
0010
0100
1000
0010
0100
0001
0010
,
0100
1000
0001
0100
0010
1000
0001
0010
1100
0000
0002
0000
0000
0000
1103
0000
,
2000
0000
0000
3010
0100
0010
0001
0000
0000
0001
1000
0001
0010
0100
1000
0010
0100
0001
0010
0100
1000
0001
0010
0100
,
1000
0100
0010
0001
0010
0100
1000
0001
0010
0100
1000
0100
0010
0100
1000
0100
0010
0001
1000
0100
0010
0001
0010
0001
,
0010
0100
1000
0001
0010
0100
0010
0100
1000
0001
0010
0100
1000
0001
0010
0100
1000
0100
0010
0001
0010
0100
1000
0100
,
0010
0100
0010
0001
0010
0100
0010
0100
1000
0001
0010
0100
1000
0100
0010
0001
0010
0100
1000
0001
0010
0100
1000
0100
,
0010
0100
1000
0100
0010
0001
0010
0100
1000
0001
0010
0100
1000
0001
0010
0100
0010
0001
0010
0100
1000
0001
0010
0100
,
1000
0001
0010
0100
1000
0100
0010
0001
0010
0100
1000
0001
0010
0100
1000
0100
0010
0001
0010
0100
1000
0001
0010
0100
,
1000
0100
0010
0100
0010
0001
1000
0100
0010
0100
0010
0001
1000
0100
0010
0100
0010
0001
1000
0100
0010
0001
1000
0100
,
0010
0000
0000
0000
0000
0000
0000
0000
0001
0000
0000
0000
0000
0000
0000
0000
1000
0000
0000
0000
0000
0000
0000
0000
0001
0000
0000
0000
0000
0000
0000
0000
0010
0000
0000
0000
0000
0000
0000
0000
0100
0000
0000
0000
0000
0000
0000
0000
1000
0000
0000
0000
0000
0000
0000
0000
0001
0000
0000
0000
0000
0000
0000
0000
0010
0000
0000
0000
0000
0000
0000
0000
0100
0000
0000
0000
0000
0000
0000
0000
0010
0000
0000
0000
0000
0000
0000
0000
0100
0000
0000
0000
0000
0000
0000
0000
1000
0000
0000
0000
0000
0000
0100
0000
0000
0000
0000
0000
0010
0000
0000
0000
0000
0000
0001
0000
0000
0000
0000
0000
0000
0000
0000
0000
0000
0000
0000
0000
0000
0000
0000
0000
1000
0000
0000
0000
0000
0000
0100
0000
0000
0000
0000
0000
0010
0000
0000
0000
0000
0000
0000
0000
0001
0000
0000
0000
0000
0000
0000
0000
0010
0000
0000
0000
0000
0000
0000
0000
0001
0000
0000
0000
0000
0000
0000
0000
0000
0000
0000
0000
0010
0000
0000
0000
0000
0000
0000
0000
0000
0000
0000
0000
,
0100
1000
0100
0010
0001
1000
0100
0010
0001
0010
0100
1000
0001
0010
0100
0010
0001
0010
0100
1000
0100
0010
0100
1000
,
0001
1000
0100
0010
0001
1000
0001
0010
0100
0010
0100
1000
0100
0010
0001
0010
0100
1000
0001
0010
0100
0010
0100
1000
,
0001
0010
0100
1000
0100
0010
0001
0010
0100
1000
0001
1000
0001
0010
0100
1000
0001
0010
0100
1000
0001
0010
0100
1000
,
0001
0010
0100
1000
0001
0010
0100
1000
0001
0010
0100
1000
0002
0000
0000
0013
0100
1000
0010
0100
1000
0010
0100
1000
,
0002
0000
0000
0013
0100
1000
0010
0100
1000
0010
0100
1000
0002
0000
0000
0013
0100
1000
0010
0100
1000
0100
0010
0001
,
1000
0001
0010
0100
0010
0100
2000
0000
0000
0000
0000
0000
3100
0010
0001
1000
0010
1000
0100
0010
0001
1000
0100
0010
,
0001
0000
0000
0000
0000
0000
0000
0000
0010
0000
0000
0000
0000
0000
0000
0000
0100
0000
0000
0000
0000
0000
0000
0000
1000
0000
0000
0000
0000
0000
0000
0000
0100
0000
0000
0000
0000
0000
0000
0000
0010
0000
0000
0000
0000
0000
0000
0000
0100
0000
0000
0000
0000
0000
0000
0000
0010
0000
0000
0000
0000
0000
0000
0000
0001
0000
0000
0000
0000
0000
0000
0000
1000
0000
0000
0000
0000
0000
0000
0000
0100
0000
0000
0000
0000
0000
0000
0000
0010
0000
0000
0000
0000
0000
0000
0000
0100
0000
0000
0000
0000
0000
0000
0000
0010
0000
0000
0000
0000
0000
0000
0000
1000
0000
0000
0000
0000
0000
0000
0000
0100
0000
0000
0000
0000
0000
0000
0000
0010
0000
0000
0000
0000
0000
0000
0000
0001
0000
0000
0000
0000
0000
0000
0000
0010
0000
0000
0000
0000
0000
0000
0000
0100
0000
0000
0000
0000
0000
0000
0000
0010
0000
0000
0000
0000
0000
0000
0000
1000
0000
0000
0000
0000
0000
0100
0000
0000
0000
0000
0000
0010
0000
0000
0000
0000
0000
0001
0000
0000
0000
0000
0000
,
1000
0000
0000
0000
0000
0000
0100
0000
0000
0000
0000
0000
0010
0000
0000
0000
0000
0000
1000
0000
0000
0000
0000
0000
0100
0000
0000
0000
0000
0000
0010
0000
0000
0000
0000
0000
1000
0000
0000
0000
0000
0000
0100
0000
0000
0000
0000
0000
0010
0000
0000
0000
0000
0000
0001
0000
0000
0000
0000
0000
0100
0000
0000
0000
0000
0000
0010
0000
0000
0000
0000
0000
0001
0000
0000
0000
0000
0000
0000
0000
0100
0000
0000
0000
0000
0000
0000
0000
0010
0000
0000
0000
0000
0000
0000
0000
0002
0000
0000
0000
0000
0000
0000
0000
0000
0000
0000
0000
0000
0000
0000
0000
0000
0000
0000
0000
0000
0000
0000
0000
0000
0000
0000
0000
0000
0000
0000
0000
0000
0000
0000
0000
0000
0000
0000
0000
0000
0000
0000
0000
0000
0000
0000
0000
0023
0000
0000
0000
0000
0000
0000
0000
0000
0000
0000
0000
0000
0000
0000
0000
0000
0000
0000
0000
0000
0000
0000
0000
0000
0000
0000
0000
0000
0000
0000
0000
0000
0000
0000
0000
0000
0000
0000
0000
0000
0000
0000
0000
0000
0000
0000
0000
,
0000
0000
0000
0032
0023
0000
0000
0000
0000
0030
0020
0000
0032
0000
0000
0003
,
0002
0000
0000
0000
0000
0000
0000
0000
0000
0000
0000
0000
0000
0000
0000
0000
1103
0000
0022
0000
0000
0033
2200
0000
0000
3300
0220
0000
0000
0000
0000
0330
,
1100
0000
1100
0000
1100
0000
1100
0000
0022
0000
0000
0033
0220
0000
0000
0330
1100
0000
0022
0000
0000
0033
2200
0000
0000
3300
0220
0000
0000
0000
0000
0330
,
1100
0000
1100
0000
1100
0000
1100
0000
0022
0000
0000
0033
0220
0000
0000
0330
1100
0000
0022
0000
0000
0033
2200
0000
0000
3300
0220
0000
0000
0000
0000
0330
,
1100
0000
0000
0000
0000
0000
0000
0000
0000
0000
0000
0000
1100
0000
0000
0000
0000
0000
0000
0000
0000
0000
0000
0000
1100
0000
0000
0000
0000
0000
0000
0000
0000
0000
0000
0000
1100
0000
0000
0000
0000
0000
0000
0000
0000
0000
0000
0000
0022
0000
0000
0000
0000
0000
0000
0000
0000
0000
0000
0000
0000
0000
0000
0000
0000
0000
0033
0000
0000
0000
0000
0000
0220
0000
0000
0000
0000
0000
0000
0000
0000
0000
0000
0000
0000
0000
0000
0000
0000
0000
0330
0000
0000
0000
0000
0000
0011
0000
0000
0000
0000
0000
0000
0000
0000
0000
0000
0000
0110
0000
0000
0000
0000
0000
0000
0000
0000
0000
0000
0000
1010
0000
0000
0000
0000
0000
0000
0000
0000
0000
0000
0000
0110
0000
0000
0000
0000
0000
0000
0000
0000
0000
0000
0000
0011
0000
0000
0000
0000
0000
0000
0000
0000
0000
0000
0000
1001
0000
0000
0000
0000
0000
0000
0000
0000
0000
0000
0000
0011
0000
1000
0000
0000
0000
0000
0000
0000
0000
0000
0000
0000
0000
0000
0000
0000
0000
0000
0000
0000
0000
0000
0000
,
1010
0000
0010
0100
0010
1000
0010
0100
0022
0000
0033
0022
0000
0033
0220
0330
,
1010
0000
0010
0100
0010
1000
0010
0100
0022
0000
0033
0022
0000
0033
0220
0330
,
1010
0000
0010
0100
0010
1000
0010
0100
0022
0000
0033
0022
0000
0033
0220
0330
,
2200
3300
0010
1000
0010
1000
0022
0033
1000
0010
1000
0011
1010
0000
0010
0100
,
0010
1000
0010
0100
0022
0000
0033
0022
0000
0033
0220
0330
1010
0000
0010
0100
,
0010
1000
0010
0100
0022
0000
0033
0022
0000
0033
0220
0330
1010
0000
0010
0100
,
0010
1000
0010
0100
0022
0000
0033
0022
0000
0033
0220
0330
2200
3300
0010
1000
,
0010
0000
0000
1000
0000
0000
0022
0000
0000
0033
0000
0000
1000
0000
0000
0010
0000
0000
1000
0000
0000
0010
0000
0000
1000
0000
0000
0010
0000
0000
1000
0000
0100
0000
0010
0000
0100
0000
0010
0000
0001
0000
0010
0000
0100
0000
1000
0000
,
0001
0010
0100
0010
0001
0010
0100
1000
0100
0010
0100
1000
0001
0010
0100
0010
0100
1000
0001
0010
0100
0010
0100
1000
,
0001
1000
0100
0010
0100
0010
0001
0010
0100
0010
0100
1000
0100
0010
0001
0010
0100
1000
0001
0010
0100
1000
0001
0010
,
0100
1000
0100
0010
0001
1000
0100
0010
0001
1000
0100
0010
0001
0010
0100
0010
0100
1000
0100
0010
0100
0010
0001
0010
,
0100
0000
1000
0000
0100
0000
0010
0000
0001
0000
1000
0000
0100
0000
0010
0000
0001
0000
1000
0000
0010
0000
0100
0000
0002
0000
0000
0003
0000
0000
0001
0000
0000
0001
0000
0000
0001
0000
0010
0000
0100
0000
0010
0000
0100
0000
1000
0000
,
0001
0010
0100
0010
0100
1000
0001
0010
0001
0010
0001
0010
0100
0010
0100
1000
0001
0010
0100
1000
0001
0010
0100
1000
,
0001
0010
0100
0010
0001
0010
0100
0010
0100
1000
0100
0010
0100
1000
0002
0013
0100
1000
0100
0010
0001
0010
0100
1000
,
0001
0010
0100
0010
0100
1000
0001
0010
0100
0010
0100
1000
0001
0010
0100
0010
0100
1000
0001
0010
0100
0010
0100
1000
,
0001
0000
0000
0000
0000
0000
0000
0000
0010
0000
0000
0000
0000
0000
0000
0000
0100
0000
0000
0000
0000
0000
0000
0000
0010
0000
0000
0000
0000
0000
0000
0000
0100
0000
0000
0000
0000
0000
0000
0000
1000
0000
0000
0000
0000
0000
0000
0000
0100
0000
0000
0000
0000
0000
0000
0000
0010
0000
0000
0000
0000
0000
0000
0000
0100
0000
0000
0000
0000
0000
0000
0000
0010
0000
0000
0000
0000
0000
0000
0000
0001
0000
0000
0000
0000
0000
0000
0000
0010
0000
0000
0000
0000
0000
0000
0000
0002
0000
0000
0000
0000
0000
0000
0000
0000
0000
0000
0000
0000
0000
0000
0000
0000
0000
0000
0000
0000
0000
0000
0000
0000
0000
0000
0000
0000
0000
0000
0000
0003
0000
0000
0000
0000
0000
0000
0000
0000
0000
0000
0000
0000
0000
0000
0000
0001
0000
0000
0000
0000
0000
0010
0000
0000
0000
0000
0000
0100
0000
0000
0000
0000
0000
0001
0000
0000
0000
0000
0000
0010
0000
0000
0000
0000
0000
0100
0000
0000
0000
0000
0000
0001
0000
0000
0000
0000
0000
0010
0000
0000
0000
0000
0000
,
0100
0001
0010
0100
0001
0010
0100
0001
0010
0100
1000
0010
0100
1000
0010
0100
1000
0010
0100
1000
0010
0100
1000
0010
0200
0000
0300
0000
2200
0000
3300
0000
,
2200
3300
0220
0330
0000
0000
0000
0000
0000
0000
0220
0330
2200
3300
2200
3300
,
2200
3300
0220
0330
0000
0000
0000
0000
0000
0000
0220
0330
2200
3300
2200
3300
,
2200
3300
0220
0330
0000
0000
0000
0000
0000
0000
0000
0000
0001
0010
0100
1000
,
0010
0100
0001
0010
0100
1000
0001
0100
0010
1000
0001
0010
2200
3300
2200
3300
,
2200
3300
0220
0330
1000
0000
0001
0000
1000
0000
0220
0330
2200
3300
2200
3300
,
2200
3300
0220
0330
1000
0000
0001
0000
1000
0000
0220
0330
2200
3300
2200
3300
,
2200
3300
0220
0330
1000
0000
0001
0000
1000
0000
0000
0000
0001
0010
0100
1000
,
0010
0100
0001
0010
0100
1000
0001
0100
0010
1000
0001
0010
1100
0000
1000
0000
,
0011
1000
0000
1000
0011
1000
0000
1000
,
0011
1000
0000
1000
0011
0000
1000
1000
,
0011
1000
0000
1000
0011
1000
1000
1000
,
0000
1000
0000
1000
0011
0000
1011
1000
,
0011
1000
0000
1000
0011
1000
0000
1000
,
0011
1000
0000
1000
0011
0000
1000
1000
,
0011
0000
1000
0000
0000
0000
1000
0000
0011
0000
1000
0000
0001
0010
0100
1000
,
0010
0100
0001
0010
0100
1000
0001
0100
0010
1000
0001
0010
1100
0000
1000
0000
,
0011
1000
0000
1000
0011
1000
0000
1000
,
0011
1000
0000
1000
0011
0000
1000
1000
,
0011
1000
0000
1000
0011
1000
1000
1000
,
0000
1000
0000
1000
0011
0000
1011
1000
,
0011
1000
0000
1000
0011
1000
0000
1000
,
0011
1000
0000
1000
0011
0000
1000
1000
,
0011
0000
1000
0000
0000
0000
1000
0000
0011
0000
1000
0000
0001
0010
0100
1000
,
0010
0100
0001
0010
0100
1000
0001
0100
0010
1000
0001
0010
0001
0010
0100
1000
,
0010
0100
0001
0010
0100
1000
0001
0100
0010
1000
0001
0010
0001
0010
0100
1000
,
0010
0100
0001
0010
0100
1000
0001
0100
0010
1000
0001
0010
1100
0000
0000
0000
;

//---------------dance-single - ----------------
#NOTES:
     dance-single:
     :
     Challenge:
     15:
     1.000,1.000,1.000,1.000,1.000,1269.000,377.000,304.000,0.000,33.000:
0000
0000
0000
0000
,
1001
0101
1010
0100
0011
1000
0110
1000
0011
0100
0011
0100
1001
0010
0101
0010
,
2200
0000
0000
3300
0000
0000
0000
0000
1000
0000
0000
0000
0000
0000
0000
0000
1000
0000
0000
0000
0000
0000
0000
0000
1000
0000
0000
0000
0000
0000
0000
0000
,
1001
0101
1010
0100
0011
1000
0110
1000
0011
0100
0011
0100
1001
0010
0101
0010
,
2200
0000
0000
3300
0000
0000
0000
0000
1000
0000
0000
0000
0000
0000
0000
0000
1000
0000
0000
0000
0000
0000
0000
0000
1000
0000
0000
0000
0000
0000
0000
0000
,
1001
0101
1010
0100
0011
1000
0110
1000
0011
0100
0011
0100
1001
0010
0101
0010
,
2200
0000
0000
3300
0000
0000
0000
0000
1000
0000
0000
0000
0000
0000
0000
0000
1000
0000
0000
0000
0000
0000
0000
0000
1000
0000
0000
0000
0000
0000
0000
0000
,
1001
0101
1010
0100
0011
1000
0110
1000
0011
0100
0011
0100
1001
0010
0101
0010
,
1001
0101
1010
0100
0011
1000
0110
1000
0011
0100
0011
0100
1001
0010
0101
0010
,
1001
0101
1010
0100
0011
1000
0110
1000
0011
0100
0011
0100
1001
0010
0101
0010
,
2200
3300
2200
3300
2200
3300
0220
0330
0000
0000
0000
0000
0000
0000
0220
0330
,
2200
3300
2200
3300
2200
3300
0220
0330
0000
0000
0000
0000
0000
0000
0220
0330
,
2200
3300
2200
3300
2200
3300
0220
0330
0000
0000
0000
0000
0000
0000
0000
0000
,
1001
0101
1010
0100
0011
1000
0110
1000
0011
0100
0011
0100
1001
0010
0101
0010
,
2201
3300
2200
3300
2201
3300
0220
0330
1000
0000
0001
0000
1011
0000
0220
0330
,
2200
3300
2200
3300
2201
3300
0220
0330
1000
0000
0001
0000
1011
0000
0220
0330
,
2200
3300
2200
3300
2201
3300
0220
0330
1000
0000
0001
0000
1011
0000
0100
0000
,
0001
0001
0010
0010
0100
0100
1000
1000
0001
0001
0010
0010
0100
0100
1000
1000
,
1001
0101
1010
0100
0011
1000
0110
1000
0011
0100
0011
0100
1001
0010
0101
0010
,
2200
0000
0000
0000
0000
0000
0000
0000
0000
3300
2200
0000
0000
0000
0000
3300
1100
0000
1100
0000
1100
0000
1100
0000
0022
0000
0000
0033
0220
0000
0000
0330
,
1100
0000
0022
0000
0000
0033
2200
0000
0000
3300
0220
0000
0000
0000
0000
0330
1100
0000
1100
0000
1100
0000
1100
0000
0022
0000
0000
0033
0220
0000
0000
0330
,
1100
0000
0022
0000
0000
0033
2200
0000
0000
3300
0220
0000
0000
0000
0000
0330
1100
0000
1100
0000
1100
0000
1100
0000
0022
0000
0000
0033
0220
0000
0000
0330
,
1100
0000
0022
0000
0000
0033
2200
0000
0000
3300
0220
0000
0000
0000
0000
0330
1100
0000
1100
0000
1100
0000
1100
0000
0022
0000
0000
0033
0220
0000
0000
0330
,
0011
0000
0000
0000
0000
0000
0000
0000
0000
0000
0000
0000
0110
0000
0000
0000
0000
0000
0000
0000
0000
0000
0000
0000
1010
0000
0000
0000
0000
0000
0000
0000
0000
0000
0000
0000
0110
0000
0000
0000
0000
0000
0000
0000
0000
0000
0000
0000
0011
0000
0000
0000
0000
0000
0000
0000
0000
0000
0000
0000
1001
0000
0000
0000
0000
0000
0000
0000
0000
0000
0000
0000
0011
0000
1000
0100
0000
0000
0000
0000
0000
0000
0000
0000
0000
0000
0000
0000
0000
0000
0000
0000
0000
0000
0000
0000
2201
0000
0000
0000
0000
0000
0000
0000
0000
0000
0000
0000
3300
0000
0000
0000
0000
0000
0000
0000
0000
0000
0000
0000
2200
0000
0000
0000
0000
0000
0000
0000
0000
0000
0000
0000
3300
0000
0000
0000
0000
0000
0000
0000
0000
0000
0000
0000
2201
0000
0000
0000
0000
0000
0000
0000
0000
0000
0000
0000
3300
0000
0000
0000
0000
0000
0000
0000
0000
0000
0000
0000
0220
0000
0000
0000
0000
0000
0000
0000
0000
0000
0000
0000
0330
0000
0000
0000
0000
0000
0000
0000
0000
0000
0000
0000
,
1000
0000
0001
0000
1011
0000
0220
0330
2200
3300
2200
3300
2201
3300
0220
0330
,
1000
0000
0001
0000
1011
0000
0220
0330
2200
3300
2200
3300
2201
3300
0220
0330
,
1000
0000
0001
0000
1011
0000
0100
0000
0001
0001
0010
0010
0100
0100
1000
1000
,
0001
0001
0010
0010
0100
0100
1000
1000
2201
3300
2200
3300
2201
3300
0220
0330
,
1000
0000
0001
0000
1011
0000
0220
0330
2200
3300
2200
3300
2201
3300
0220
0330
,
1000
0000
0001
0000
1011
0000
0220
0330
2200
3300
2200
3300
2201
3300
0220
0330
,
1000
0000
0001
0000
1011
0000
0100
0000
1001
0101
1010
0100
0011
1000
0110
1000
,
0011
0100
0011
0100
1001
0010
0101
0010
1100
0000
0002
0000
0000
0000
1103
0000
,
2000
0000
0000
3010
0100
0010
0001
0000
0000
0001
1000
0001
0010
0100
1000
0010
0100
0001
0010
0100
1000
0001
0010
0100
,
1000
0100
0010
0001
0010
0100
1000
0001
0010
0100
1000
0100
0010
0100
1000
0100
0010
0001
1000
0100
0010
0001
0010
0001
,
0010
0100
1000
0001
0010
0100
0010
0100
1000
0001
0010
0100
1000
0001
0010
0100
1000
0100
0010
0001
0010
0100
1000
0100
,
0010
0100
0010
0001
0010
0100
0010
0100
1000
0001
0010
0100
1000
0100
0010
0001
0010
0100
1000
0001
0010
0100
1000
0100
,
0010
0100
1000
0100
0010
0001
0010
0100
1000
0001
0010
0100
1000
0001
0010
0100
0010
0001
0010
0100
1000
0001
0010
0100
,
1000
0001
0010
0100
1000
0100
0010
0001
0010
0100
1000
0001
0010
0100
1000
0100
0010
0001
0010
0100
1000
0001
0010
0100
,
1000
0100
0010
0100
0010
0001
1000
0100
0010
0100
0010
0001
1000
0100
0010
0100
0010
0001
1000
0100
0010
0001
1000
0100
,
0010
0000
0000
0000
0000
0000
0000
0000
0001
0000
0000
0000
0000
0000
0000
0000
1000
0000
0000
0000
0000
0000
0000
0000
0001
0000
0000
0000
0000
0000
0000
0000
0010
0000
0000
0000
0000
0000
0000
0000
0100
0000
0000
0000
0000
0000
0000
0000
1000
0000
0000
0000
0000
0000
0000
0000
0001
0000
0000
0000
0000
0000
0000
0000
0010
0000
0000
0000
0000
0000
0000
0000
0100
0000
0000
0000
0000
0000
0000
0000
0010
0000
0000
0000
0000
0000
0000
0000
0100
0000
0000
0000
0000
0000
0000
0000
1000
0000
0000
0000
0000
0000
0100
0000
0000
0000
0000
0000
0010
0000
0000
0000
0000
0000
0001
0000
0000
0000
0000
0000
0000
0000
0000
0000
0000
0000
0000
0000
0000
0000
0000
0000
1000
0000
0000
0000
0000
0000
0100
0000
0000
0000
0000
0000
0010
0000
0000
0000
0000
0000
0000
0000
0001
0000
0000
0000
0000
0000
0000
0000
0010
0000
0000
0000
0000
0000
0000
0000
0001
0000
0000
0000
0000
0000
0000
0000
0000
0000
0000
0000
0010
0000
0000
0000
0000
0000
0000
0000
0000
0000
0000
0000
,
0100
0000
0000
0000
0000
0000
0000
0000
1000
0000
0000
0000
0000
0000
0000
0000
0100
0000
0000
0000
0000
0000
0000
0000
0010
0000
0000
0000
0000
0000
0000
0000
0001
0000
0000
0000
0000
0000
0000
0000
1000
0000
0000
0000
0000
0000
0000
0000
0100
0000
0000
0000
0000
0000
0000
0000
0010
0000
0000
0000
0000
0000
0000
0000
0001
0000
0000
0000
0000
0000
0000
0000
0010
0000
0000
0000
0000
0000
0000
0000
0100
0000
0000
0000
0000
0000
0000
0000
1000
0000
0000
0000
0000
0000
0000
0000
0001
0000
0000
0000
0000
0000
0010
0000
0000
0000
0000
0000
0100
0000
0000
0000
0000
0000
0001
0000
0000
0000
0000
0000
0010
0000
0000
0000
0000
0000
0100
0000
0000
0000
0000
0000
0001
0000
0000
0000
0000
0000
0010
0000
0000
0000
0000
0000
0100
0000
0000
0000
0000
0000
1000
0000
0000
0000
0000
0000
0010
0000
0000
0000
0000
0000
0100
0000
0000
0000
0000
0000
1000
0000
0000
0000
0000
0000
0010
0000
0000
0000
0000
0000
0100
0000
0000
0000
0000
0000
1000
0000
0000
0000
0000
0000
,
0001
1000
0100
0010
0001
1000
0001
0010
0100
0010
0100
1000
0100
0010
0001
0010
0100
1000
0001
0010
0100
0010
0100
1000
,
0001
0010
0100
1000
0100
0010
0001
0010
0100
1000
0001
1000
0001
0010
0100
1000
0001
0010
0100
1000
0001
0010
0100
1000
,
0001
0000
0000
0000
0000
0000
0000
0000
0010
0000
0000
0000
0000
0000
0000
0000
0100
0000
0000
0000
0000
0000
0000
0000
1000
0000
0000
0000
0000
0000
0000
0000
0001
0000
0000
0000
0000
0000
0000
0000
0010
0000
0000
0000
0000
0000
0000
0000
0100
0000
0000
0000
0000
0000
0000
0000
1000
0000
0000
0000
0000
0000
0000
0000
0001
0000
0000
0000
0000
0000
0000
0000
0010
0000
0000
0000
0000
0000
0000
0000
0100
0000
0000
0000
0000
0000
0000
0000
1000
0000
0000
0000
0000
0000
0000
0000
0002
0000
0000
0000
0000
0000
0000
0000
0000
0000
0000
0000
0000
0000
0000
0000
0000
0000
0000
0000
0000
0000
0000
0000
0013
0000
0000
0000
0000
0000
0100
0000
0000
0000
0000
0000
1000
0000
0000
0000
0000
0000
0010
0000
0000
0000
0000
0000
0100
0000
0000
0000
0000
0000
1000
0000
0000
0000
0000
0000
0010
0000
0000
0000
0000
0000
0100
0000
0000
0000
0000
0000
1000
0000
0000
0000
0000
0000
0010
0000
0000
0000
0000
0000
0100
0000
0000
0000
0000
0000
1000
0000
0000
0000
0000
0000
,
0002
0000
0000
0000
0000
0000
0000
0000
0000
0000
0000
0000
0000
0000
0000
0000
0000
0000
0000
0000
0000
0000
0000
0000
0013
0000
0000
0000
0000
0000
0100
0000
0000
0000
0000
0000
1000
0000
0000
0000
0000
0000
0010
0000
0000
0000
0000
0000
0100
0000
0000
0000
0000
0000
1000
0000
0000
0000
0000
0000
0010
0000
0000
0000
0000
0000
0100
0000
0000
0000
0000
0000
1000
0000
0000
0000
0000
0000
0010
0000
0000
0000
0000
0000
0100
0000
0000
0000
0000
0000
1000
0000
0000
0000
0000
0000
0002
0000
0000
0000
0000
0000
0000
0000
0000
0000
0000
0000
0000
0000
0000
0000
0000
0000
0000
0000
0000
0000
0000
0000
0013
0000
0000
0000
0000
0000
0100
0000
0000
0000
0000
0000
1000
0000
0000
0000
0000
0000
0010
0000
0000
0000
0000
0000
0100
0000
0000
0000
0000
0000
1000
0000
0000
0000
0000
0000
0010
0000
0000
0000
0000
0000
0100
0000
0000
0000
0000
0000
1000
0000
0000
0000
0000
0000
0000
0000
0001
0000
0000
0000
0000
0000
0000
0000
0100
0000
0000
0000
0000
0000
0000
0000
,
0010
0001
0010
0100
0010
0100
2000
0000
0000
0000
0000
0000
3100
0010
0001
1000
0010
1000
0100
0010
0001
1000
0100
0010
,
0001
0000
0000
0000
0000
0000
0000
0000
0010
0000
0000
0000
0000
0000
0000
0000
0100
0000
0000
0000
0000
0000
0000
0000
1000
0000
0000
0000
0000
0000
0000
0000
0100
0000
0000
0000
0000
0000
0000
0000
0010
0000
0000
0000
0000
0000
0000
0000
0100
0000
0000
0000
0000
0000
0000
0000
0010
0000
0000
0000
0000
0000
0000
0000
0001
0000
0000
0000
0000
0000
0000
0000
1000
0000
0000
0000
0000
0000
0000
0000
0100
0000
0000
0000
0000
0000
0000
0000
0010
0000
0000
0000
0000
0000
0000
0000
1000
0000
0000
0000
0000
0000
0000
0000
0100
0000
0000
0000
0000
0000
0000
0000
0010
0000
0000
0000
0000
0000
0000
0000
0001
0000
0000
0000
0000
0000
0000
0000
0100
0000
0000
0000
0000
0000
0000
0000
0010
0000
0000
0000
0000
0000
0000
0000
0001
0000
0000
0000
0000
0000
0100
0000
0000
0000
0000
0000
0010
0000
0000
0000
0000
0000
1000
0000
0000
0000
0000
0000
0100
0000
0000
0000
0000
0000
0010
0000
0000
0000
0000
0000
1000
0000
0000
0000
0000
0000
0100
0000
0000
0000
0000
0000
,
0010
1000
0100
0010
1000
0100
0010
0001
0100
0010
0001
0100
0010
0001
0100
0010
0002
0000
0000
0000
0000
0000
0000
0000
0023
0000
0000
0000
0000
0000
0000
0000
,
0000
0000
0000
0032
0023
0000
0000
0000
0000
0030
0020
0000
0032
0000
0000
0003
,
0002
0000
0000
0000
0000
0000
0000
0000
0000
0000
0000
0000
0000
0000
0000
0000
1103
0000
0022
0000
0000
0033
2200
0000
0000
3300
0220
0000
0000
0000
0000
0330
,
1100
0000
1100
0000
1100
0000
1100
0000
0022
0000
0000
0033
0220
0000
0000
0330
1100
0000
0022
0000
0000
0033
2200
0000
0000
3300
0220
0000
0000
0000
0000
0330
,
1100
0000
1100
0000
1100
0000
1100
0000
0022
0000
0000
0033
0220
0000
0000
0330
1100
0000
0022
0000
0000
0033
2200
0000
0000
3300
0220
0000
0000
0000
0000
0330
,
1100
0000
0000
0000
0000
0000
0000
0000
0000
0000
0000
0000
1100
0000
0000
0000
0000
0000
0000
0000
0000
0000
0000
0000
1100
0000
0000
0000
0000
0000
0000
0000
0000
0000
0000
0000
1100
0000
0000
0000
0000
0000
0000
0000
0000
0000
0000
0000
0022
0000
0000
0000
0000
0000
0000
0000
0000
0000
0000
0000
0000
0000
0000
0000
0000
0000
0033
0000
0000
0000
0000
0000
0220
0000
0000
0000
0000
0000
0000
0000
0000
0000
0000
0000
0000
0000
0000
0000
0000
0000
0330
0000
0000
0000
0000
0000
0011
0000
0000
0000
0000
0000
0000
0000
0000
0000
0000
0000
0110
0000
0000
0000
0000
0000
0000
0000
0000
0000
0000
0000
1010
0000
0000
0000
0000
0000
0000
0000
0000
0000
0000
0000
0110
0000
0000
0000
0000
0000
0000
0000
0000
0000
0000
0000
0011
0000
0000
0000
0000
0000
0000
0000
0000
0000
0000
0000
1001
0000
0000
0000
0000
0000
0000
0000
0000
0000
0000
0000
0011
0000
1000
0100
0000
0000
0000
0000
0000
0000
0000
0000
0000
0000
0000
0000
0000
0000
0000
0000
0000
0000
0000
0000
,
1010
0000
0010
0010
0010
0010
0010
0010
0022
0000
0033
0022
0000
0033
0220
0330
,
1010
0000
0010
0010
0010
0010
0010
0010
0022
0000
0033
0022
0000
0033
0220
0330
,
1010
0000
0010
0010
0010
0010
0010
0010
0022
0000
0033
0022
0000
0033
0220
0330
,
2200
3300
0010
0010
0010
0010
0022
0033
0010
0010
0010
0011
1010
0000
0010
0010
,
0010
0010
0010
0010
0022
0000
0033
0022
0000
0033
0220
0330
1010
0000
0010
0010
,
0010
0010
0010
0010
0022
0000
0033
0022
0000
0033
0220
0330
1010
0000
0010
0010
,
0010
0010
0010
0010
0022
0000
0033
0022
0000
0033
0220
0330
2200
3300
0010
0010
,
0010
0000
0000
0010
0000
0000
0022
0000
0000
0033
0000
0000
0010
0000
0000
0010
0000
0000
0010
0000
0000
0010
0000
0000
0010
0000
0000
0010
0000
0000
1000
0000
0100
0000
0010
0000
0100
0000
0010
0000
0001
0000
0010
0000
0100
0000
1000
0000
,
0001
0010
0100
0010
0001
0010
0100
1000
0100
0010
0100
1000
0001
0010
0100
0010
0100
1000
0001
0010
0100
0010
0100
1000
,
0001
1000
0100
0010
0100
0010
0001
0010
0100
0010
0100
1000
0100
0010
0001
0010
0100
1000
0001
0010
0100
1000
0001
0010
,
0100
1000
0100
0010
0001
1000
0100
0010
0001
1000
0100
0010
0001
0010
0100
0010
0100
1000
0100
0010
0100
0010
0001
0010
,
0100
0000
1000
0000
0100
0000
0010
0000
0001
0000
1000
0000
0100
0000
0010
0000
0001
0000
1000
0000
0010
0000
0100
0000
0002
0000
0000
0003
0000
0000
0001
0000
0000
0001
0000
0000
0001
0000
0010
0000
0100
0000
0010
0000
0100
0000
1000
0000
,
0001
0010
0100
0010
0100
1000
0001
0010
0001
0010
0001
0010
0100
0010
0100
1000
0001
0010
0100
1000
0001
0010
0100
1000
,
0001
0000
0000
0000
0000
0000
0010
0000
0000
0000
0000
0000
1000
0000
0000
0000
0000
0000
0001
0000
0000
0000
0000
0000
0010
0000
0000
0000
0000
0000
1000
0000
0000
0000
0000
0000
0001
0000
0000
0000
0000
0000
0100
0000
0000
0000
0000
0000
1000
0000
0000
0000
0000
0000
0001
0000
0000
0000
0000
0000
0100
0000
0000
0000
0000
0000
1000
0000
0000
0000
0000
0000
0001
0000
0000
0000
0000
0000
0010
0000
0000
0000
0000
0000
0100
0000
0000
0000
0000
0000
1000
0000
0000
0000
0000
0000
0010
0000
0000
0000
0000
0000
0000
0000
0100
0000
0000
0000
0000
0000
0000
0000
0002
0000
0000
0000
0000
0000
0000
0000
0013
0000
0000
0000
0000
0000
0000
0000
0100
0000
0000
0000
0000
0000
0000
0000
1000
0000
0000
0000
0000
0000
0000
0000
0100
0000
0000
0000
0000
0000
0000
0000
0010
0000
0000
0000
0000
0000
0000
0000
0001
0000
0000
0000
0000
0000
0000
0000
0100
0000
0000
0000
0000
0000
0000
0000
0010
0000
0000
0000
0000
0000
0000
0000
1000
0000
0000
0000
0000
0000
0000
0000
,
0001
0010
0100
1000
0001
0010
0100
0010
0001
0010
0100
1000
0001
0010
0100
0010
0001
0010
0100
1000
0001
0010
0100
0010
,
0001
0000
0000
0000
0000
0000
0000
0000
0010
0000
0000
0000
0000
0000
0000
0000
0100
0000
0000
0000
0000
0000
0000
0000
1000
0000
0000
0000
0000
0000
0000
0000
0001
0000
0000
0000
0000
0000
0000
0000
0010
0000
0000
0000
0000
0000
0000
0000
0100
0000
0000
0000
0000
0000
0000
0000
1000
0000
0000
0000
0000
0000
0000
0000
0100
0000
0000
0000
0000
0000
0000
0000
0010
0000
0000
0000
0000
0000
0000
0000
0001
0000
0000
0000
0000
0000
0000
0000
0010
0000
0000
0000
0000
0000
0000
0000
0002
0000
0000
0000
0000
0000
0000
0000
0000
0000
0000
0000
0000
0000
0000
0000
0000
0000
0000
0000
0000
0000
0000
0000
0000
0000
0000
0000
0000
0000
0000
0000
0003
0000
0000
0000
0000
0000
0000
0000
0000
0000
0000
0000
0000
0000
0000
0000
0001
0000
0000
0000
0000
0000
0010
0000
0000
0000
0000
0000
0100
0000
0000
0000
0000
0000
0001
0000
0000
0000
0000
0000
0010
0000
0000
0000
0000
0000
0100
0000
0000
0000
0000
0000
0001
0000
0000
0000
0000
0000
0010
0000
0000
0000
0000
0000
,
1000
0001
0010
1000
0001
0010
1000
0001
0100
1000
0001
0100
1000
0001
0100
1000
0010
0100
1000
0010
0100
1000
0010
0100
2000
0000
3000
0000
2200
0000
3300
0000
,
2200
3300
0220
0330
0000
0000
0000
0000
0000
0000
0220
0330
2200
3300
2200
3300
,
2200
3300
0220
0330
0000
0000
0000
0000
0000
0000
0220
0330
2200
3300
2200
3300
,
2200
3300
0220
0330
0000
0000
0000
0000
0000
0000
0000
0000
1001
0101
1010
0100
,
0011
1000
0110
1000
0011
0100
0011
0100
1001
0010
0101
0010
2201
3300
2200
3300
,
2201
3300
0220
0330
1000
0000
0001
0000
1011
0000
0220
0330
2200
3300
2200
3300
,
2201
3300
0220
0330
1000
0000
0001
0000
1011
0000
0220
0330
2200
3300
2200
3300
,
2201
3300
0220
0330
1000
0000
0001
0000
1011
0000
0000
0000
1001
0101
1010
0100
,
0011
1000
0110
1000
0011
0100
0011
0100
1001
0010
0101
0010
1100
0000
1000
0000
,
0011
1000
0000
1000
0011
1000
0000
1000
,
0011
1000
0000
1000
0011
0000
1000
1000
,
0011
1000
0000
1000
0011
1000
1000
1000
,
0000
1000
0000
1000
0011
0000
1011
1000
,
0011
1000
0000
1000
0011
1000
0000
1000
,
0011
1000
0000
1000
0011
0000
1000
1000
,
0011
0000
1000
0000
0000
0000
1000
0000
0011
0000
1000
0000
1001
0101
1010
0100
,
0011
1000
0110
1000
0011
0100
0011
0100
1001
0010
0101
0010
1100
0000
1000
0000
,
0011
1000
0000
1000
0011
1000
0000
1000
,
0011
1000
0000
1000
0011
0000
1000
1000
,
0011
1000
0000
1000
0011
1000
1000
1000
,
0000
1000
0000
1000
0011
0000
1011
1000
,
0011
1000
0000
1000
0011
1000
0000
1000
,
0011
1000
0000
1000
0011
0000
1000
1000
,
0011
0000
1000
0000
0000
0000
1000
0000
0011
0000
1000
0000
1001
0101
1010
0100
,
0011
1000
0110
1000
0011
0100
0011
0100
1001
0010
0101
0010
1001
0101
1010
0100
,
0011
1000
0110
1000
0011
0100
0011
0100
1001
0010
0101
0010
1001
0101
1010
0100
,
0011
0000
0000
0000
1000
0000
0000
0000
0110
0000
0000
0000
1000
0000
0000
0000
0011
0000
0000
0000
0100
0000
0000
0000
0011
0000
0000
0000
0100
0000
0000
0000
1001
0000
0000
0000
0010
0000
0000
0000
0101
0000
0000
0000
0010
0000
0000
0000
2202
0000
0000
0000
0000
0000
0000
3000
0300
0003
0000
0000
0000
0000
0000
0000
;
