#TITLE:Beethoven's 5th Symphony;
#SUBTITLE:;
#ARTIST:Unknown artist;
#TITLETRANSLIT:;
#SUBTITLETRANSLIT:;
#ARTISTTRANSLIT:;
#CREDIT:;
#BANNER:;
#BACKGROUND:;
#LYRICSPATH:;
#CDTITLE:;
#MUSIC:Beethoven's 5th Symphony.mp3;
#OFFSET:0.000;
#SAMPLESTART:100.000;
#SAMPLELENGTH:12.000;
#SELECTABLE:YES;
#BPMS:0.000=300.000,50.000=120.000,88.000=240.000,134.000=120.000,185.000=299.999,264.500=59.999,273.000=299.999,289.000=59.999,297.500=299.999,386.000=119.999,411.000=239.999,458.000=229.999,458.500=219.999,459.000=209.999,459.500=200.000,460.000=189.999,460.500=179.999,461.000=169.999,461.500=159.999,462.000=149.999,462.500=139.999,463.000=129.999,463.500=119.999,464.000=109.999,464.500=99.999;
#STOPS:;
#BGCHANGES:0.000=background.JPG=1.000=0=0=1,
99999=-nosongbg-=1.000=0=0=0 // don't automatically add -songbackground-
;
// cache tags:
#FIRSTBEAT:0.000;
#LASTBEAT:510.000;
#SONGFILENAME:Songs/juju steps/Beethoven's 5th Symphony/Beethoven's 5th Symphony.sm;
#HASMUSIC:1;
#HASBANNER:0;
#MUSICLENGTH:178.920;
// end cache tags

//---------------dance-single - ----------------
#NOTES:
     dance-single:
     :
     Hard:
     9:
     0.787,1.000,0.302,1.000,0.551,630.000,54.000,300.000,0.000,12.000:
1100
0000
0000
0011
0000
0000
1100
0000
,
0000
0022
0000
0000
0000
0000
0000
0000
,
0000
0000
0000
0000
,
0000
0000
0000
0000
,
0000
0000
0000
0000
,
0000
0000
0000
0000
1133
0000
0000
0110
,
0000
0000
0011
0000
0000
0222
0000
0000
,
0000
0000
0000
0000
,
0000
0000
0000
0000
,
0000
0000
0000
0000
,
0000
0000
0000
0000
,
0000
0000
0000
0000
,
0000
0000
0000
0000
0000
0000
2333
3200
0320
0032
0203
0320
,
0230
0302
2003
3200
0302
0023
0032
0203
0320
2030
3002
0023
,
2030
3200
2300
3002
0203
0320
0032
2003
3020
0032
0203
2300
,
3200
0320
2030
3200
0320
0230
0320
0230
2300
3200
0320
0032
,
0023
0230
2300
3200
2300
3200
0320
0230
0320
0032
0023
0032
,
0023
0032
0023
0230
2300
3200
2300
3200
0320
0032
0023
0230
,
0320
0230
0320
0230
0320
2030
3011
0011
0011
0011
0022
0000
,
0000
0000
0000
0000
,
0000
0133
0100
0100
0100
0200
0000
0000
0000
0000
0000
0000
,
0000
0000
0000
0000
,
1310
0000
0000
0000
0000
0110
0000
0000
,
0000
0011
0000
0000
0000
1100
0000
0000
,
0000
0000
1001
0000
0000
0110
0000
0000
,
1001
0000
0000
0000
0000
1100
0000
0000
,
0000
0000
0010
0100
1000
0100
0010
0100
,
1000
0100
0010
0100
1000
0100
0011
0000
,
0000
0000
1100
0000
,
0110
0000
0011
0000
,
1100
0000
0000
0110
0001
0000
0000
0000
,
0110
0000
1000
0000
,
0100
0010
0001
0010
0100
1000
0100
0010
,
0001
0000
0000
0010
0000
0000
0100
0000
0000
1000
0000
0000
0200
0000
0320
0000
0032
0000
2003
0000
3020
0000
0230
0000
,
0302
0023
2030
3002
0203
0320
0032
0203
2300
3200
0320
0032
,
0203
0320
0230
0320
2030
3200
0320
0032
0023
0230
0320
0032
,
0023
0230
0320
2030
3200
2300
3200
0320
0032
2003
3020
0230
,
0302
0023
2030
3002
0203
0320
0032
0203
2300
3200
0320
0032
,
0203
0320
0230
0320
2030
3200
0320
0032
0023
0230
0320
0032
,
0023
0230
0320
2030
3200
2300
3200
0320
0032
2003
3020
0230
,
0302
0023
2030
3002
0203
0320
0032
0203
2300
3200
0320
0032
,
0203
0320
0230
0320
2030
3200
0320
0032
0023
0230
0320
0032
,
0023
0230
0320
2030
3200
2300
3200
0320
0032
2003
3020
0230
,
0302
0023
2030
3002
0203
0320
0032
0203
2300
3200
0320
0032
,
0203
0320
0230
0320
2030
3200
0320
0032
0023
0230
0320
0032
,
0023
0230
0320
2030
3200
2300
3200
0320
0032
0023
0230
2300
,
3200
0000
0320
0000
0032
0000
1003
0000
0000
0001
0000
0000
0000
0000
0000
0001
0000
0000
0000
0000
0000
0001
0000
0000
,
0000
0001
1000
0000
1000
0000
1000
0000
,
1000
0100
0000
0100
0000
0100
0000
0100
,
0010
0000
0010
0000
0010
0000
0010
0100
,
0000
0100
0000
0100
0000
0100
1000
0000
,
1000
0000
1000
0000
1000
0100
0000
0100
,
0000
0100
0000
0100
0010
0000
0010
0000
,
0010
0000
0010
0001
0000
0001
0000
0001
,
0000
0001
1000
0000
1000
0000
1000
0000
,
1000
0001
0000
0001
0000
0001
0000
0001
,
1000
0000
1000
0000
1000
0000
1000
0001
,
0000
0001
0000
0001
0000
0001
0100
0000
,
0100
0000
0100
0000
0100
0010
0000
0010
,
0000
0010
0000
0010
1000
0000
1000
0000
,
1000
0000
1000
0001
0000
0001
0000
0001
,
0000
0001
0010
0000
0010
0000
0010
0000
,
0010
0100
0000
0100
0000
0100
0000
0100
,
1000
0000
1000
0000
1000
0000
1000
0001
,
0000
0001
0000
0001
0000
0001
0010
0000
,
0010
0000
0010
0000
0010
0100
0000
0100
,
0000
0000
0200
0000
0000
0000
0310
0002
0000
0023
0000
0000
0230
0000
2300
0000
,
3200
0000
0000
0000
0000
0320
0000
0000
0000
0031
0002
0000
0203
0000
0000
2300
,
0000
3200
0000
0000
1300
0000
0000
0000
1000
0000
0000
0000
1000
0000
0000
0000
,
1000
0100
0000
0100
0000
0100
0000
0100
,
0010
0000
0010
0000
0010
0000
0010
0001
,
0000
0001
0000
0001
0000
0001
0010
0000
,
0010
0000
0000
0000
0200
0000
0000
0000
0310
0002
0000
0023
0000
0000
0230
0000
,
2300
0000
3200
0000
0000
0000
0000
0320
0000
0000
0000
0031
0002
0000
0203
0000
,
0000
2300
0000
3200
0000
0000
1300
0000
0000
0000
1000
0000
0000
0000
1000
0000
,
0000
1000
0100
0000
0100
0000
0100
0000
,
0100
1000
0000
1000
0000
1000
0000
1000
,
0010
0000
0010
0000
0010
0000
0010
0001
,
0000
0001
0000
0001
0000
0001
0010
0000
,
0010
0000
0010
0000
0010
0100
0000
0100
,
0000
0100
0000
0100
0001
0000
0001
0000
,
0001
0000
0001
1000
0000
1000
0000
1000
,
0000
1000
0100
0000
0100
0000
0100
0000
,
0100
0001
0000
0001
0000
0001
0000
0001
,
0010
0000
0010
0000
0010
0000
0010
0100
,
0000
0100
0000
0100
0000
0100
1000
0000
,
1000
0000
1000
0000
1000
0100
0000
0100
,
0000
0100
0000
0100
0010
0000
0010
0000
,
0010
0000
0010
0100
0000
0100
0000
0100
,
0000
0100
0010
0000
0010
0000
0010
0000
,
0010
0001
0000
0001
0000
0001
0000
0001
,
0010
0000
0010
0000
0010
0000
0010
1000
,
0000
1000
0000
1000
0000
1000
0100
0000
,
0100
0000
0100
0000
0100
0010
0000
0010
,
0000
0010
0000
0010
0001
0000
0001
0000
,
0001
0000
0001
1000
0000
1000
0000
1000
,
0000
0000
0000
1000
0000
0000
0100
0000
0000
0000
0000
0000
2000
0000
3200
0000
0320
0000
0032
0000
0203
0000
0320
0000
,
0230
0302
2003
3200
0302
0023
0032
0203
0320
2030
3002
0023
,
2030
3200
2300
3002
0203
0320
0032
2003
3020
0032
0203
2300
,
3200
0320
2030
3200
0300
0011
0011
0011
0022
0000
0000
0000
,
0000
0000
0000
0000
0000
0000
0000
0000
0000
0000
0000
0133
,
0100
0100
0100
0200
0000
0000
0000
0000
0000
0000
0000
0000
,
0000
0000
0000
1310
,
0000
0000
0000
0110
0000
0000
0000
0000
,
0011
0000
0000
0000
0110
0001
0000
0000
,
0000
1100
0000
0000
0110
0000
0000
0000
,
0000
1100
0000
0000
0000
0110
0000
0000
,
1000
0100
0010
0001
0010
0100
1000
0100
,
0010
0001
0010
0100
1000
0110
0000
0000
,
0000
1001
0000
1001
,
0000
0000
0000
1001
0000
0000
0000
0000
,
1001
0000
0000
0110
0000
0000
1001
0000
,
0000
0000
1001
0000
0000
0000
1000
0100
,
1000
0100
0010
0001
0010
0001
0010
0100
,
1000
0100
1000
0100
1000
0100
0010
0001
,
0010
0100
1000
0100
0010
0001
0010
0100
,
1000
0222
0000
0000
0000
0000
0000
0000
,
0000
0000
0000
0000
,
1333
1000
1000
2000
0000
0000
0000
0000
,
0000
0000
0000
0000
,
3110
0011
0101
0000
2020
0000
0000
0000
,
0000
0000
0000
0000
,
0000
0000
0000
0000
,
0000
0000
0000
0202
3030
0000
0000
0000
,
0000
0000
0000
0000
,
0000
0000
0000
0000
,
0000
0000
0000
0000
,
0000
0000
0303
0000
;
