#TITLE:Azure Lake;
#SUBTITLE:Sonic 3;
#ARTIST:EliteFerrex;
#TITLETRANSLIT:;
#SUBTITLETRANSLIT:;
#ARTISTTRANSLIT:;
#CREDIT:owenviau1;
#BANNER:../owenviau1 Simfiles 6 (Science X Owen).png;
#BACKGROUND:BG.PNG;
#LYRICSPATH:;
#CDTITLE:;
#MUSIC:123740_Azure_Lake.mp3;
#OFFSET:-0.047;
#SAMPLESTART:60.007;
#SAMPLELENGTH:12.000;
#SELECTABLE:YES;
#DISPLAYBPM:160.000;
#BPMS:0.000=160.000;
#STOPS:;
#BGCHANGES:;
// cache tags:
#FIRSTBEAT:0.000;
#LASTBEAT:368.000;
#SONGFILENAME:Songs/owenviau1 Simfiles 6/Azure Lake - [owenviau1] v1.0.3/Azure Lake.sm;
#HASMUSIC:1;
#HASBANNER:1;
#MUSICLENGTH:138.370;
// end cache tags

//---------------dance-single - 14 (owenviau1)----------------
#NOTES:
     dance-single:
     14 (owenviau1):
     Hard:
     14:
     1.000,1.000,0.202,0.000,1.000,1405.000,28.000,0.000,0.000,0.000:
1000
0100
0000
0010
0001
0000
1000
0010
0100
0001
0000
1000
0010
0000
0100
0001
,
1000
0100
0000
0010
0001
0000
1000
0001
0100
0010
0000
1000
0100
0000
0010
0001
,
1000
0010
0000
0100
0001
0000
1000
0010
0100
0001
0000
1000
0010
0000
0100
0001
,
1000
0100
0000
0010
0001
0000
1000
0001
0100
0010
0000
1000
0100
0000
0010
0001
,
1001
1000
0110
1000
0101
0010
1001
0100
,
0110
0001
1100
1000
0011
0100
1010
0010
,
0101
0010
1001
0001
0110
0001
1100
1000
,
0011
0100
1010
1000
0101
0010
1001
0010
,
0101
0000
1000
0000
1010
0000
0001
0000
0110
0000
0001
0000
1000
0001
0010
0000
,
0101
0000
1000
0000
0110
0000
1000
0000
0011
0000
0100
0000
1000
0010
1000
0000
,
0101
0000
0010
0000
1001
0000
1000
0000
0110
0000
0010
0000
1000
0001
0100
0000
,
1010
0000
0001
0000
0110
0000
0010
0000
1001
0000
0100
0000
1000
0010
0100
0000
,
1000
0001
1000
0010
0100
0001
1000
0100
0010
0001
0100
0010
1000
0001
0100
0010
,
1000
0100
0010
0001
0100
0010
1000
0001
0010
0001
0100
0010
1000
0100
0010
0001
,
0100
0010
1000
0001
0100
0001
1000
0010
0100
0001
1000
0100
0010
0001
0100
0010
,
1000
0000
0000
0001
0000
0000
0010
0000
0000
0001
0000
0000
0100
0000
0000
0010
0000
0000
1000
0000
0000
0100
0000
0000
0010
0000
0000
0001
0000
0000
0100
0000
0000
0010
0000
0000
1000
0000
0100
0000
0010
0000
0001
0000
1000
0000
0010
0000
,
0100
0001
1000
0100
0010
0001
0100
0010
1000
0001
0100
0010
1000
0100
0010
0001
,
0100
0010
1000
0001
0010
0001
0100
0010
1000
0100
0010
0001
0100
0010
1000
0001
,
0100
0001
1000
0010
0100
0001
1000
0100
0010
0001
0100
0010
1000
0001
0010
0001
,
0100
0010
1000
0100
0010
0001
0100
0010
1000
0001
1000
0010
0100
0010
1000
0001
,
0100
0010
1000
0100
0010
0001
0100
0001
1000
0010
0100
0001
1000
0100
1000
0001
,
0100
0010
1000
0001
0010
0001
0100
0010
1000
0100
0010
0001
0100
0001
1000
0010
,
1000
0001
0100
0010
1000
0100
0010
0001
0100
0010
1000
0001
0010
0001
0100
0010
,
1000
0000
0000
0100
0000
0000
0010
0000
0000
0001
0000
0000
0100
0000
0000
0010
0000
0000
1000
0000
0000
0001
0000
0000
0100
0000
0000
0001
0000
0000
1000
0000
0000
0010
0000
0000
0100
0000
0001
0000
1000
0000
0001
0000
0100
0000
0010
0000
,
1000
0001
0100
0010
1000
0001
0010
0001
0100
0010
1000
0100
0010
0001
0100
0010
,
1000
0001
1000
0010
0100
0010
1000
0001
0100
0010
1000
0100
0010
0001
0100
0001
,
1000
0010
0100
0001
1000
0100
1000
0001
0100
0010
1000
0001
0010
0001
0100
0010
,
1000
0100
0010
0001
0100
0010
1000
0100
1000
0001
0100
0010
1000
0100
0010
0001
,
0100
0010
1000
0001
0010
0001
0100
0010
1000
0100
0010
0001
0100
0010
1000
0001
,
0100
0001
1000
0010
0100
0001
1000
0100
0010
0001
0100
0010
1000
0001
0010
0001
,
0100
0010
1000
0100
0010
0001
0100
0010
1000
0001
1000
0010
0100
0010
1000
0001
,
0100
0010
1000
0100
0010
0001
0100
0001
1000
0010
0100
0001
1000
0100
1000
0001
,
0100
0010
1000
0001
0010
0001
0100
0010
1000
0100
0010
0001
0100
0010
1000
0001
,
0100
0001
1000
0010
1000
0100
0010
0001
0100
0010
1000
0001
0010
0001
0100
0010
,
1000
0100
0010
0001
0100
0010
1000
0001
0100
0001
1000
0010
0100
0001
1000
0100
,
0010
0001
0100
0010
1000
0001
0010
0001
0100
0010
1000
0100
0010
0001
0100
0010
,
1000
0001
1000
0010
0100
0010
1000
0001
0100
0010
1000
0100
0010
0001
0100
0001
,
1000
0010
0100
0001
1000
0100
1000
0001
0100
0010
1000
0001
0010
0001
0100
0010
,
1000
0100
0010
0001
0100
0001
1000
0010
1000
0001
0100
0010
1000
0100
0010
0001
,
0100
0000
0000
0010
0000
0000
1000
0000
0000
0001
0000
0000
0010
0000
0000
0001
0000
0000
0100
0000
0000
0010
0000
0000
1000
0000
0001
0000
1000
0000
0010
0000
0100
0000
0001
0000
1000
0000
0100
0000
0010
0000
0001
0000
0010
0000
0100
0000
,
1000
0001
0100
0010
1000
0100
0010
0001
0100
0010
1000
0001
0010
0001
0100
0010
,
1000
0100
0010
0001
0100
0010
1000
0001
0100
0001
1000
0010
0100
0001
1000
0100
,
0010
0001
0100
0010
1000
0001
0010
0001
0100
0010
1000
0100
0010
0001
0100
0010
,
1000
0001
1000
0010
0100
0010
1000
0001
0100
0010
1000
0100
0010
0001
0100
0001
,
1000
0010
0100
0001
1000
0100
1000
0001
0100
0010
1000
0001
0010
0001
0100
0010
,
1000
0100
0010
0001
0100
0001
1000
0010
1000
0001
0100
0010
1000
0100
0010
0001
,
0100
0010
1000
0001
0010
0001
0100
0010
1000
0001
0100
0010
1000
0100
0010
0001
,
0100
0010
1000
0001
0010
0001
0100
0010
1000
0100
0010
0001
0100
0010
1000
0001
,
0100
0001
1000
0010
0100
0001
1000
0100
0010
0001
0100
0010
1000
0001
0010
0001
,
0100
0000
0000
0010
0000
0000
1000
0000
0000
0100
0000
0000
0010
0000
0000
0001
0000
0000
0100
0000
0000
0010
0000
0000
1000
0000
0100
0000
1000
0000
0001
0000
0100
0000
0010
0000
1000
0000
0100
0000
0010
0000
0001
0000
0100
0000
0001
0000
,
1000
0100
0000
0010
0001
0000
1000
0010
0100
0001
0000
1000
0010
0000
0100
0001
,
1000
0100
0000
0010
0001
0000
1000
0001
0100
0010
0000
1000
0100
0000
0010
0001
,
1000
0010
0000
0100
0001
0000
1000
0010
0100
0001
0000
1000
0010
0000
0100
0001
,
1000
0100
0000
0010
0001
0000
1000
0001
0100
0010
0000
1000
0100
0000
0010
0001
,
1000
0001
0100
0010
0100
0001
1000
0100
0010
0001
0100
0010
1000
0001
0100
0010
,
1000
0100
0010
0001
0100
0010
1000
0001
0010
0001
0100
0010
1000
0100
0010
0001
,
0100
0010
1000
0001
0100
0001
1000
0010
0100
0001
1000
0100
0010
0001
0100
0010
,
1000
0000
0000
0001
0000
0000
0010
0000
0000
0001
0000
0000
0100
0000
0000
0010
0000
0000
1000
0000
0000
0100
0000
0000
0010
0000
0000
0001
0000
0000
0100
0000
0000
0010
0000
0000
1000
0000
0100
0000
0010
0000
0001
0000
1000
0000
0010
0000
,
0100
0001
1000
0100
0010
0001
0100
0010
1000
0001
0100
0010
1000
0100
0010
0001
,
0100
0010
1000
0001
0010
0001
0100
0010
1000
0100
0010
0001
0100
0010
1000
0001
,
0100
0001
1000
0010
0100
0001
1000
0100
0010
0001
0100
0010
1000
0001
0010
0001
,
0100
0010
1000
0100
0010
0001
0100
0010
1000
0001
1000
0010
0100
0010
1000
0001
,
0100
0010
1000
0100
0010
0001
0100
0001
1000
0010
0100
0001
1000
0100
1000
0001
,
0100
0010
1000
0001
0010
0001
0100
0010
1000
0100
0010
0001
0100
0001
1000
0010
,
1000
0001
0100
0010
1000
0100
0010
0001
0100
0010
1000
0001
0010
0001
0100
0010
,
1000
0000
0000
0100
0000
0000
0010
0000
0000
0001
0000
0000
0100
0000
0000
0010
0000
0000
1000
0000
0000
0001
0000
0000
0100
0000
0000
0001
0000
0000
1000
0000
0000
0010
0000
0000
0100
0000
0001
0000
1000
0000
0001
0000
0100
0000
0010
0000
,
1000
0001
0100
0010
1000
0001
0010
0001
0100
0010
1000
0100
0010
0001
0100
0010
,
1000
0001
1000
0010
0100
0010
1000
0001
0100
0010
1000
0100
0010
0001
0100
0001
,
1000
0010
0100
0001
1000
0100
1000
0001
0100
0010
1000
0001
0010
0001
0100
0010
,
1000
0100
0010
0001
0100
0010
1000
0100
1000
0001
0100
0010
1000
0100
0010
0001
,
0100
0010
1000
0001
0010
0001
0100
0010
1000
0100
0010
0001
0100
0010
1000
0001
,
0100
0001
1000
0010
0100
0001
1000
0100
0010
0001
0100
0010
1000
0001
0010
0001
,
0100
0010
1000
0100
0010
0001
0100
0010
1000
0001
1000
0010
0100
0010
1000
0001
,
0100
0010
1000
0100
0010
0001
0100
0001
1000
0010
0100
0001
1000
0100
1000
0001
,
0100
0010
1000
0001
0010
0001
0100
0010
1000
0100
0010
0001
0100
0010
1000
0001
,
0100
0001
1000
0010
1000
0100
0010
0001
0100
0010
1000
0001
0010
0001
0100
0010
,
1000
0100
0010
0001
0100
0010
1000
0001
0100
0001
1000
0010
0100
0001
1000
0100
,
0010
0001
0100
0010
1000
0001
0010
0001
0100
0010
1000
0100
0010
0001
0100
0010
,
1000
0001
1000
0010
0100
0010
1000
0001
0100
0010
1000
0100
0010
0001
0100
0001
,
1000
0010
0100
0001
1000
0100
1000
0001
0100
0010
1000
0001
0010
0001
0100
0010
,
1000
0100
0010
0001
0100
0001
1000
0010
1000
0001
0100
0010
1000
0100
0010
0001
,
0100
0000
0000
0010
0000
0000
1000
0000
0000
0001
0000
0000
0010
0000
0000
0001
0000
0000
0100
0000
0000
0010
0000
0000
1000
0000
0001
0000
1000
0000
0010
0000
0100
0000
0001
0000
1000
0000
0100
0000
0010
0000
0001
0000
0010
0000
0100
0000
,
1000
0001
0100
0010
1000
0100
0010
0001
0100
0010
1000
0001
0010
0001
0100
0010
,
1000
0100
0010
0001
0100
0010
1000
0001
0100
0001
1000
0010
0100
0001
1000
0100
,
0010
0001
0100
0010
1000
0001
0010
0001
0100
0010
1000
0100
0010
0001
0100
0010
,
1000
0001
1000
0010
0100
0010
1000
0001
0100
0010
1000
0100
0010
0001
0100
0001
,
1000
0010
0100
0001
1000
0100
1000
0001
0100
0010
1000
0001
0010
0001
0100
0010
,
1000
0100
0010
0001
0100
0001
1000
0010
1000
0001
0100
0010
1000
0100
0010
0001
,
0100
0010
1000
0001
0010
0001
0100
0010
1000
0001
0100
0010
1000
0100
0010
0001
,
0100
0010
1000
0001
0010
0001
0100
0010
1000
0100
0010
0001
0100
0010
1000
0001
,
0100
0001
1000
0010
0100
0001
1000
0100
0010
0001
0100
0010
1000
0001
0010
0001
,
0100
0000
0000
0010
0000
0000
1000
0000
0000
0100
0000
0000
0010
0000
0000
0001
0000
0000
0100
0000
0000
0010
0000
0000
1000
0000
0100
0000
1000
0000
0001
0000
0100
0000
0010
0000
1000
0000
0100
0000
0010
0000
0001
0000
0100
0000
0001
0000
,
1000
0000
0000
0000
;

//---------------dance-single - 22 (owenviau1)----------------
#NOTES:
     dance-single:
     22 (owenviau1):
     Challenge:
     22:
     1.000,1.000,0.202,0.000,1.000,1929.000,28.000,0.000,0.000,0.000:
1000
0100
0000
0010
0001
0000
1000
0010
0100
0001
0000
1000
0010
0000
0100
0001
,
1000
0100
0000
0010
0001
0000
1000
0001
0100
0010
0000
1000
0100
0000
0010
0001
,
1000
0010
0000
0100
0001
0000
1000
0010
0100
0001
0000
1000
0010
0000
0100
0001
,
1000
0100
0000
0010
0001
0000
1000
0001
0100
0010
0000
1000
0100
0000
0010
0001
,
1001
1000
0110
1000
0101
0010
1001
0100
,
0110
0001
1100
1000
0011
0100
1010
0010
,
0101
0010
1001
0001
0110
0001
1100
1000
,
0011
0100
1010
1000
0101
0010
1001
0010
,
0101
0000
1000
0000
1010
0000
0001
0000
0110
0000
0001
0000
1000
0001
0010
0000
,
0101
0000
1000
0000
0110
0000
1000
0000
0011
0000
0100
0000
1000
0010
1000
0000
,
0101
0000
0010
0000
1001
0000
1000
0000
0110
0000
0010
0000
1000
0001
0100
0000
,
1010
0000
0001
0000
0110
0000
0010
0000
1001
0000
0100
0000
1000
0010
0100
0000
,
1000
0001
1000
0010
0100
0001
1000
0100
0010
0001
0100
0010
1000
0001
0100
0010
,
1000
0100
0010
0001
0100
0010
1000
0001
0010
0001
0100
0010
1000
0100
0010
0001
,
0100
0010
1000
0001
0100
0001
1000
0010
0100
0001
1000
0100
0010
0001
0100
0010
,
1000
0000
0000
0001
0000
0000
0010
0000
0000
0001
0000
0000
0100
0000
0000
0010
0000
0000
1000
0000
0000
0100
0000
0000
0010
0000
0000
0001
0000
0000
0100
0000
0000
0010
0000
0000
1000
0000
0100
0000
0010
0000
0001
0000
1000
0000
0010
0000
,
0100
0001
1000
0100
0010
0001
0100
0010
1000
0001
0010
0001
1000
0100
1000
0010
0100
0010
1000
0001
0100
0001
1000
0100
,
0010
0001
0100
0010
1000
0001
0010
0001
1000
0100
0010
0001
0100
0010
1000
0001
0100
0001
1000
0010
1000
0001
0010
0100
,
1000
0001
1000
0100
0010
0001
0100
0010
1000
0001
0100
0001
1000
0010
0100
0001
1000
0100
0010
0001
1000
0100
1000
0010
,
0100
0001
0100
0010
1000
0100
0010
0001
1000
0010
0100
0001
0010
0100
1000
0010
0100
0001
1000
0001
0100
0010
1000
0100
,
0010
0001
1000
0100
1000
0001
0100
0010
1000
0001
0010
0001
1000
0100
0010
0001
0100
0010
1000
0001
0100
0001
1000
0100
,
1000
0010
0100
0001
1000
0010
0100
0001
0100
0010
1000
0100
0010
0001
1000
0100
1000
0001
0010
0001
1000
0100
0010
0001
,
0100
0010
1000
0001
0100
0001
1000
0010
0100
0001
1000
0100
0010
0001
0100
0010
0100
0001
0010
0100
1000
0010
0100
0010
,
1000
0100
0010
0001
0100
0010
1000
0001
0010
0001
1000
0100
0010
0001
0100
0010
1000
0001
1000
0100
0010
0001
0010
0100
,
1000
0001
1000
0100
0010
0001
0100
0010
1000
0001
0010
0001
1000
0100
1000
0010
0100
0010
1000
0001
0100
0001
1000
0100
,
0010
0001
0100
0010
1000
0001
0010
0001
1000
0100
0010
0001
0100
0010
1000
0001
0100
0001
1000
0010
1000
0001
0010
0100
,
1000
0001
1000
0100
0010
0001
0100
0010
1000
0001
0100
0001
1000
0010
0100
0001
1000
0100
0010
0001
1000
0100
1000
0010
,
0100
0001
0100
0010
1000
0100
0010
0001
1000
0010
0100
0001
0010
0100
1000
0010
0100
0001
1000
0001
0100
0010
1000
0100
,
0010
0001
1000
0100
1000
0001
0100
0010
1000
0001
0010
0001
1000
0100
0010
0001
0100
0010
1000
0001
0100
0001
1000
0100
,
1000
0010
0100
0001
1000
0010
0100
0001
0100
0010
1000
0100
0010
0001
1000
0100
1000
0001
0010
0001
1000
0100
0010
0001
,
0100
0010
1000
0001
0100
0001
1000
0010
0100
0001
1000
0100
0010
0001
0100
0010
0100
0001
0010
0100
1000
0010
0100
0010
,
1000
0100
0010
0001
0100
0010
1000
0001
0010
0001
1000
0100
0010
0001
0100
0010
1000
0001
0100
0001
1000
0100
0010
0001
,
0100
0010
1000
0001
0010
0001
1000
0100
1000
0010
0100
0010
1000
0001
0100
0001
1000
0100
0010
0001
0100
0010
1000
0001
,
0010
0001
1000
0100
0010
0001
0100
0010
1000
0001
0100
0001
1000
0010
1000
0001
0010
0100
1000
0001
1000
0100
0010
0001
,
0100
0010
1000
0001
0100
0001
1000
0010
0100
0001
1000
0100
0010
0001
1000
0100
1000
0010
0100
0001
0100
0010
1000
0100
,
0010
0001
1000
0010
0100
0001
0010
0100
1000
0010
0100
0001
1000
0001
0100
0010
1000
0100
0010
0001
1000
0100
1000
0001
,
0100
0010
1000
0001
0010
0001
1000
0100
0010
0001
0100
0010
1000
0001
0100
0001
1000
0100
1000
0010
0100
0001
1000
0010
,
0100
0001
0100
0010
1000
0100
0010
0001
1000
0100
1000
0001
0010
0001
1000
0100
0010
0001
0100
0010
1000
0001
0100
0001
,
1000
0010
0100
0001
1000
0100
0010
0001
0100
0010
0100
0001
0010
0100
1000
0010
0100
0010
1000
0100
0010
0001
0100
0010
,
1000
0001
0010
0001
1000
0100
0010
0001
0100
0010
1000
0001
0100
0001
1000
0100
0010
0001
0100
0010
1000
0001
0010
0001
,
1000
0100
1000
0010
0100
0010
1000
0001
0100
0001
1000
0100
0010
0001
0100
0010
1000
0001
0010
0001
1000
0100
0010
0001
,
0100
0010
1000
0001
0100
0001
1000
0010
1000
0001
0010
0100
1000
0001
1000
0100
0010
0001
0100
0010
1000
0001
0100
0001
,
1000
0010
0100
0001
1000
0100
0010
0001
1000
0100
1000
0010
0100
0001
0100
0010
1000
0100
0010
0001
1000
0010
0100
0001
,
0010
0100
1000
0010
0100
0001
1000
0001
0100
0010
1000
0100
0010
0001
1000
0100
1000
0001
0100
0010
1000
0001
0010
0001
,
1000
0100
0010
0001
0100
0010
1000
0001
0100
0001
1000
0100
1000
0010
0100
0001
1000
0010
0100
0001
0100
0010
1000
0100
,
0010
0001
1000
0100
1000
0001
0010
0001
1000
0100
0010
0001
0100
0010
1000
0001
0100
0001
1000
0010
0100
0001
1000
0100
,
0010
0001
0100
0010
0100
0001
0010
0100
1000
0010
0100
0010
1000
0100
0010
0001
0100
0010
1000
0001
0010
0001
1000
0100
,
0010
0001
0100
0010
1000
0001
1000
0100
0010
0001
0100
0010
1000
0001
0010
0001
1000
0100
0010
0001
0100
0010
1000
0001
,
0100
0001
1000
0010
0100
0001
1000
0100
0010
0001
1000
0100
1000
0001
0100
0010
0100
0001
1000
0100
0010
0001
1000
0010
,
0100
0010
1000
0001
0100
0001
1000
0100
0010
0001
0100
0010
1000
0100
0010
0001
1000
0010
1000
0001
0100
0001
1000
0100
,
0010
0001
0000
1000
0001
0000
1000
0010
0100
0001
0000
1000
0010
0000
0100
0001
,
1000
0100
0000
0010
0001
0000
1000
0001
0100
0010
0000
1000
0100
0000
0010
0001
,
1000
0010
0000
0100
0001
0000
1000
0010
0100
0001
0000
1000
0010
0000
0100
0001
,
1000
0100
0000
0010
0001
0000
1000
0001
0100
0010
0000
1000
0100
0000
0010
0001
,
1000
0001
0100
0010
0100
0001
1000
0100
0010
0001
0100
0010
1000
0001
0100
0010
,
1000
0100
0010
0001
0100
0010
1000
0001
0010
0001
0100
0010
1000
0100
0010
0001
,
0100
0010
1000
0001
0100
0001
1000
0010
0100
0001
1000
0100
0010
0001
0100
0010
,
1000
0000
0000
0001
0000
0000
0010
0000
0000
0001
0000
0000
0100
0000
0000
0010
0000
0000
1000
0000
0000
0100
0000
0000
0010
0000
0000
0001
0000
0000
0100
0000
0000
0010
0000
0000
1000
0000
0100
0000
0010
0000
0001
0000
1000
0000
0010
0000
,
0100
0001
1000
0100
0010
0001
0100
0010
1000
0001
0010
0001
1000
0100
1000
0010
0100
0010
1000
0001
0100
0001
1000
0100
,
0010
0001
0100
0010
1000
0001
0010
0001
1000
0100
0010
0001
0100
0010
1000
0001
0100
0001
1000
0010
1000
0001
0010
0100
,
1000
0001
1000
0100
0010
0001
0100
0010
1000
0001
0100
0001
1000
0010
0100
0001
1000
0100
0010
0001
1000
0100
1000
0010
,
0100
0001
0100
0010
1000
0100
0010
0001
1000
0010
0100
0001
0010
0100
1000
0010
0100
0001
1000
0001
0100
0010
1000
0100
,
0010
0001
1000
0100
1000
0001
0100
0010
1000
0001
0010
0001
1000
0100
0010
0001
0100
0010
1000
0001
0100
0001
1000
0100
,
1000
0010
0100
0001
1000
0010
0100
0001
0100
0010
1000
0100
0010
0001
1000
0100
1000
0001
0010
0001
1000
0100
0010
0001
,
0100
0010
1000
0001
0100
0001
1000
0010
0100
0001
1000
0100
0010
0001
0100
0010
0100
0001
0010
0100
1000
0010
0100
0010
,
1000
0100
0010
0001
0100
0010
1000
0001
0010
0001
1000
0100
0010
0001
0100
0010
1000
0001
1000
0100
0010
0001
0010
0100
,
1000
0001
1000
0100
0010
0001
0100
0010
1000
0001
0010
0001
1000
0100
1000
0010
0100
0010
1000
0001
0100
0001
1000
0100
,
0010
0001
0100
0010
1000
0001
0010
0001
1000
0100
0010
0001
0100
0010
1000
0001
0100
0001
1000
0010
1000
0001
0010
0100
,
1000
0001
1000
0100
0010
0001
0100
0010
1000
0001
0100
0001
1000
0010
0100
0001
1000
0100
0010
0001
1000
0100
1000
0010
,
0100
0001
0100
0010
1000
0100
0010
0001
1000
0010
0100
0001
0010
0100
1000
0010
0100
0001
1000
0001
0100
0010
1000
0100
,
0010
0001
1000
0100
1000
0001
0100
0010
1000
0001
0010
0001
1000
0100
0010
0001
0100
0010
1000
0001
0100
0001
1000
0100
,
1000
0010
0100
0001
1000
0010
0100
0001
0100
0010
1000
0100
0010
0001
1000
0100
1000
0001
0010
0001
1000
0100
0010
0001
,
0100
0010
1000
0001
0100
0001
1000
0010
0100
0001
1000
0100
0010
0001
0100
0010
0100
0001
0010
0100
1000
0010
0100
0010
,
1000
0100
0010
0001
0100
0010
1000
0001
0010
0001
1000
0100
0010
0001
0100
0010
1000
0001
0100
0001
1000
0100
0010
0001
,
0100
0010
1000
0001
0010
0001
1000
0100
1000
0010
0100
0010
1000
0001
0100
0001
1000
0100
0010
0001
0100
0010
1000
0001
,
0010
0001
1000
0100
0010
0001
0100
0010
1000
0001
0100
0001
1000
0010
1000
0001
0010
0100
1000
0001
1000
0100
0010
0001
,
0100
0010
1000
0001
0100
0001
1000
0010
0100
0001
1000
0100
0010
0001
1000
0100
1000
0010
0100
0001
0100
0010
1000
0100
,
0010
0001
1000
0010
0100
0001
0010
0100
1000
0010
0100
0001
1000
0001
0100
0010
1000
0100
0010
0001
1000
0100
1000
0001
,
0100
0010
1000
0001
0010
0001
1000
0100
0010
0001
0100
0010
1000
0001
0100
0001
1000
0100
1000
0010
0100
0001
1000
0010
,
0100
0001
0100
0010
1000
0100
0010
0001
1000
0100
1000
0001
0010
0001
1000
0100
0010
0001
0100
0010
1000
0001
0100
0001
,
1000
0010
0100
0001
1000
0100
0010
0001
0100
0010
0100
0001
0010
0100
1000
0010
0100
0010
1000
0100
0010
0001
0100
0010
,
1000
0001
0010
0001
1000
0100
0010
0001
0100
0010
1000
0001
0100
0001
1000
0100
0010
0001
0100
0010
1000
0001
0010
0001
,
1000
0100
1000
0010
0100
0010
1000
0001
0100
0001
1000
0100
0010
0001
0100
0010
1000
0001
0010
0001
1000
0100
0010
0001
,
0100
0010
1000
0001
0100
0001
1000
0010
1000
0001
0010
0100
1000
0001
1000
0100
0010
0001
0100
0010
1000
0001
0100
0001
,
1000
0010
0100
0001
1000
0100
0010
0001
1000
0100
1000
0010
0100
0001
0100
0010
1000
0100
0010
0001
1000
0010
0100
0001
,
0010
0100
1000
0010
0100
0001
1000
0001
0100
0010
1000
0100
0010
0001
1000
0100
1000
0001
0100
0010
1000
0001
0010
0001
,
1000
0100
0010
0001
0100
0010
1000
0001
0100
0001
1000
0100
1000
0010
0100
0001
1000
0010
0100
0001
0100
0010
1000
0100
,
0010
0001
1000
0100
1000
0001
0010
0001
1000
0100
0010
0001
0100
0010
1000
0001
0100
0001
1000
0010
0100
0001
1000
0100
,
0010
0001
0100
0010
0100
0001
0010
0100
1000
0010
0100
0010
1000
0100
0010
0001
0100
0010
1000
0001
0010
0001
1000
0100
,
0010
0001
0100
0010
1000
0001
1000
0100
0010
0001
0100
0010
1000
0001
0010
0001
1000
0100
0010
0001
0100
0010
1000
0001
,
0100
0001
1000
0010
0100
0001
1000
0100
0010
0001
1000
0100
1000
0001
0100
0010
0100
0001
1000
0100
0010
0001
1000
0010
,
0100
0010
1000
0001
0100
0001
1000
0100
0010
0001
0100
0010
1000
0100
0010
0001
1000
0010
1000
0001
0100
0001
1000
0010
,
0100
0000
0000
0000
;
