#TITLE:Dragon Blade;
#SUBTITLE:;
#ARTIST:Kozo Nakamura;
#TITLETRANSLIT:;
#SUBTITLETRANSLIT:;
#ARTISTTRANSLIT:;
#CREDIT:;
#BANNER:dragonblade-banner.png;
#BACKGROUND:dragonbg.png;
#LYRICSPATH:;
#CDTITLE:!ichiTitle.png;
#MUSIC:dragon.mp3;
#OFFSET:-2.100;
#SAMPLESTART:27.316;
#SAMPLELENGTH:12.000;
#SELECTABLE:YES;
#BPMS:0.000=186.000,12.000=188.000,16.000=186.000,24.000=238.000,64.000=243.000,376.333=240.000,383.667=65.000,385.000=250.000,395.000=235.000,411.000=240.000;
#STOPS:;
#BGCHANGES:;
// cache tags:
#FIRSTBEAT:0.000;
#LASTBEAT:457.000;
#SONGFILENAME:Songs/dragon/dd2/dragon.sm;
#HASMUSIC:1;
#HASBANNER:1;
#MUSICLENGTH:118.653;
// end cache tags

//---------------dance-single - ----------------
#NOTES:
     dance-single:
     :
     Hard:
     10:
     1.000,1.000,1.000,0.767,0.826,773.000,180.000,91.000,0.000,1.000:

0011
0011
0101
0101
0000
0000
0000
0101
0101
0000
0000
0000
,
0101
0101
0110
0110
0000
0000
0000
0110
0110
1010
1010
0000
,
0000
0000
1010
1010
0000
0000
0000
1010
1010
1100
1100
0000
,
0000
0000
0011
0011
0101
0101
0000
0000
0000
0101
0101
0000
,
0000
0101
0101
0110
0110
0000
0000
0000
0110
0110
1010
1010
,
0000
0000
0000
1100
1100
0000
0000
0001
0010
0100
1000
0110
,
0011
0000
1100
0000
0000
0000
1001
0000
0000
0001
0000
0000
0010
0000
0000
1000
0000
0000
0100
0000
0000
0001
0000
0000
,
1000
0010
0001
0100
0010
1000
0100
0010
,
1000
0010
0100
0001
1000
0010
0100
0001
,
0010
1000
0001
0100
0010
1000
0100
0001
,
0020
0030
1000
0100
0010
1000
0001
0100
,
0010
1000
0100
0010
0001
0100
0010
1000
,
0100
0001
1000
0010
0100
0001
1000
0010
,
0100
0001
0010
1000
0100
0010
0001
0000
,
0000
0000
0000
0000
0000
0000
0110
0000
0000
0000
0110
0000
0000
0000
0000
0000
0000
0000
1001
0000
0000
1001
0000
0000
,
0000
0000
1100
1100
0110
0000
0011
0011
,
0000
0000
1000
0100
1000
0100
0010
0001
,
0010
0001
0000
1000
0100
0010
0001
0000
,
0000
0000
0000
1000
0000
0000
0100
0000
0000
0010
0000
0000
0001
0000
0000
0010
0000
0000
0100
0000
0000
0000
1000
0000
,
0100
1000
0100
1000
0100
1000
0100
1000
0100
2002
3003
0000
,
0000
0000
0000
0000
1000
0100
1000
0100
2000
0000
3000
0000
0100
0010
0100
0010
,
0200
0000
0300
0000
0010
0100
0010
0100
0020
0000
0030
0000
0001
0010
0001
0010
,
0002
0003
0002
0023
0030
0200
0300
2000
,
3000
0002
0003
0020
0030
0200
0300
2000
,
3000
0000
0001
0010
0001
0010
1000
0100
,
1000
0100
0000
0000
1000
0100
0010
0001
,
2000
0000
3001
0010
0100
1000
0001
0100
,
0010
1000
1000
0100
0010
0001
1000
0220
,
0330
0000
0000
1000
0100
0010
0100
0010
,
0001
1100
0022
0033
1000
0100
0010
0100
,
0010
0000
0001
0000
0010
0000
1000
0100
0010
0001
0010
0100
1000
0100
0010
0001
,
0010
0100
1000
0001
0010
0100
1000
0001
0010
0100
1000
0100
1000
0100
0010
0001
,
1000
0100
0010
0001
0000
0000
2002
0000
3003
0000
0000
0000
0000
0000
1100
0000
,
0110
0011
0110
0000
0000
0001
1000
0010
,
0001
0000
0010
0000
0100
0000
0001
0000
1000
1000
1000
0000
0001
1000
1000
1000
,
0000
2002
3003
0000
0000
0001
0001
0010
,
0010
0100
0100
2002
3003
0001
0001
0010
,
0010
0100
0100
0022
0033
0000
1000
1000
,
0100
0100
0010
0010
2002
3003
1000
1000
,
0100
0100
0010
0010
2200
3300
0001
0001
,
1000
1000
0001
0001
0220
0330
0000
0000
,
1100
0000
0000
1100
0000
0000
0011
0000
0000
0011
0000
0000
0000
0000
0000
0022
0000
0000
0033
0000
0000
0000
0220
0000
,
0330
0000
0000
0000
0000
0000
0000
0000
2200
0000
0000
0000
3300
0000
0000
0000
0000
0000
0000
0000
0002
0000
0000
0000
0003
0000
0000
0020
0000
0000
0000
0000
0000
0000
0000
0000
0000
0000
0000
0030
0000
0000
0000
0000
0000
0000
0000
0000
,
0000
0000
0001
0010
0200
0010
0001
0010
,
0301
0010
0001
0100
0020
0030
1000
0100
,
0010
0000
0100
0010
0001
0000
0010
0001
,
1000
0000
0000
0000
0000
0000
0100
0000
0000
0010
0000
0000
0001
0000
0000
1000
0000
0000
0000
0000
0000
0000
0002
0000
,
0003
0000
0000
2000
0000
0000
3000
0000
0000
0000
0000
0000
0000
0000
0000
0000
0020
0000
0000
0000
0030
2000
0000
0000
3000
0000
0000
0000
0000
0000
0000
0000
0200
0000
0000
0000
0300
0000
0000
2000
0000
0000
3000
0000
0000
0000
0000
0000
,
0000
0000
0010
0001
0010
0100
0010
0100
1000
0100
0011
0000
0011
0000
0000
0000
,
1100
0000
1100
0000
0000
0000
0110
0000
0110
0000
0000
0000
0000
0001
0010
0001
,
0100
0001
1000
0001
0100
0001
0010
0001
0000
0000
0101
0010
0101
0000
0000
0000
,
0000
0000
0000
0000
,
0000
0110
0000
2002
3003
0000
0000
0000
0000
0000
0000
1010
0100
1010
0000
0000
,
0000
0000
0000
0000
0000
0000
0000
0000
0002
0003
0000
0020
,
0030
0000
0000
0000
0000
0000
0000
0000
0200
0000
0000
0000
0300
0000
0000
0000
0000
0000
0000
0000
0000
0000
0000
0000
0000
0000
0000
0000
0000
0000
1100
0000
0000
0010
0000
0000
1100
0000
0000
0000
0000
0000
0000
0000
0000
0000
0000
0000
,
0000
0000
1010
0100
1010
0000
0000
0000
0000
0000
0011
0100
0011
0000
0000
0000
,
0000
0000
0101
0010
0101
0000
0000
0000
0000
0000
1100
0000
0010
0000
1100
0000
,
0010
0101
1000
0101
1000
0001
0010
0100
,
1000
0000
0220
0000
0330
0000
0000
0000
0000
0000
0000
0000
1000
0100
0010
0001
,
0010
0100
1000
0100
0010
0001
0010
0100
1000
0000
0000
0000
0001
0010
0100
1000
,
0100
0010
0001
0010
0100
1000
0100
0010
0001
0000
0000
0000
1000
0010
0100
0001
,
1000
0010
0100
0001
1000
0100
0010
0001
1000
0000
0000
0000
0001
0100
0010
1000
,
0001
0100
0010
1000
0001
0010
0100
1000
0001
0000
0000
0000
1000
0100
1000
0010
,
1000
0001
1000
0010
1000
0100
1000
0100
0011
0000
0000
0000
0001
0010
0001
0100
,
0001
1000
0001
0100
0001
0010
0001
0010
1100
0000
0000
0000
1000
0100
0001
0010
,
1000
0100
0001
0010
1000
0100
0001
0010
1100
0000
0000
0000
0010
0001
0100
1000
,
0010
0001
0100
1000
0010
0001
0100
1000
0011
0000
0000
0000
2000
0000
0000
0000
,
0000
0000
0000
0100
,
0000
0010
0001
0000
0000
0000
0100
0000
0010
3000
0000
0002
,
0000
0000
0000
0020
,
0030
0000
0200
0000
0000
0300
2000
0000
0000
3000
0000
0203
,
0000
0000
0000
0000
0000
0000
0000
0000
0000
0000
0000
1000
,
0000
0000
0000
0000
0000
0000
0010
0000
0000
0000
0000
0000
0000
0000
0001
0000
0000
0000
0000
0000
0000
0020
0300
0000
,
0000
0000
0000
0000
0000
0000
0000
0032
,
0010
0100
1000
0100
0010
0100
0000
1103
,
0000
1010
0000
0011
0101
0000
0000
1010
,
0100
1010
0000
0101
0101
0000
0000
0110
,
0000
0000
0000
1001
0000
0000
0000
0000
0220
0000
0000
0330
,
0000
0001
0010
1000
0000
0000
0000
0000
,
1000
0100
1000
0100
0010
0001
0010
0001
,
0000
1000
0100
0010
0001
0000
0000
1000
,
0100
0000
0000
0010
0000
0000
0001
0000
0000
0010
0000
0000
0100
0000
1000
0000
0100
0000
1000
0000
0100
0000
1000
0000
,
0100
1000
0100
1000
0100
2002
0000
0000
0000
3003
0000
0000
,
1000
0100
1000
0100
2000
0000
3000
0000
0100
0010
0100
0010
0200
0000
0300
0000
,
0010
0100
0010
0100
0020
0000
0030
0000
0001
0010
0001
0010
0002
0000
0003
0000
,
0001
0010
0000
0100
0000
1000
0000
0001
,
0000
0010
0000
0100
0000
0020
0000
0030
,
0001
0010
0001
0100
0001
1000
0001
0100
,
0000
0000
0001
0010
0001
1000
0100
0000
,
0010
0001
0010
0100
0010
0001
0010
0100
,
1000
0100
0010
0100
1000
0022
0033
0000
,
0000
0001
1000
0100
0010
0001
0010
0100
,
0022
0033
0100
1000
0100
0010
0001
0010
,
0100
1000
0100
0010
0001
0010
0100
1000
0100
0010
0001
0010
0100
1000
0100
0010
,
0001
1010
0000
1010
0000
1010
0000
0101
0000
0101
0000
0101
,
0000
0110
0000
0110
0000
0110
0000
1001
0000
1001
0000
2002
,
0000
0000
0000
0000
0000
0000
0000
0000
3003
0000
0000
0000
0110
0000
0000
0000
0000
0000
0000
0000
0000
0000
0000
0000
0000
0000
0000
0000
0000
0000
0000
0000
0000
0000
0000
0000
0011
0000
0000
0100
0000
0000
0011
0000
0000
0000
0000
0000
,
0000
0000
0000
0000
1100
0010
1100
0000
0000
0000
0000
0000
0101
0010
0101
0000
,
0000
0000
0000
0000
1010
0100
1010
0000
0000
0000
0000
0000
0110
1000
0110
0000
,
0000
0000
0000
0000
0110
0001
0110
0000
0000
0000
0000
0000
1001
0110
1001
0000
,
0000
0000
0000
0000
1010
0100
0011
0000
0000
0000
0000
0000
0101
0010
1100
0000
,
0000
0000
0000
0000
1100
0001
0110
0000
0000
0000
0000
0000
0011
1000
0110
0000
,
0000
0000
0000
0000
2000
3000
0200
0300
0020
0030
0002
0003
0020
0030
0200
0300
,
0002
0000
0000
0003
0000
0000
0200
0000
0000
0300
0000
0000
0011
0000
0000
0000
0000
0000
0000
0000
0000
0000
0000
0000
0000
0000
0000
0000
1100
0000
0000
0000
0000
0000
0000
0000
0000
0000
0000
0000
0000
0000
0000
0000
0000
0000
0000
0000
,
0011
0110
1100
0000
0000
0000
0010
0100
,
0010
0100
1000
0100
0010
0100
0010
0100
,
1000
0100
0001
0010
1000
0100
0001
0010
,
0100
1000
0100
0010
0100
1000
0001
0010
,
0100
1000
0002
0000
0000
0003
0010
0100
,
0000
0000
0010
0000
0100
1000
0000
0100
,
0010
0001
1100
0110
0110
0110
0011
0110
,
0110
0110
0101
1100
1100
1100
1010
0011
,
0011
0011
1100
0110
0110
0110
0011
0110
,
0110
0110
2002
0000
0000
0000
0000
0000
,
0000
3003
0000
0000
;
