#TITLE:OTAKUSPEEDVIBE;
#SUBTITLE:;
#ARTIST:DJ Sharpnel;
#TITLETRANSLIT:;
#SUBTITLETRANSLIT:;
#ARTISTTRANSLIT:;
#CREDIT:;
#BANNER:otakuspeedvibe-bn.PNG;
#BACKGROUND:otakuspeedvibe-bg.PNG;
#LYRICSPATH:;
#CDTITLE:!cdtitle.png;
#MUSIC:OTAKUSPEEDVIBE.mp3;
#OFFSET:-1.220;
#SAMPLESTART:76.580;
#SAMPLELENGTH:12.000;
#SELECTABLE:YES;
#BPMS:0.000=212.001;
#STOPS:188.000=1.540
,253.000=2.000
,317.000=0.100
;
#BGCHANGES:;
// cache tags:
#FIRSTBEAT:16.000;
#LASTBEAT:333.000;
#SONGFILENAME:Songs/toune 2/OTAKUSPEEDVIBE/OTAKUSPEEDVIBE.sm;
#HASMUSIC:1;
#HASBANNER:1;
#MUSICLENGTH:132.145;
// end cache tags

//---------------dance-single - ----------------
#NOTES:
     dance-single:
     :
     Hard:
     9:
     0.643,0.567,0.689,0.023,0.000,501.000,91.000,3.000,0.000,0.000:
0000
0000
0000
0000
,
0000
0000
0000
0000
,
0000
0000
0000
0000
,
0000
0000
0000
0000
,
0100
0010
0100
0010
0100
0010
0100
0010
,
1000
0001
1000
0001
1000
0001
1000
0001
,
0100
0010
0100
0010
0100
0010
0100
0010
,
1001
1001
1001
1001
,
1000
0100
0010
0001
1000
0100
0010
0001
,
0001
0010
0100
1000
0001
0010
0100
1000
,
1000
0010
0100
0001
1000
0010
0100
0001
,
0001
0100
0010
1000
0001
0100
0010
1000
,
0001
1000
0010
0100
0001
1000
0010
0100
,
0100
0010
1000
0001
0100
0010
1000
0001
,
1000
0100
1000
0100
1000
0100
1000
0100
,
0010
0001
0000
1001
0000
1001
0000
1001
,
0100
0001
0100
0001
0100
0001
0100
0001
,
1000
0010
1000
0010
1000
0010
1000
0010
,
0100
0010
0100
0010
0100
0010
0100
0010
,
0001
0010
0001
0010
0001
0010
0001
0010
,
0100
1000
0100
1000
0100
1000
0100
1000
,
0010
1000
0010
1000
0010
1000
0010
1000
,
0001
0100
0001
0100
0001
0100
0001
0100
,
0001
0100
0000
1100
0000
1100
0000
1100
,
1000
0000
0010
0000
0001
0000
0010
1000
,
0001
0000
0100
0000
1000
0000
0100
0001
,
1000
0000
0100
0000
0010
0000
0001
1000
,
0001
0000
0010
0000
0100
0000
1000
0001
,
1001
0000
0110
0000
0101
0000
0001
0010
,
1100
1010
0110
1001
,
1100
0000
1010
0000
0011
0000
1000
0010
,
0101
1100
0011
1010
,
1000
0000
0001
0000
1000
0000
0001
1000
,
0001
0100
0010
0100
,
0010
0000
1000
0000
0001
0000
1000
0001
,
1000
0001
0010
0100
,
1000
0000
0100
0000
0010
0000
0001
0010
,
0011
0011
0011
0011
,
1001
0011
0011
0011
,
1001
0110
0110
0110
,
1000
0100
0010
0001
1000
0100
0010
0001
,
1000
0010
0100
0001
1000
0010
0100
0001
,
1000
0100
0010
0001
1000
0100
0010
0001
,
1000
0010
0100
0001
1000
0010
0100
0001
,
0001
0010
0100
1000
0001
0010
0100
1000
,
0001
0100
0010
1000
0001
0100
0010
1000
,
0001
0010
0100
1000
0001
0010
0100
1000
,
1001
0000
0001
0110
0000
0011
0000
0110
,
0000
1010
0000
0101
0000
0110
0000
0101
,
0000
1100
0000
0011
0000
1100
0000
1010
,
0000
0101
0000
1001
0000
0110
0000
1001
,
0000
1100
0000
1010
0000
1010
0000
0110
,
0000
0110
0000
0011
0000
0011
0000
0110
,
0000
1001
0000
1100
0000
0011
0000
1100
,
0000
0011
0000
1001
0000
0110
0000
1001
,
0000
0110
1000
0100
1000
0100
1000
0100
,
1000
0100
0000
0011
0000
0011
0000
0011
,
0000
0011
0001
0100
0001
0100
0001
0100
,
0001
0100
0000
1010
0000
1010
0000
1010
,
0000
1010
0010
0100
0010
0100
0010
0100
,
0010
0100
0000
1001
0000
1001
0000
1001
,
0000
1001
0001
0100
0001
0100
0001
0100
,
0001
0100
0000
0101
0000
0101
0000
0101
,
0000
0101
0000
0000
1000
0100
1000
0100
,
1000
0100
1000
0100
1000
0010
0100
0010
,
0100
0010
0100
0010
1000
0001
1000
0001
,
1000
0001
1000
0001
1000
0100
1000
0100
,
1000
0100
1000
0100
0010
0001
0010
0001
,
0010
0001
0010
0001
0010
0100
0001
0100
,
0001
0100
0001
0100
0010
1000
0010
1000
,
0010
1000
0010
1000
0010
1000
0100
0010
,
0001
0010
0100
1000
0010
0100
0010
0100
,
0010
0100
0010
0100
0010
0001
0010
0100
,
1000
0100
0010
0001
1000
0001
1000
0001
,
1000
0001
1000
0001
1000
0001
0100
0010
,
1000
0010
0100
0001
0010
0100
0010
0100
,
0010
0100
0010
0100
0010
1000
0010
0100
,
0001
0100
0010
1000
0010
1000
0010
1000
,
0010
1000
0010
1000
0010
2000
0000
0002
,
3003
0000
0000
1000
0100
0000
0011
0001
,
0000
0001
0000
0001
0100
0000
1100
0100
,
0010
0100
0010
0000
1001
0000
1001
0000
,
1001
0000
1001
0200
0000
0000
0000
0000
,
0000
0300
0000
0000
;

//---------------dance-single - ----------------
#NOTES:
     dance-single:
     :
     Medium:
     6:
     0.370,0.441,0.166,0.008,0.000,319.000,22.000,1.000,0.000,0.000:
0000
0000
0000
0000
,
0000
0000
0000
0000
,
0000
0000
0000
0000
,
0000
0000
0000
0000
,
1000
0100
0001
0100
,
1000
0010
0001
0010
,
1000
0100
0001
0100
,
1000
1001
1001
1001
,
0001
0010
0100
1000
,
1000
0100
0010
0001
,
0001
0100
0010
1000
,
1000
0010
0100
0001
,
0100
0000
0010
0000
0100
0000
0010
0100
,
0001
0000
1000
0000
0001
0000
1000
0010
,
0100
0000
0010
0000
0010
0000
0010
1000
,
0000
1000
0000
0100
0000
1100
0000
1000
,
0010
0000
0010
0000
0010
0000
0010
0100
,
0001
0001
0001
0001
,
1000
0000
1000
0000
1000
0000
1000
0010
,
0100
0100
0100
0100
,
0010
0000
0010
0000
0010
0000
0010
0100
,
0001
0001
0001
0001
,
0100
0000
0100
0000
0100
0000
0100
0001
,
0000
0100
0000
0010
0000
0110
0000
0100
,
0010
0010
0010
0010
,
0100
0100
0100
0100
,
0010
0010
0010
0010
,
0100
0100
0100
0100
,
1001
1001
1001
1000
,
0001
1000
0001
1000
,
0110
0110
0110
0010
,
0100
0010
0100
0010
,
1000
0100
0010
0001
,
1000
0100
0010
0001
,
0001
0010
0100
1000
,
0001
0010
0100
1000
,
0100
0100
0100
0110
,
0010
0010
0010
0010
,
1010
1000
1000
1000
,
1001
0110
0110
0110
,
0010
1000
0000
1000
0000
1000
0000
1000
,
0010
0100
0000
0100
0000
0100
0000
0100
,
0010
0001
0000
0001
0000
0001
0000
0001
,
0010
0010
0010
0010
,
0010
0100
0000
0100
0000
0100
0000
0100
,
0001
0010
0000
0010
0000
0010
0000
0010
,
0100
1000
0000
1000
0000
1000
0000
1000
,
0000
0100
0100
0100
,
0100
0001
0001
0001
,
0001
0100
0100
0100
,
0100
0001
0001
0001
,
0001
1000
0001
1000
,
0001
0100
0010
0100
,
0010
1000
0001
1000
,
0001
0100
0010
0100
,
0010
0100
0000
1000
0000
1000
0000
1000
,
0000
1000
0000
0010
0000
0010
0000
0010
,
0000
0010
0000
0001
0000
0001
0000
0001
,
0000
0001
0000
0010
0000
0010
0000
0010
,
0000
0010
0000
1000
0000
1000
0000
1000
,
0000
1000
0000
0100
0000
0100
0000
0100
,
0000
0100
0000
0010
0000
0010
0000
0010
,
0000
0010
0000
0001
0000
0001
0000
0001
,
0000
0001
0000
0000
1000
0100
0000
0100
,
0000
0010
0000
0010
0000
0100
0000
0100
,
0000
0100
0000
0100
0000
0001
0000
0001
,
0000
1000
0000
1000
0000
0010
0000
0100
,
0000
0110
0000
0000
0000
1000
0000
0100
,
0000
0001
0000
0100
0000
1000
0000
0010
,
0000
0001
0000
0010
0000
1000
0000
0100
,
0000
0001
0000
0100
0000
1000
0000
0010
,
0000
1010
0000
0000
0000
1000
0000
0100
,
0000
0010
0000
0001
0000
1000
0000
0100
,
0000
0010
0000
0001
0000
1000
0000
0010
,
0000
0100
0000
0001
0000
1000
0000
0001
,
0000
1001
0000
0000
0000
0010
0000
0100
,
0000
0010
0000
0100
0000
0001
0000
1000
,
0000
0001
0000
1000
0000
0001
0000
0010
,
0000
0100
0000
1000
0000
1001
0000
0101
,
0000
0000
0000
1000
0100
0000
0000
0000
,
0000
0000
0000
0001
0100
0000
0000
0000
,
0000
0000
0100
0100
,
0100
0000
0100
0020
0000
0000
0000
0000
,
0000
0030
0000
0000
;

//---------------dance-single - ----------------
#NOTES:
     dance-single:
     :
     Easy:
     4:
     0.214,0.283,0.000,0.023,0.000,195.000,0.000,3.000,0.000,0.000:
0000
0000
0000
0000
,
0000
0000
0000
0000
,
0000
0000
0000
0000
,
0000
0000
0000
0000
,
1000
0100
0010
0000
,
1000
0100
0010
0000
,
0100
0010
0001
0000
,
0001
1000
0001
1000
,
0001
0100
0010
0000
,
0001
0100
0010
0000
,
1000
0010
0100
0000
,
1000
0010
0100
0000
,
1000
0100
0001
0000
,
1000
0100
0001
0000
,
0001
0010
1000
0000
,
0002
0000
0000
0000
,
1003
0001
0100
0000
,
1000
0001
0100
0000
,
1000
0001
0010
0000
,
1000
0001
0010
0000
,
0100
0001
1000
0000
,
0100
0001
1000
0000
,
0010
1000
0001
0000
,
0020
0000
0000
0030
,
0010
0010
0010
0010
,
0001
0001
0001
0001
,
0010
0010
0010
0010
,
0001
0001
0001
0001
,
1000
0000
1000
0000
,
0100
0000
0100
0000
,
0010
0000
0010
0000
,
0001
0000
0001
0000
,
1000
0000
1000
0000
,
0010
0000
0010
0000
,
0001
0000
0001
0000
,
0010
0000
0010
0000
,
1000
0000
1000
0000
,
1000
0100
0001
0100
,
1000
0100
0001
0100
,
1000
0010
0010
0010
,
0100
0100
0100
0000
,
0010
0010
0010
0000
,
0100
0100
0100
0000
,
0010
0010
0010
0000
,
1000
1000
1000
0000
,
0001
0001
0001
0000
,
1000
1000
1000
0000
,
0000
0100
0000
0000
,
0000
0010
0000
0000
,
0000
0100
0000
0000
,
0000
0010
0000
0000
,
0000
1000
0000
0000
,
0000
0100
0000
0000
,
0000
0010
0000
0000
,
0000
0001
0000
0000
,
0000
0001
0001
0001
,
0001
1000
1000
1000
,
1000
0001
0001
0001
,
0001
1000
1000
1000
,
1000
0100
0100
0100
,
0100
0010
0010
0010
,
0010
0100
0100
0100
,
0100
0010
0010
0010
,
0010
0000
1000
1000
,
1000
0000
0000
0000
,
0000
0000
0000
0010
,
0010
0010
0000
0000
,
0000
0000
0000
0100
,
0100
0100
0000
0000
,
0000
0000
0000
1000
,
1000
1000
0000
0000
,
0000
0000
0000
0100
,
0100
0100
0000
0000
,
0000
0000
0000
0001
,
0001
0001
0000
0000
,
0000
0000
0000
0100
,
0100
0100
0000
0000
,
0000
0000
0000
0010
,
0010
0010
0000
0000
,
0000
0000
1000
0000
,
0000
0000
0001
0000
,
0000
0000
0100
0100
,
0100
0000
0100
0002
0000
0000
0000
0000
,
0000
0003
0000
0000
;

//---------------dance-single - ----------------
#NOTES:
     dance-single:
     :
     Beginner:
     1:
     0.081,0.218,0.030,0.023,0.000,68.000,4.000,3.000,0.000,0.000:
0000
0000
0000
0000
,
0000
0000
0000
0000
,
0000
0000
0000
0000
,
0000
0000
0000
0000
,
0010
0000
0000
0000
,
1000
0000
0000
0000
,
0010
0000
0000
0000
,
1000
0000
0000
0000
,
0100
0000
0000
0000
,
0001
0000
0000
0000
,
0100
0000
0000
0000
,
0001
0000
0000
0000
,
1000
0000
0000
0000
,
0100
0000
0000
0000
,
0010
0000
0000
0000
,
0002
0000
0000
0003
,
0001
0000
0000
0000
,
0100
0000
0000
0000
,
0010
0000
0000
0000
,
1000
0000
0000
0000
,
1000
0000
0000
0000
,
0100
0000
0000
0000
,
0001
0000
0000
0000
,
0200
0000
0000
0300
,
0100
0000
0000
0000
,
0100
0000
0000
0000
,
0010
0000
0000
0000
,
0010
0000
0000
0000
,
1000
0000
0000
0100
,
0100
0000
0000
0000
,
0000
0000
0000
0001
,
0001
0000
0000
0000
,
0000
0000
0000
0100
,
0100
0000
0000
0000
,
1000
0000
0000
0000
,
0010
0000
0000
0000
,
0001
0000
0000
0000
,
0010
0000
0000
0000
,
1000
0000
0000
0000
,
0002
0000
0000
0003
,
0001
0000
0000
0000
,
0100
0000
0000
0000
,
0001
0000
0000
0000
,
0100
0000
0000
0000
,
0010
0000
0000
0000
,
1000
0000
0000
0000
,
0010
0000
0000
0000
,
1000
1000
0000
0000
,
0000
0000
0000
0000
,
0000
0010
0000
0000
,
0000
0000
0000
0000
,
0000
0100
0000
0000
,
0000
0000
0000
0000
,
0000
0001
0000
0000
,
0000
0000
0000
0000
,
0000
1000
0000
0000
,
0000
0000
0000
0000
,
0000
0010
0000
0000
,
0000
0000
0000
0000
,
0000
0001
0000
0000
,
0000
0000
0000
0000
,
0000
0100
0000
0000
,
0000
0000
0000
0000
,
0000
0100
0100
0000
,
0000
0000
0000
0000
,
0000
0000
0010
0000
,
0000
0000
0000
0000
,
0000
0000
0100
0000
,
0000
0000
0000
0000
,
0000
0000
0010
0000
,
0000
0000
0000
0000
,
0000
0000
1000
0000
,
0000
0000
0000
0000
,
0000
0000
0001
0000
,
0000
0000
0000
0000
,
0000
0000
1000
0000
,
0000
0000
0000
0000
,
0000
0000
0001
0000
,
0000
0000
0000
0000
,
0000
0000
0100
0000
,
0000
0000
0010
0000
,
0000
0000
0110
0110
,
0110
0110
0000
0000
;
