#TITLE:Sixpounder;
#SUBTITLE:;
#ARTIST:Children of Bodom;
#TITLETRANSLIT:;
#SUBTITLETRANSLIT:;
#ARTISTTRANSLIT:;
#CREDIT:;
#BANNER:Sixpounder Banner.JPG;
#BACKGROUND:Sixpounder BG.JPG;
#LYRICSPATH:;
#CDTITLE:DrunkLink.png;
#MUSIC:02 - Sixpounder.mp3;
#OFFSET:-0.080;
#SAMPLESTART:93.346;
#SAMPLELENGTH:12.000;
#SELECTABLE:YES;
#BPMS:0.000=153.270,34.500=152.650,105.500=153.650,137.500=152.650,167.500=153.270,268.000=152.650,302.000=153.370,382.000=152.650,427.000=153.270;
#STOPS:167.500=0.560
,238.563=0.040
,238.563=0.400
,382.000=0.020
,427.000=0.400
;
#BGCHANGES:;
// cache tags:
#FIRSTBEAT:0.000;
#LASTBEAT:506.438;
#SONGFILENAME:Songs/toune 5/Sixpounder/Sixpounder.sm;
#HASMUSIC:1;
#HASBANNER:1;
#MUSICLENGTH:201.743;
// end cache tags

//---------------dance-single - Copied from----------------
#NOTES:
     dance-single:
     Copied from:
     Hard:
     11:
     1.000,1.000,1.000,0.714,0.845,1100.000,211.000,144.000,0.000,0.000:
0100
1001
0100
0010
0100
1000
0100
0010
,
0001
0100
0010
0001
0010
1000
1000
1000
,
0110
1000
1000
1000
0110
1001
0100
0010
,
0001
0100
0010
0001
1000
1000
1000
1100
,
0011
1000
1000
0011
1100
1001
0100
0010
,
0001
0100
0010
0001
0010
1000
1000
1000
,
0220
0330
1000
1000
1000
1001
0100
0010
,
0001
0100
0010
0001
0010
1000
1000
1100
,
0011
1000
1000
0011
1100
2010
0000
0000
,
0000
0000
0000
0020
,
0000
0000
0000
0000
0000
0000
3030
0000
0000
0000
1000
0000
1000
0000
1000
0001
,
0000
1000
0001
0000
0100
0000
0100
0001
0000
0100
0001
0000
1000
0000
1000
0001
,
0000
1000
0001
0000
0100
0000
0100
0001
0000
0100
0001
0000
1000
0000
1000
0001
,
0000
1000
0001
0000
0100
0000
0100
0001
0000
0100
0001
0000
1000
0000
1000
0001
,
0000
1000
0001
0000
0010
1000
0100
0010
0002
0000
0003
0000
0100
0000
0100
0001
,
0000
0100
0001
0000
1000
0000
1000
0001
0000
1000
0001
0000
0100
0000
0100
0001
,
0000
0100
0001
0000
1000
0000
1000
0001
0000
1000
0002
0000
0000
0000
0000
0000
,
0000
0000
0000
0200
,
0000
0000
0000
0000
0000
0000
0000
0000
0303
0000
1001
0000
0100
0010
0100
0010
,
1001
0000
0110
0000
0100
0010
0100
0010
1100
0000
0101
0000
0100
0000
0100
0001
,
0000
0100
0001
0000
1000
0000
0100
0001
0000
0100
1001
0000
0100
0010
0100
0010
,
1001
0000
0110
0000
0100
0010
0100
0010
1000
0000
0100
0000
0100
0000
1000
0100
,
1000
0100
0010
0001
0010
0100
1000
0100
0010
0100
1001
0000
0100
0010
0100
0010
,
1001
0000
0110
0000
0100
0010
0100
0010
1100
0000
0101
0000
0100
0000
0100
0001
,
0000
0100
0001
0000
1000
0000
0100
0001
0000
0100
1001
0000
0100
0010
0100
0010
,
1001
0000
0110
0000
0100
0010
0100
0010
1100
0000
0010
0001
0100
0010
1000
0100
,
0010
0001
0010
0100
1000
0100
2002
0000
3003
0000
2020
0000
3030
0000
0100
0000
,
2020
3030
0000
0000
2002
3003
0000
2002
3003
0000
2020
0000
3030
0000
0100
0000
,
1001
0000
0010
0001
1000
0100
0010
0001
0010
0100
2020
0000
3030
0000
0100
0000
,
2020
3030
0000
0000
2002
3003
0000
2002
3003
0000
2020
0000
3030
0000
1000
0100
,
1000
0100
0010
0000
0010
0000
0022
0000
0033
0000
2020
0000
3030
0000
0100
0000
,
2020
3030
0000
0000
2002
3003
0000
2002
3003
0000
2020
0000
3030
0000
0100
0000
,
1001
0000
0010
0001
1000
0100
0010
0001
0010
0100
2020
0000
3030
0000
0100
0000
,
2020
3030
0000
0000
2002
3003
0000
2002
3003
0000
2020
0000
3030
0000
1000
0100
,
1000
0100
0010
0000
0010
0000
0022
0000
0033
0000
1001
0000
0100
0010
0100
0010
,
1001
0000
0110
0000
0100
0010
0100
0010
1100
0000
0101
0000
0100
0000
0100
0001
,
0000
0100
0001
0000
1000
0000
0100
0001
0000
0100
1001
0000
0100
0010
0100
0010
,
1001
0000
0110
0000
0100
0010
0100
0010
1000
0000
0100
0000
0100
0000
1000
0100
,
1000
0100
0010
0001
0010
0100
1000
0100
0010
0100
1001
0000
0100
0010
0100
0010
,
1001
0000
0110
0000
0100
0010
0100
0010
1100
0000
0101
0000
0100
0000
0100
0001
,
0000
0100
0001
0000
1000
0000
0100
0001
0000
0100
1001
0000
0100
0010
0100
0010
,
1001
0000
0000
0000
0000
0000
0000
0000
0110
0000
0000
0000
0000
0000
0000
0000
0100
0000
0000
0000
0010
0000
0000
0000
0100
0000
0000
0000
0010
0000
0000
0000
1100
0000
0000
0000
0000
0000
0000
0000
2002
0000
0000
0000
0000
0000
0000
0000
3003
0000
0000
0000
0000
0000
0000
0000
2002
3003
0000
0000
0000
0000
0000
0000
,
0000
0000
1001
0100
0010
0001
0100
0010
,
0001
0010
1000
1000
1000
0110
1000
1000
,
1000
0110
1001
0100
0010
0001
0100
0010
,
0001
1000
1000
1000
1100
0011
1000
1000
,
0011
1100
2020
0000
0000
0000
0000
0000
,
0000
3030
0202
0000
0000
0000
0000
0000
,
0303
0000
1000
0100
0010
0001
0100
0010
,
0001
1000
1000
1000
1100
0011
1000
1000
,
0011
1100
2020
0000
0000
0000
0000
0000
,
0000
3030
0202
0000
0000
0000
0000
0000
,
0000
0303
1000
1000
0011
1100
1000
1000
,
0011
1100
1000
1000
1100
0011
1000
1000
,
0011
1100
2020
0000
0000
0000
0000
0000
,
0000
3030
0202
0000
0000
0000
0000
0000
,
0000
0303
0022
0000
0000
0000
0000
0000
,
0000
0033
2200
0000
0000
0000
0000
0000
,
3300
0000
0000
0000
1000
0000
1000
0000
1000
0001
0000
1000
0001
0000
0100
0000
,
0100
0000
0000
0000
0001
0000
0000
0000
0000
0000
0000
0000
0100
0000
0000
0000
0000
1001
0000
0000
0000
0000
0000
0000
0000
0000
0000
0000
0000
1001
0000
0000
0000
0000
0000
0000
0000
0000
0000
0000
0000
1001
0000
0000
0000
0000
0000
0000
0000
0000
0000
0000
0000
0000
0000
0000
0000
0000
0000
0000
0000
0000
0000
0000
,
0010
0000
1000
0100
1000
0000
0100
0010
0100
0000
0010
0001
0010
0000
0100
0010
,
0001
1000
0100
0010
0100
0010
1000
0001
0010
0100
0010
0001
1000
0010
0001
0010
,
1000
0100
0010
0001
0010
0100
1000
0010
0100
1000
0100
0010
0001
1000
0010
1000
,
0100
0001
0010
1000
0010
0100
0001
0100
2000
0000
0000
0000
0000
0000
0200
0000
,
3300
0000
0000
1000
0100
0010
0001
0010
0100
1000
0100
0010
0001
0010
0100
1000
0100
0010
0001
0010
0100
1000
0100
0010
,
0001
0010
0100
1000
0100
0010
0001
0010
0100
1000
0100
0010
0001
0010
0100
1000
0000
0000
1000
0100
0010
0001
0000
0000
,
1000
0000
1000
0010
1000
0000
0001
0100
0001
0000
0010
0100
0010
0000
0100
0010
,
0200
0000
0000
0000
0000
0000
0300
0000
1001
0000
0100
0010
0100
0010
1001
0000
,
0110
0000
0100
0010
0100
0010
1100
0000
0101
0000
0100
0000
0100
0001
0000
0100
,
0001
0000
1000
0000
0100
0001
0000
0100
1001
0000
0100
0010
0100
0010
1001
0000
,
0110
0000
0100
0010
0100
0010
1000
0000
0100
0000
0100
0000
1000
0100
1000
0100
,
0010
0001
0010
0100
1000
0100
0010
0100
1001
0000
0100
0010
0100
0010
1001
0000
,
0110
0000
0100
0010
0100
0010
1100
0000
0101
0000
0100
0000
0100
0001
0000
0100
,
0001
0000
1000
0000
0100
0001
0000
0100
1001
0000
0100
0010
0100
0010
1001
0000
,
0110
0000
0100
0010
0100
0010
1100
0000
0010
0000
1000
0010
1000
0000
0100
0010
,
0100
0000
0001
0010
0001
0000
0000
0000
2020
0000
3030
0000
0100
0000
2020
3030
,
0000
0000
2002
3003
0000
2002
3003
0000
2020
0000
3030
0000
0100
0000
1001
0000
,
0010
0001
1000
0100
0010
0001
0010
0100
2020
0000
3030
0000
0100
0000
2020
3030
,
0000
0000
2002
3003
0000
2002
3003
0000
2020
0000
3030
0000
1000
0100
1000
0100
,
0010
0000
0010
0000
0022
0000
0033
0000
2020
0000
3030
0000
0100
0000
2020
3030
,
0000
0000
2002
3003
0000
2002
3003
0000
2020
0000
3030
0000
0100
0000
1001
0000
,
0010
0001
1000
0100
0010
0001
0010
0100
2020
0000
3030
0000
0100
0000
2020
3030
,
0000
0000
2002
3003
0000
2002
3003
0000
2020
0000
3030
0000
1000
0100
1000
0100
,
0010
0000
0010
0000
0022
0000
0000
0033
2000
0000
0000
0000
0000
0000
3100
0010
,
0001
0100
0010
1000
0001
0010
0100
0010
1000
0100
0010
0100
0010
0001
0010
0100
,
0010
0100
0001
0100
1000
0100
1000
0010
2000
0000
0000
0000
0000
0000
3100
0010
,
0001
0100
0010
1000
0001
0010
0100
0010
1000
0010
0100
0010
0100
1000
0010
0100
,
0010
0100
0001
0100
1000
0100
1000
0010
2000
0000
0000
0000
0000
0000
3100
0010
,
0001
0100
0010
1000
0001
0010
0100
0010
1000
0100
0010
0100
0010
0001
0010
0100
,
0010
0100
0001
0100
1000
0100
1000
0010
2000
0000
0000
0000
0000
0000
3100
0010
,
0001
0100
0010
1000
0001
0010
0100
0010
1000
0010
0100
0010
0100
1000
0010
0100
,
0010
0100
0001
0100
1000
0100
1000
0010
0002
0000
0000
0000
0000
0000
0103
0010
,
1000
0100
0010
1000
0001
0010
0100
0010
1000
0100
0010
0100
0010
0001
0100
0010
,
0100
0010
0001
1000
0100
0010
0100
0010
2000
0000
0000
0000
0000
0000
3100
0010
,
0001
0100
0010
1000
0001
0010
0100
0010
1000
0100
0010
0100
0010
0001
0010
0100
,
0010
0000
0000
0100
0000
0000
1000
0000
0100
0000
0010
0000
0001
0000
0000
0000
0000
0000
1000
0000
0000
0000
0000
0000
1001
0000
0000
0000
0000
0000
0100
0000
0000
0010
0000
0000
0100
0000
0000
0010
0000
0000
1001
0000
0000
0000
0000
0000
,
0110
0000
0100
0010
0100
0010
1100
0000
0101
0000
0100
0000
0100
0001
0000
0100
,
0001
0000
1000
0000
0100
0001
0000
0100
1001
0000
0100
0010
0100
0010
1001
0000
,
0110
0000
0100
0010
0100
0010
1000
0000
0100
0000
1000
0100
1000
0000
0100
0010
,
0100
0000
0010
0001
0010
0000
0000
0000
1001
0000
0100
0010
0100
0010
1001
0000
,
0110
0000
0100
0010
0100
0010
1100
0000
0101
0000
0100
0000
0100
0001
0000
0100
,
0001
0000
1000
0000
0100
0001
0000
0100
1001
0000
0100
0010
0100
0010
1001
0000
,
0110
0000
0100
0010
0100
0010
1000
0000
0100
0000
0100
0000
1000
0100
1000
0100
,
0010
0001
0010
0100
1000
0100
0010
0100
1001
0000
0100
0010
0100
0010
1001
0000
,
0110
0000
0100
0010
0100
0010
1100
0000
0101
0000
0100
0000
0100
0001
0000
0100
,
0001
0000
1000
0000
0100
0001
0000
0100
1001
0000
0100
0010
0100
0010
1001
0000
,
0110
0000
0000
0000
0000
0000
0000
0000
0100
0000
0000
0000
0010
0000
0000
0000
0100
0000
0000
0000
0010
0000
0000
0000
1100
0000
0000
0000
0000
0000
0000
0000
1001
0000
0000
0000
0000
0000
0000
0000
0000
0000
0000
0000
0000
0000
0000
0000
2002
3003
0000
0000
0000
0000
0000
0000
0000
0000
0000
0000
0000
0000
0000
0000
,
0000
0000
1001
0100
0010
0001
0100
0010
,
0001
0010
1000
1000
1000
0110
1000
1000
,
1000
0110
1001
0100
0010
0001
0100
0010
,
0001
1000
1000
1000
1100
0011
1000
1000
,
0011
1100
2020
0000
0000
0000
0000
0000
,
0000
3030
0202
0000
0000
0000
0000
0000
,
0303
0000
1000
0100
0010
0001
0100
0010
,
0001
1000
1000
1000
1100
0011
1000
1000
,
0011
1100
2020
0000
0000
0000
0000
0000
,
0000
3030
0202
0000
0000
0000
0000
0000
,
0000
0303
1000
1000
0011
1100
1000
1000
,
0011
1100
1000
1000
1100
0011
1000
1000
,
0011
1100
2020
0000
0000
0000
0000
0000
,
0000
3030
0202
0000
0000
0000
0000
0000
,
0000
0303
0022
0000
0000
0000
0000
0000
,
0000
0033
2200
0000
0000
0000
0000
0000
,
3300
0000
1001
0100
0010
0001
0100
0010
,
0001
0010
1000
1000
1000
0110
1000
1000
,
1000
0110
1001
0100
0010
0001
0100
0010
,
0001
0000
0000
0000
0000
0000
0000
0000
0010
0000
0000
0000
0000
0000
0000
1001
0000
0000
0000
0000
0000
0000
0000
0000
0000
0000
0000
0110
0000
0000
0000
0000
0000
0000
0000
0000
0000
0000
0000
1001
0000
0000
0000
0000
0000
0000
0000
0000
0000
0000
0000
0000
0000
0000
0000
0000
0000
0000
0000
0000
0000
0000
0000
0000
;
