#TITLE:Pig;
#SUBTITLE:;
#ARTIST:B45H;
#TITLETRANSLIT:;
#SUBTITLETRANSLIT:;
#ARTISTTRANSLIT:;
#CREDIT:Aoreo;
#BANNER:pig bn.png;
#BACKGROUND:pig bg.png;
#LYRICSPATH:;
#CDTITLE:;
#MUSIC:Pig.ogg;
#OFFSET:0.242;
#SAMPLESTART:52.531;
#SAMPLELENGTH:12.000;
#SELECTABLE:YES;
#DISPLAYBPM:250.000;
#BPMS:0.000=250.000,420.000=125.000,454.000=250.000;
#STOPS:;
#BGCHANGES:;
// cache tags:
#FIRSTBEAT:8.000;
#LASTBEAT:583.000;
#SONGFILENAME:Songs/SPEEEDCOOOORE 2/Pig - [Aoreo ft. Tyler]/Pig.sm;
#HASMUSIC:1;
#HASBANNER:1;
#MUSICLENGTH:155.040;
// end cache tags

//---------------dance-single - J. Nero----------------
#NOTES:
     dance-single:
     J. Nero:
     Challenge:
     15:
     1.000,1.000,0.316,0.193,0.735,1127.000,49.000,30.000,18.000,0.000:

0000
0000
0000
0000
,
0000
0000
0000
0000
,
1000
0000
0001
0000
0100
0001
0100
0000
0010
0000
0100
0000
0001
0000
1000
0100
,
1000
0000
0100
0000
0010
0000
0001
0000
0100
0001
0100
0001
1000
0000
0001
0000
,
0100
0000
0010
0000
1000
0100
1000
0000
0001
0000
0100
0000
0010
0000
1000
0100
,
1000
0000
0001
0000
0010
0000
0100
0000
1000
0100
1000
0001
0100
0000
0001
0000
,
0100
0000
0010
0000
1000
0001
1000
0000
0001
0000
0100
0000
0010
0000
1000
0010
,
1000
0000
0001
0000
0100
0000
0001
0000
1000
0100
1000
0100
0010
0000
0001
0000
,
1000
0000
0010
0000
1000
0001
1000
0000
0001
0000
0100
0000
0001
0000
1000
0100
,
1000
0000
0100
0000
0010
0000
0001
0000
1000
0010
1000
0000
0010
0000
0100
0000
,
0101
0000
0000
0000
0001
0000
0000
0000
1000
0000
0100
0000
1000
0000
0001
0100
,
0001
0000
0100
0000
0010
0000
1000
0000
0100
0010
0001
0000
1000
0000
0001
0000
,
1001
0000
1000
0100
1000
0000
0001
0000
0100
0000
0001
0000
1000
0000
0010
1000
,
0010
0000
1000
0000
0001
0000
0100
0001
0100
0000
0001
0000
1000
0000
0100
0000
,
1100
0000
0000
0000
,
1001
0000
0000
0000
,
0101
0000
0110
0000
,
1010
0000
0000
0000
1000
0000
0000
0000
0001
0000
0100
0000
0002
0000
0000
0003
,
1000
0100
1000
0001
0010
0100
0010
0001
,
1000
0001
0100
0010
0100
0001
1000
0100
,
0010
0100
1000
0001
0100
0010
1000
0001
,
0010
0000
0100
0000
1000
0000
0001
0000
1000
0000
0010
0000
0100
0000
0001
1000
,
0001
1000
0100
0010
0100
1000
0001
0100
,
0001
1000
0010
0100
0010
1000
0001
0100
,
0001
0000
1000
0100
1000
0000
0001
0100
0001
0000
1000
0010
1000
0000
0001
1000
,
0001
0000
1000
0000
0001
0100
0001
1000
0001
0000
1000
0100
1000
0000
0001
0000
,
0100
0001
0010
0100
1000
0001
1000
0010
,
0100
0010
1000
0100
0010
0100
1000
0001
,
0100
0010
0100
0001
1000
0001
0010
0100
,
1000
0000
0001
0000
1000
0000
0100
0000
0010
0000
0100
0000
1000
0000
0001
1000
,
0001
0100
0010
0100
0001
1000
0001
0010
,
0100
1000
0001
1000
0100
1000
0001
0100
,
0010
0100
0001
1000
0001
0100
0001
0010
,
0100
0000
1000
0001
1000
0000
0001
0100
0001
0000
1000
0000
0001
0100
0001
0000
,
1000
0010
1000
0010
0100
0001
0100
0010
1000
0001
1000
0010
0100
0001
0100
0010
,
1000
0001
0100
0001
1000
0010
0100
0010
0100
0001
0100
0001
1000
0010
1000
0001
,
0100
0001
1000
0001
0010
0100
0010
0001
1000
0100
0010
0001
0010
0100
1000
0001
,
1000
0000
0001
0000
0100
0000
0001
1000
0001
0000
1000
0000
0100
0000
0010
0001
,
0010
0000
0001
0000
1000
0000
0010
0000
0100
0000
0000
0000
0020
0030
0000
0000
,
1001
0000
1000
0000
0001
0100
0001
0000
1000
0000
0010
0000
0100
0001
0100
0000
,
0010
0000
1000
0100
1000
0000
0100
0000
0010
0001
0010
0000
0001
1000
0001
1000
,
0100
0000
1000
0000
0010
0100
0010
0000
0100
0000
0001
0000
1000
0100
1000
0000
,
0100
0000
0010
0000
0001
0000
0100
0001
0100
0000
0010
0000
1000
0000
0010
0000
,
0100
0000
0001
0000
1000
0100
1000
0000
0100
0000
0010
0000
0001
1000
0001
0000
,
1000
0000
0010
0100
0001
0000
0100
0000
0010
0100
0010
0000
1000
0001
1000
0001
,
0100
0000
0001
0000
1000
0000
0100
0000
0010
0000
0100
1000
0100
0000
1000
0000
,
0001
0000
0100
0000
0010
0000
1000
0000
0001
0100
0001
1000
0010
1000
0001
0100
,
0001
1000
0001
1000
0100
1000
0010
0100
,
0000
0000
0001
0000
0100
0000
0000
0000
0001
0000
1000
0000
0100
1000
0001
1000
,
0001
0100
0010
0000
0100
0001
1000
0001
,
0000
0000
0000
0000
1000
0100
1000
0000
0001
0000
0000
0000
0100
0000
0010
0000
,
1000
0001
0100
0010
0100
0001
0010
0100
,
1000
0001
0100
0010
1000
0100
0010
0001
,
1000
0001
1000
0010
0100
0001
0100
0010
1000
0001
1000
0001
0100
0010
0100
0001
,
1000
0100
0010
0100
1000
0100
0010
0001
1000
0001
0010
0100
1000
0000
0000
0000
,
1001
0000
0000
0000
,
1001
0001
0101
0100
0001
1000
0100
0010
,
0001
1000
0010
0100
0001
0100
0010
1000
,
0001
1000
0001
1000
0100
0010
0001
1000
,
0010
0100
0001
0100
0010
1000
0001
1000
,
0100
0000
1000
0000
0100
0000
1000
0000
0001
0000
0000
0000
0100
0001
0100
0001
,
1000
0010
0100
0010
1000
0000
0001
0000
,
0010
0001
0010
0001
1000
0010
0100
0001
,
1000
0100
1000
0001
0010
0100
1000
0100
,
0010
0000
0001
0000
0010
0000
0001
0000
1000
0000
0010
0000
0100
0001
0100
0001
,
1000
0001
0100
0010
1000
0001
0100
0001
,
1000
0001
1000
0001
0010
0100
1000
0010
,
0100
0010
1000
0001
0010
0100
1000
0100
,
0010
0000
0001
0000
0010
0000
0001
0000
1000
0000
0010
0000
0100
0000
0001
1000
,
0001
1000
0100
0010
0100
1000
0001
0100
,
0010
1000
0010
1000
0100
0010
0001
1000
,
002M
M000
003M
0000
M000
0000
M000
0000
,
000M
0000
000M
0000
M000
0000
0M00
00M0
,
1001
0000
0000
1001
0000
0000
0000
0000
,
0100
0000
0000
0000
0000
1001
0000
0000
,
1100
0000
0000
1100
0000
0000
0000
0000
,
0010
0000
0000
0000
0000
0011
0000
1001
,
1001
0000
0000
1010
0000
0000
0000
0000
,
0010
0000
0000
0000
0000
0110
0000
0000
,
0110
0000
0000
0101
0000
0000
0000
0000
,
1000
0000
0000
0000
0100
1000
0001
0000
,
0101
0000
0000
0110
0000
0000
0000
0000
,
0010
0000
0000
0000
0000
1010
0000
0000
,
1100
0000
0000
1001
0000
0000
0000
0000
,
0001
0000
0000
0000
0000
0101
0000
0110
,
0110
0000
0000
1010
0000
0000
0000
0000
,
1000
0000
0000
0000
0000
0101
0000
0000
,
1001
0000
0000
1100
0000
0000
0000
0000
,
0100
0000
0000
0000
1000
0001
0100
0000
,
0001
0000
1000
0100
1000
0000
0001
0100
0001
0000
1000
0010
1000
0000
0010
0100
,
0010
0000
1000
0001
1000
0000
0001
0010
0001
0000
0010
0100
0010
0000
0100
1000
,
0100
0000
1000
0001
1000
0000
0001
0100
0001
0000
1000
0010
1000
0000
0100
0010
,
0100
0000
0010
0001
0010
0000
0001
1000
0001
0000
1000
0010
1000
0000
0001
0100
,
0001
0000
0100
0010
0100
0000
0010
1000
0010
0000
1000
0001
1000
0000
0001
0010
,
0001
0000
0010
0100
0010
0000
0100
1000
0100
0000
1000
0001
1000
0000
0001
0100
,
0001
0000
0100
0010
0100
0000
0010
1000
0010
0000
1000
0001
1000
0000
0001
0010
,
0001
0000
1000
0010
1000
0000
0010
0100
0010
0000
1000
0001
1000
0000
0001
0100
,
0001
0010
0100
0010
0001
1000
0001
0010
,
0100
1000
0001
1000
0010
0100
0001
1000
,
0100
0010
0001
0100
0010
1000
0100
1000
,
0001
0000
0100
0000
0010
0000
0100
0000
0001
0000
1000
0000
0001
0000
0100
0001
,
0100
0010
1000
0010
0100
0001
1000
0001
1000
0010
0100
0010
1000
0001
1000
0001
,
0100
0001
1000
0010
0100
0010
1000
0001
0100
0001
1000
0010
1000
0010
0100
0001
,
0100
0000
0000
0000
,
0000
0000
0000
0000
,
2001
0000
0000
0001
0000
0000
0000
0000
3020
0000
M000
0000
0000
0000
0130
0000
,
0201
0000
0000
0000
0000
0000
0000
0000
0000
0000
0000
0000
0000
0000
0000
0000
0000
0000
0001
0000
0000
0000
0000
0000
0000
0000
0000
0000
0000
0000
0000
0000
0000
0000
0000
0000
0001
0000
0000
0000
0000
0000
0000
0000
0000
0000
0000
0000
0000
0000
0000
0000
0000
0000
0000
0000
0000
0000
0000
0000
0001
0000
0000
0000
0000
0000
0000
0000
0000
0000
0000
0000
0001
0000
0000
0000
0000
0000
0000
0000
0000
0000
0000
0000
0301
0000
0000
0000
0000
0000
0000
0000
0000
0000
0000
0000
2000
0000
0000
0000
0000
0000
0000
0000
0000
0000
0000
0000
0000
0000
0000
0000
0000
0000
0000
0000
0000
0000
0000
0000
0000
0000
0000
0000
0000
0000
0000
0000
0000
0000
0000
0000
0000
0000
0000
0000
0000
0000
0000
0000
0000
0000
0000
0000
3100
0000
0000
0000
0000
0000
0000
0000
0000
0000
0000
0000
0000
0000
0000
0000
0100
0000
0000
0000
0000
0000
0000
0000
0000
0000
0000
0000
0000
0000
0000
0000
0100
0000
0000
0000
0000
0000
0000
0000
0000
0000
0000
0000
0000
0000
0000
0000
,
0020
0000
0000
0000
0031
1000
0001
1000
0200
0000
0000
0000
0000
0000
0310
0000
,
2001
0000
3000
0001
0020
0000
0130
0000
2000
0000
0000
0000
0001
0000
3000
0000
,
0102
0000
0000
0000
0000
0000
0000
0000
0000
0100
0000
0000
0000
0000
0000
0000
0000
0000
0000
0000
0000
0000
0000
0000
1003
0000
0000
0000
1000
0000
0000
0000
1000
0000
0000
0000
0200
0000
0000
0000
0000
0000
0000
0000
0000
0000
0000
0000
,
0320
0000
0000
0000
0000
0000
0000
0000
0000
0000
0000
0000
0000
0000
0000
0000
0000
0000
0000
0000
0000
0000
0000
0000
0000
0000
0000
0000
0000
0000
0030
0000
0000
0000
0000
0000
0020
0000
0000
0000
0000
0000
0000
0000
0000
0000
0000
0000
0000
0000
0000
0000
0000
0000
0000
0000
0000
0000
0000
0000
0000
0000
0000
0000
0000
0000
0000
0000
0000
0000
0000
0000
0000
0000
0000
0000
0000
0000
0000
0000
0000
0000
0000
0000
0000
0000
0000
0000
0000
0000
0000
0000
0000
0000
0000
0000
0031
0000
0000
0000
0000
0000
0000
0000
0000
0000
0000
0000
0000
0000
1000
0000
0000
0000
0000
0000
0000
0000
0000
0000
0000
0000
0000
0001
0000
0000
0000
0000
0000
0000
0000
0000
0000
0000
0000
0000
0000
1000
0000
0000
0000
0000
0000
0000
0000
0000
0000
0000
0000
0000
0000
0001
0000
0000
0000
0000
0000
0000
0000
0000
0000
0000
0000
0000
0000
1000
0000
0000
0000
0000
0000
0000
0000
0000
0000
0000
0000
0000
0000
0001
0000
0000
0000
0000
0000
0000
0000
0000
0000
0000
0000
0000
,
0200
0000
0000
0000
0310
0010
0010
0010
2000
0000
0000
0000
0000
0000
3001
0000
,
0014
0000
0000
0000
0013
0000
0000
0000
0200
0000
0000
0000
0000
0000
0000
0000
2300
3000
0002
0003
0200
0300
0000
0000
0020
0030
0000
0000
2000
3000
0000
0000
,
0002
0003
0000
0000
0002
0003
0000
0000
0020
0030
0000
0000
0200
0300
2000
3000
1MM1
0000
0000
0000
0000
0000
0000
0000
0001
0000
0000
0000
0000
0000
0000
0000
,
0010
0100
1000
0000
1001
0000
0001
0100
,
0000
0001
0100
0000
1010
0000
1000
0000
,
0000
0010
0100
0000
0101
0000
0001
0010
,
0000
0100
1000
0000
1001
0000
0001
0000
,
0000
0010
0100
0000
1100
0000
1000
0001
,
0000
0100
0010
0000
0110
0000
0100
0000
,
0000
0001
1000
0000
1010
0000
0010
0100
,
0000
0000
0001
0000
0100
0000
0000
0000
0001
0000
0100
0001
0100
0000
0010
1000
,
0010
0000
0100
0001
0100
0000
0001
1000
0001
0000
1000
0010
1000
0000
0001
0100
,
0001
0000
0100
0010
0100
0000
0010
1000
0010
0000
0100
0001
0100
0000
0001
1000
,
0001
0000
1000
0100
1000
0000
0100
0010
0100
0000
0010
0001
0010
0000
0001
1000
,
0001
0000
0100
0010
0100
0000
0010
0000
1000
0000
0001
0000
0010
0000
0100
0000
,
1000
0010
0100
0001
0100
0010
1000
0100
,
0010
0000
0100
0000
1000
0000
0001
0000
0100
0001
0100
0010
1000
0001
1000
0010
,
0100
0010
0100
0001
1000
0001
0100
0001
01M0
0000
0000
0000
M000
0000
0000
0000
,
00M0
0000
M000
00M0
0001
0100
0001
1000
,
0100
1000
0001
0010
0100
1000
0100
1000
,
0010
0100
0010
1000
0100
0010
0001
0010
,
0100
1000
0001
1000
0010
1000
0010
1000
,
0100
1000
0010
0100
0001
1000
0100
1000
,
0001
0100
0010
0100
0001
1000
0001
1000
,
0100
1000
0010
0100
0001
0010
0100
1000
,
0001
0100
0010
1000
0100
1000
0100
1000
,
0001
0000
0010
0000
0001
0000
1000
0000
0001
0100
0001
1000
0010
0100
0010
1000
,
0001
0100
0001
1000
0010
0100
0010
1000
0001
1000
0001
1000
0010
1000
0001
0100
,
0010
0100
0001
0100
0010
1000
0001
1000
0001
0010
0001
1000
0100
0010
0100
1000
,
0001
0010
0001
1000
0100
0010
0100
1000
0001
1000
0001
1000
0100
1000
0001
0010
,
0100
1000
0001
1000
0100
0010
0001
1000
0001
0000
0000
0000
0000
0000
0000
0000
,
0000
0000
0000
0000
,
0000
0000
0000
0000
1001
0001
0100
0000
,
0010
1000
0100
0100
,
0010
0000
0001
2000
0000
0000
3000
0000
;
