#TITLE:Boom;
#SUBTITLE:;
#ARTIST:ItaloBrothers & Carlprit feat. Nightcore;
#TITLETRANSLIT:;
#SUBTITLETRANSLIT:;
#ARTISTTRANSLIT:;
#CREDIT:owenviau1;
#BANNER:BN.PNG;
#BACKGROUND:BG.PNG;
#LYRICSPATH:;
#CDTITLE:ov1_title.png;
#MUSIC:Nightcore - Boom.mp3;
#OFFSET:5.480;
#SAMPLESTART:36.400;
#SAMPLELENGTH:29.999;
#SELECTABLE:YES;
#BPMS:0.000=191.810;
#STOPS:;
#BGCHANGES:;
// cache tags:
#FIRSTBEAT:36.000;
#LASTBEAT:493.000;
#SONGFILENAME:Songs/Owenviau1 Simfiles 4/Boom - Nightcore [owenviau1]/Nightcore - Boom.sm;
#HASMUSIC:1;
#HASBANNER:1;
#MUSICLENGTH:150.073;
// end cache tags

//---------------dance-single - ----------------
#NOTES:
     dance-single:
     :
     Challenge:
     11:
     0.976,1.000,1.000,0.920,0.903,702.000,183.000,138.000,0.000,4.000:

0000
0000
0000
0000
,
0000
0000
0000
0000
,
0000
0000
0000
0000
,
0000
0000
0000
0000
,
0000
0000
0000
0000
,
0000
0000
0000
0000
,
0000
0000
0000
0000
,
0000
0000
0000
0000
,
0000
0000
0000
0000
,
2000
0000
3101
0010
,
1100
0000
0010
0000
0110
0000
0001
2000
,
0000
0000
3100
0010
0001
1000
0010
0100
,
0002
0000
0023
0000
0030
0200
0000
2300
,
0000
0000
3000
0000
0000
0000
0000
0002
0023
0000
0230
0000
2300
0000
3002
0000
,
0203
0000
0320
0000
2030
3200
0320
0002
,
0000
0033
0200
0320
2030
0000
3020
0000
,
0230
0000
0302
0000
0003
0020
0000
2000
,
0000
3030
1001
0010
,
0101
0000
1000
0000
0011
0000
0010
2000
,
0000
0000
3100
0010
0001
1000
0010
0100
,
0002
0000
0023
0000
0030
0200
0000
2300
,
0000
0000
3000
0000
0000
0000
0000
0002
0023
0000
0230
0000
2300
0000
3002
0000
,
0203
0000
0320
0000
2030
3200
0320
0002
,
0000
0033
0200
0320
2030
0000
3020
0000
,
0230
0000
0302
0000
0003
2000
0000
0002
,
0000
0000
0000
3013
0000
0000
0101
0000
1000
0010
0000
0010
,
0100
0000
0100
0001
0000
0001
0010
0000
0010
0100
0000
0100
,
1000
0000
1000
0001
0000
0001
0100
0000
0100
0010
0000
0010
,
1000
0000
1000
0001
0000
0001
0100
0000
0100
0010
0000
0010
,
1000
0000
1000
0100
0000
0100
0010
0000
0010
0001
0000
0001
,
0100
0000
0100
0010
0000
0010
1000
0000
1000
0001
0000
0001
,
0100
0000
0100
0010
0000
0100
1000
0100
0010
0001
1000
0010
,
0100
0000
0001
0000
1000
0000
0001
0000
0100
0000
0010
0000
2000
0000
3200
0000
0320
0000
0032
0000
0003
0020
0000
0000
,
0230
0000
0000
0000
0000
1300
0100
0000
0100
0010
0000
0010
,
0001
0000
0001
1000
0000
1000
0010
0000
0010
0100
0000
0100
,
0001
0000
0001
0010
0000
0010
0100
0000
0100
0001
0000
0001
,
1000
0000
1000
0010
0000
0010
1000
0000
1000
0001
0000
0001
,
0100
0000
0100
0010
0000
1000
1100
0000
0100
0110
0000
0010
,
0011
0000
0001
1001
0000
1000
1010
0000
0010
0110
0000
0100
,
0101
0000
0001
0011
0000
0010
0110
0000
0100
1100
0000
1000
,
1001
0000
0001
0101
0000
1000
0010
0100
0001
0010
0001
0100
,
0010
1000
0100
0010
0001
0010
1100
0000
1000
0001
0000
0001
,
0100
0000
0100
0010
0000
0010
1000
0000
1000
0001
0000
0001
,
0100
0000
0100
0010
0000
0010
0100
0000
0100
0001
0000
0001
,
1000
0000
1000
0010
0000
0010
1000
0000
1000
0100
0000
0100
,
0010
0000
0010
0001
0000
0001
1000
0000
1000
1100
0000
0100
,
0110
0000
0010
0011
0000
0001
1001
0000
1000
1010
0000
0010
,
0110
0000
0100
0101
0000
0001
0011
0000
0010
0110
0000
0100
,
1100
0000
1000
1001
0000
0001
0101
0000
0100
0110
0000
0010
,
1010
0000
1000
1001
0000
0001
0101
0000
0001
0011
0000
0010
,
0110
0000
0100
1100
0000
1000
1001
0000
1000
1010
0000
0010
,
0110
0000
0100
0101
0000
0001
1001
0000
1000
1100
0000
0100
,
0110
0000
0010
0011
0000
0001
0101
0000
0010
0110
0000
0010
,
1010
0000
1000
1001
0000
0100
0110
0000
0001
0101
0000
1000
,
1010
0000
0100
0110
0000
0001
0101
0000
1000
1010
0000
0100
,
0110
0000
0001
0101
0000
0000
2002
0000
0000
3003
0000
2000
,
3020
0230
0302
2000
,
0000
0000
3113
0001
,
0101
0000
1000
0000
0011
0000
0010
2000
,
0000
0000
3100
0010
0001
1000
0010
0100
,
0002
0000
0023
0000
0030
0200
0000
2300
,
0000
0000
3000
0000
0000
0000
0000
0002
0023
0000
0230
0000
2300
0000
3002
0000
,
0203
0000
0320
0000
2030
3200
0320
0002
,
0000
0033
0200
0320
2030
0000
3020
0000
,
0230
0000
0302
0000
0003
2000
0000
0002
,
0000
0000
0000
3103
0010
0001
1001
0000
1000
1100
0000
0100
,
0110
0000
0010
0011
0000
0001
1001
0000
1000
1010
0000
0010
,
0110
0000
0100
0101
0000
0001
0011
0000
0010
0110
0000
0100
,
1100
0000
1000
1001
0000
0001
0101
0000
0100
0110
0000
0010
,
1010
0000
1000
1001
0000
0001
0101
0000
0001
0011
0000
0010
,
0110
0000
0100
1100
0000
1000
1001
0000
1000
1010
0000
0010
,
0110
0000
0100
0101
0000
0001
1001
0000
1000
1100
0000
0100
,
0110
0000
0010
0011
0000
0000
1001
0000
2000
0000
3000
0002
,
0000
0000
0000
0000
0003
0000
1001
0000
1000
1100
0000
0100
,
0110
0000
0010
0011
0000
0001
1001
0000
1000
1010
0000
0010
,
0110
0000
0100
0101
0000
0001
0011
0000
0010
0110
0000
0100
,
1100
0000
1000
1001
0000
0001
0101
0000
0100
0110
0000
0010
,
1010
0000
1000
1001
0000
0001
0101
0000
0001
0011
0000
0010
,
0110
0000
0100
1100
0000
1000
1001
0000
1000
1010
0000
0010
,
0110
0000
0100
0101
0000
0001
1001
0000
1000
1100
0000
0100
,
0110
0000
0010
0011
0000
0001
1000
0100
0010
0001
0100
0001
,
1000
0010
0100
0001
0010
0100
4000
0004
0000
0000
0000
0000
,
0000
0000
0000
0000
,
0000
0000
0000
0000
,
0000
0000
0000
0000
,
0000
0000
0000
0000
,
0000
0000
0000
0000
,
0000
0000
0000
0000
,
0000
0000
0000
0000
,
0000
0000
0000
0000
,
0000
0000
3113
0001
,
0101
0000
1000
0000
0011
0000
0010
2000
,
0000
0000
3100
0010
0001
1000
0010
0100
,
0002
0000
0023
0000
0030
0200
0000
2300
,
0000
0000
3000
0000
0000
0000
0000
0002
0023
0000
0230
0000
2300
0000
3002
0000
,
0203
0000
0320
0000
2030
3200
0320
0002
,
0000
0033
0200
0320
2030
0000
3020
0000
,
0230
0000
0302
0000
0003
2000
0000
0002
,
0000
3003
1010
0001
,
0101
0000
1000
0000
0011
0000
0010
2000
,
0000
0000
3100
0010
0001
1000
0010
0100
,
0002
0000
0023
0000
0030
0200
0000
2300
,
0000
0000
3000
0000
0000
0000
0000
0002
0023
0000
0230
0000
2300
0000
3002
0000
,
0203
0000
0320
0000
2030
3200
0320
0002
,
0000
0033
0200
0320
2030
0000
3020
0000
,
0230
0000
0302
0000
0003
2000
0000
0002
,
0000
0000
0000
3003
0000
0000
1001
0000
1000
1100
0000
0100
,
0110
0000
0010
0011
0000
0001
1001
0000
1000
1010
0000
0010
,
0110
0000
0100
0101
0000
0001
0011
0000
0010
0110
0000
0100
,
1100
0000
1000
1001
0000
0001
0101
0000
0100
0110
0000
0010
,
1010
0000
1000
1001
0000
0001
0101
0000
0001
0011
0000
0010
,
0110
0000
0100
1100
0000
1000
1001
0000
1000
1010
0000
0010
,
0110
0000
0100
0101
0000
0001
1001
0000
1000
1100
0000
0100
,
0110
0000
0010
0011
0000
1000
0100
0010
0001
0100
0010
1000
,
0001
1000
0010
0100
0001
1000
1001
0000
0001
0101
0000
1000
,
1001
0000
0010
1010
0000
0001
1001
0000
1000
1010
0000
0010
,
0110
0000
0100
0101
0000
0001
0011
0000
0010
0110
0000
0100
,
1100
0000
1000
1001
0000
0001
0101
0000
0100
0110
0000
0010
,
1010
0000
1000
1001
0000
0001
0101
0000
0001
0011
0000
0010
,
0110
0000
0100
1100
0000
1000
1001
0000
1000
1010
0000
0010
,
0110
0000
0100
0101
0000
0001
1001
0000
1000
1100
0000
0100
,
0110
0000
0010
0011
0000
0001
0010
0100
1000
0001
0100
0010
,
1000
0000
0001
0000
0100
0000
0001
0000
0010
0000
0100
0000
1000
0000
0000
0100
0000
0000
2002
0000
0000
0000
0000
0000
,
0000
3003
0000
0000
;

//---------------dance-single - ----------------
#NOTES:
     dance-single:
     :
     Hard:
     9:
     0.566,0.575,0.746,0.020,0.000,480.000,112.000,3.000,0.000,0.000:

0000
0000
0000
0000
,
0000
0000
0000
0000
,
0000
0000
0000
0000
,
0000
0000
0000
0000
,
0000
0000
0000
0000
,
0000
0000
0000
0000
,
0000
0000
0000
0000
,
0000
0000
0000
0000
,
0000
0000
0000
0000
,
0000
0000
1000
0100
,
0010
0001
0100
0001
,
0010
0100
0100
1000
,
0001
0010
0000
0100
,
1000
0000
0001
0100
,
0010
0000
1000
0000
0010
0100
0001
0010
,
0000
0100
1000
0001
,
0010
0100
0000
1000
,
0001
0000
1001
0010
,
1010
0010
0110
0100
,
0101
0001
0001
0010
,
0100
1000
0001
0010
,
0100
0000
0001
0000
1000
0001
0010
0100
,
1000
0000
0001
0000
0100
0001
0010
0100
,
1000
0000
0001
0100
0001
0000
0010
0000
,
0100
0000
1000
0000
0001
0000
0100
0001
,
0010
0100
1100
0100
,
0110
0010
0011
0001
,
0101
0100
0110
0010
,
1010
1000
1001
0001
,
0101
0100
0110
0010
,
1010
1000
1100
0100
,
0110
0010
0011
0001
,
0101
0010
1000
0000
,
0000
0000
1001
1010
,
0010
1001
0100
0110
,
0010
0011
0001
1001
,
1000
1010
0010
0110
,
0100
0101
0001
0011
,
0010
0110
0100
1100
,
1000
1001
0001
0101
,
0100
0110
0020
0000
,
0000
0000
0000
0030
1000
0000
0100
0000
,
0010
0001
0100
0001
,
0010
0100
0100
1000
,
0001
0100
0010
1000
,
0001
0010
1000
0101
,
0001
1010
0010
0110
,
0100
0101
0001
1001
,
1000
1100
0100
0110
,
0010
0011
0001
1001
,
1000
1010
0010
0011
,
0001
1001
0001
0101
,
0100
0110
0010
1010
,
1000
1001
0001
0101
,
0100
0110
0010
1010
,
1000
1001
0001
0000
,
0010
0100
1000
0001
,
0000
0000
1000
0010
,
0100
0001
0010
0100
,
1000
0000
0001
0000
0010
0000
0100
1000
,
0100
0010
0001
0100
,
0010
0000
1000
0000
0001
1000
0001
0010
,
0100
0000
1000
0000
0001
1000
0001
0010
,
0100
1000
0001
0010
,
0100
1000
0001
0010
,
0100
1000
1001
0010
,
1010
0010
0110
0100
,
0101
0001
1001
1000
,
1100
0100
0010
0001
,
0100
0000
0010
0000
1000
0001
1000
0001
,
0010
0000
0100
0000
1000
0100
0010
0001
,
0100
0000
0010
1000
0001
0000
0010
0000
,
0100
0000
1000
0000
0000
0001
0000
0100
,
0000
0000
1010
0010
,
0110
0100
0101
0001
,
1001
1000
1010
0010
,
0110
0100
1100
1000
,
1001
0001
0101
0100
,
0110
0010
1010
0001
,
1100
0001
0110
0001
,
1100
0001
1000
0100
,
0010
0000
0001
0000
0100
0000
0010
1000
,
0001
0000
0010
0000
0100
0000
1000
0001
,
1000
0010
0100
0000
0001
1000
0010
0000
,
0100
0001
0010
0000
0100
0000
1000
0000
,
0001
0000
1000
0010
0100
0000
0001
0000
,
0010
0000
0100
1000
0001
0000
0010
0000
,
0100
0000
1000
0001
0100
0000
0010
0000
,
1000
0000
0001
0000
0010
0100
1000
0000
,
0001
0000
0100
0000
0010
1000
0001
0000
,
1001
0010
1010
0010
,
0101
0001
1001
1000
,
0010
0000
0100
0001
0010
0000
0100
1000
,
0001
0100
0010
1000
,
0001
0000
0010
0000
0100
1000
0100
0001
,
0001
0000
0100
0000
0010
1000
0001
0100
,
0010
0000
1000
0001
1000
0000
0010
0000
,
0100
0001
0010
0100
,
1000
0001
1001
1000
,
1010
0000
0010
0000
0100
0000
0001
0010
,
0100
0000
1000
0001
1000
0000
0010
0100
,
0010
1000
0001
0010
,
0100
0000
1000
0000
1000
0100
0010
0001
,
0100
0000
0100
0000
0100
0010
1000
0010
,
0100
0000
0001
1000
0001
0000
0010
0000
,
0100
0000
1000
0000
0000
0001
0000
0100
,
0000
0000
1010
0010
,
0110
0100
1100
1000
,
1001
0001
0101
0100
,
1001
1000
1010
0010
,
0011
0001
0101
1000
,
1010
0010
0101
0001
,
0110
0100
0110
0010
,
1010
1000
1001
0001
,
0101
0100
0110
0010
,
1010
1000
1001
0001
,
0101
0100
0110
0010
,
1010
1000
1100
0100
,
0110
0010
0011
0001
,
0101
0100
0110
0010
,
1001
1000
1100
0100
,
0011
0001
0110
0100
,
1001
0000
1000
0000
0010
0100
2002
0000
,
0000
3003
0000
0000
;
