#TITLE:fun;
#SUBTITLE:;
#ARTIST:Mr.T;
#TITLETRANSLIT:;
#SUBTITLETRANSLIT:;
#ARTISTTRANSLIT:;
#CREDIT:;
#BANNER:fun.png;
#BACKGROUND:fun-bg.png;
#LYRICSPATH:;
#CDTITLE:;
#MUSIC:Konami - Mr.T  fun.mp3;
#OFFSET:1.646;
#SAMPLESTART:59.880;
#SAMPLELENGTH:12.000;
#SELECTABLE:YES;
#BPMS:0.000=100.000,98.000=200.000,162.000=100.000,180.000=200.000,188.000=100.000;
#STOPS:;
#BGCHANGES:;
// cache tags:
#FIRSTBEAT:3.500;
#LASTBEAT:201.750;
#SONGFILENAME:Songs/Community Keyboard Megapack - Volume 2/(skorpion9x) Fun/fun.sm;
#HASMUSIC:1;
#HASBANNER:1;
#MUSICLENGTH:101.856;
// end cache tags

//---------------dance-single - ----------------
#NOTES:
     dance-single:
     :
     Hard:
     11:
     0.983,0.941,1.000,0.118,1.000,523.000,166.000,12.000,0.000,0.000:
0000
0000
0000
0000
0000
0000
0000
0000
0000
0000
0000
0000
0000
0000
0000
0000
0000
0000
0000
0000
0000
1000
0001
0100
,
1001
0000
0000
0110
0000
0000
0001
1000
0100
1001
0000
0000
0110
0001
0100
0010
1000
0001
0110
0000
0000
0000
0000
1001
,
0000
0000
0000
1100
0000
0000
0110
0000
0000
0011
0000
0000
1001
0000
0100
0010
0000
0001
1100
0000
0010
0000
0000
1001
,
0000
0000
1000
1100
0000
0000
0011
0000
0000
1010
0000
0000
1001
0000
1000
0110
0000
0001
1100
0000
0010
0000
0000
0101
,
0000
0000
0000
0110
0000
0000
1010
0000
0000
0110
0000
0000
1001
0000
0100
0010
0000
0001
1010
0000
0100
0000
0000
0101
,
0000
0000
0001
1001
0000
0000
1100
0000
0000
0110
0000
0000
0011
0000
1000
0001
0100
0001
0120
0000
1000
0030
0000
1100
,
0000
0000
0100
0011
0000
0000
1001
0000
0000
1100
0000
0000
0110
0000
0001
0100
0000
0100
1010
0000
1000
0000
0000
1001
,
0000
0000
0100
0011
0000
0000
1001
0000
0000
1100
0000
0000
1010
0000
0100
0011
0000
1000
1001
0000
1100
0000
0000
0022
,
0000
0000
0000
0033
0000
0100
1000
0000
1000
0100
0000
2200
0000
3300
0000
0011
0000
0000
0010
0001
0100
0010
0000
0000
,
1001
0000
0011
0000
0000
1000
0011
0000
1000
0101
0000
1000
0110
0000
0100
1001
0010
0100
1001
0000
1001
0000
0000
1001
,
0000
0000
0000
1001
0000
0000
1010
0000
0000
1010
0000
0000
0110
0000
0000
0110
0000
0000
0101
0000
0100
0001
0000
1001
,
0000
0000
0100
1001
0000
0000
0011
0000
0000
0011
0000
0000
0110
0000
1000
0011
0000
0000
0011
0000
1000
0000
0000
0101
,
0000
0000
1000
0101
0000
0000
0110
0000
0001
1100
0000
0000
1010
0000
1001
0000
0000
1100
0000
0000
1000
0011
0000
1001
,
0000
0000
0001
0000
0010
0100
0010
0100
0000
0011
0000
0000
0001
0010
0100
1000
0000
0001
0100
0000
0010
1000
0000
1001
,
0000
0000
0001
1100
0000
0000
0110
0000
0000
0110
0000
0000
0011
0000
0000
0011
0000
0000
0101
0000
1000
0101
0000
0011
,
0000
0000
1001
0000
0000
0000
0101
0000
0000
0101
0000
0000
1100
0000
0000
1100
0000
0000
0110
0000
0011
0000
0000
1001
,
0000
0000
0100
1001
0000
0000
1100
0000
0000
1100
0000
0000
0110
0000
0100
1001
0000
0000
1001
0100
0010
0100
0010
0100
,
1001
0000
0000
0010
0000
0001
0100
0000
0010
0000
0000
1000
0110
0000
1000
0110
0000
1000
0110
0000
0011
0000
0000
1100
,
0000
0000
0001
1100
0000
0000
0110
0000
0000
0110
0000
0000
0011
0000
0010
0001
0000
1000
0100
0000
0010
0000
0000
0110
,
0000
0000
0001
1100
0000
0000
0110
0000
0000
0110
0000
0000
1001
0000
0100
0011
0000
0100
1001
0000
1000
0000
0000
0022
,
0000
0000
0000
0033
0000
0100
1000
0000
1000
0100
0000
2200
0000
0000
3300
1001
0000
0000
0110
0001
1000
0101
0000
1001
,
0000
0000
0000
0000
0000
1000
0000
0000
0000
0100
0000
0100
0000
0000
0100
1000
0000
0000
0001
1000
0010
0100
0000
0100
,
0000
0000
0000
0100
0000
0100
0010
1000
0001
0100
0000
0100
0001
1000
0100
1000
0010
0100
0001
0000
0000
0110
0000
1001
,
0000
0000
0000
0100
0000
0010
0000
0010
0000
0100
0000
0010
0000
0000
0010
1000
0100
1000
0001
0000
0100
0000
0000
0000
,
0110
0000
0000
0000
0000
0000
0000
0000
0000
0000
0000
0000
0000
0000
0000
0000
0100
0000
0000
0000
0000
0000
0000
0000
0001
0000
0000
0000
0000
0000
0000
0000
0000
0000
0000
0000
0000
0000
0000
0000
0001
0000
0000
0000
0000
0000
0000
0000
0010
0000
0000
0000
0000
0000
0100
0000
0000
0000
0000
0000
0010
0000
0000
0000
0000
0000
0100
0000
0000
0000
0000
0000
0010
0000
0000
0000
0000
0000
0100
0000
0000
0000
0000
0000
0010
0000
0000
0000
0000
0000
0100
0000
0000
0000
0000
0000
1000
0000
0000
0000
0000
0000
0000
0000
0000
0000
0000
0000
0000
0000
0000
0000
0001
0000
0000
0000
0000
0000
0000
0000
0000
0000
0000
0000
0000
0000
0000
0000
1000
0000
0000
0000
0000
0000
0000
0000
0000
0000
0000
0000
0000
0000
0000
0000
0001
0000
0000
0000
0000
0000
0000
0000
0000
0000
0000
0000
0000
0000
0000
0000
1000
0000
0000
0000
0000
0000
0000
0000
0000
0000
0000
0000
0000
0000
0000
0000
0001
0000
0000
0000
0000
0000
0000
0000
0000
0000
0000
0000
0000
0000
0000
0000
,
1000
0001
1000
0001
0000
0100
0000
0000
0000
0010
0000
0000
,
0000
0000
0000
1000
0000
0100
1000
0000
0100
0010
0000
0001
,
1000
0010
0100
0001
0000
1000
0000
0000
0100
1000
0000
0001
,
0000
0000
0100
0001
0000
0010
0000
0000
0010
0100
0000
1000
,
0000
0000
0000
0000
0000
0100
0001
0010
0100
1000
0010
0100
,
0001
0010
0100
1000
0100
0010
0001
0100
0010
1000
0100
0010
,
0001
0100
0010
1000
0000
0000
0001
0000
1000
0001
1000
0001
,
0010
0100
0010
0100
0010
0100
1000
0010
1000
0010
1000
0001
,
0010
0100
0010
0100
0000
0010
0000
0010
0001
0010
0100
1000
,
0001
0010
0100
0010
0100
1000
0001
0010
0100
0010
0100
1000
,
0001
0100
0010
1000
0000
0001
0000
0000
0100
0010
0000
0100
,
0001
0000
1000
0010
0000
0100
0001
0000
1000
0010
0000
1000
,
0100
0000
0010
0001
0000
1001
0000
0000
0001
1000
0100
1000
,
0001
1000
0010
0000
0000
1001
0000
0000
0100
0001
1000
0100
,
1000
0001
1000
0010
0100
0010
1001
0000
0000
1001
0000
0000
,
1001
0000
0000
0000
0000
0000
1001
0000
0000
0000
0000
0000
1001
0000
0000
0000
0000
0000
0220
0000
0000
0330
0000
1100
,
0000
0000
0001
1100
0000
0000
0110
0000
0000
0110
0000
0000
0011
0000
1000
0000
0000
0100
0010
0000
0001
0000
0000
0101
,
0000
0000
0000
0101
0000
0000
0110
0000
0000
0110
0000
0000
1010
0000
0100
0011
0000
0001
1100
0000
1001
0000
0000
0021
,
0000
0000
0000
0000
0030
0100
1010
0000
0010
0100
0000
0100
0000
0000
0100
1010
0000
0100
1010
0000
0100
1010
0000
0100
,
0000
0000
0000
0100
0001
1000
0011
0000
0100
0011
0000
1100
0000
0000
1000
0011
0000
0000
0001
1000
0001
1000
0001
0100
,
1001
0010
0100
0001
1000
0100
0010
0001
0010
0100
1000
0010
,
0100
0001
0010
0100
1000
0001
1000
0001
1000
0010
0000
0000
,
0110
0000
0000
0000
0000
0000
1000
0000
0010
0000
0100
0000
0001
0000
0010
0000
0100
0000
1000
0000
0010
0000
0100
1001
,
0011
0000
0000
0000
0000
0000
0000
0000
0000
0000
0000
0000
0000
0000
0000
0000
1100
0000
0000
0000
0000
0000
0000
0000
0000
0000
0000
0000
0000
0000
0000
0000
0110
0000
0000
0000
0000
0000
0000
0000
0000
0000
0000
0000
0000
0000
0000
0000
1001
0000
0000
0000
0000
0000
0000
0000
0000
0000
0000
0000
0000
0000
0000
0000
0000
0000
0000
0000
0000
0000
0000
0000
0000
0000
0000
0000
0000
0000
0000
0000
0110
0000
0000
0000
0000
0000
0000
0000
0000
0000
0000
0000
0000
0000
0000
0000
0000
0000
0000
0000
0000
0000
0000
0000
0000
0000
0000
0000
0000
0000
0000
0000
0000
0000
0000
0000
0000
0000
0000
0000
0000
0000
0000
0000
0000
0000
0000
0000
0000
0000
0000
0000
0000
0000
0000
0000
0000
0000
0000
0000
0000
0000
0000
0000
0000
0000
0000
0000
0000
0000
0000
0000
0000
0000
0000
0000
0000
0000
0000
0000
1000
0000
0000
0000
0000
0000
0000
0000
0001
0000
0000
0000
0000
0000
0000
0000
0010
0000
0000
0000
0000
0000
0000
0000
0000
0000
0100
0000
0000
0000
0000
0000
,
0000
0000
0000
0000
0010
0000
0000
0000
0000
0000
0000
0000
0000
0000
0000
0100
0000
0000
0000
0000
0000
0000
0000
0000
0010
0000
0000
0000
0000
0000
0000
0000
0000
0100
0000
0000
0000
0000
0000
0000
0000
0000
0010
0000
0000
0000
0000
0000
0000
0000
0000
0000
0000
0000
0100
0000
0000
0000
0000
0000
0000
0000
0000
0000
0010
0000
0000
0000
0000
0000
0000
0000
0000
0000
0000
0100
0000
0000
0000
0000
0000
0000
0000
0000
0010
0000
0000
0000
0000
0000
0000
0000
0000
0000
0000
0000
0100
0000
0000
0000
0000
0000
0000
0000
0000
0000
0000
0000
0010
0000
0000
0000
0000
0000
0000
0000
0000
0000
0000
0000
0000
0000
0000
0100
0000
0000
0000
0000
0000
0000
0000
0000
0000
0000
0000
0000
0000
0000
0010
0000
0000
0000
0000
0000
0000
0000
0000
0000
0000
0000
0000
0000
0000
0000
0000
0000
0000
0000
0000
0000
0000
0000
0000
0000
0000
0000
0000
0000
0000
0000
0000
0000
0000
0000
0000
0000
0000
0000
0000
0000
0000
0000
0000
0000
0000
0000
0000
0000
0000
0000
0000
0000
,
0000
0000
0000
0000
0000
0000
0000
0000
0000
0000
0000
0000
0000
0000
0000
0000
0000
0000
0000
0000
0000
0000
0000
0000
0000
0000
0000
0000
0000
0000
0000
0000
0000
0000
0000
0000
0000
0000
0000
0000
0000
0000
0000
0000
0000
0000
0000
0000
0000
0000
0000
0000
0000
0000
0000
0000
0000
0000
0000
0000
0000
0000
0000
0000
0010
0000
0000
0000
0000
0000
0000
0000
0001
0000
0000
0000
0000
0000
0100
0000
0000
0000
0000
0000
1000
0000
0000
0000
0000
0000
0000
0000
0000
0000
0000
0000
0000
0000
0000
0000
0000
0000
0000
0000
0000
0000
0000
0000
0000
0000
0000
0000
0000
0000
0000
0000
0000
0000
0000
0000
0000
0000
0000
0000
0000
0000
0000
0000
0000
0000
0000
0000
0000
0000
0000
0000
0000
0000
0000
0000
0000
0000
0000
0000
0000
0000
0000
0000
0000
0000
0000
0000
0000
0000
0000
0000
0000
0000
0000
0000
0000
0000
0000
0000
0000
0000
0000
0000
0000
0000
0000
0000
0000
0000
0000
0000
0000
0000
0000
0000
0000
0000
0000
0000
0000
0000
0000
0000
0000
0000
0000
0000
;
