#TITLE:Surface;
#SUBTITLE:;
#ARTIST:Dimrain47;
#TITLETRANSLIT:;
#SUBTITLETRANSLIT:;
#ARTISTTRANSLIT:;
#CREDIT:;
#BANNER:surface.png;
#BACKGROUND:surfaceBG.png;
#LYRICSPATH:;
#CDTITLE:;
#MUSIC:Dimrain47 - Surface.ogg;
#OFFSET:-0.015;
#SAMPLESTART:45.930;
#SAMPLELENGTH:12.000;
#SELECTABLE:YES;
#DISPLAYBPM:190.000;
#BPMS:0.000=190.000,224.000=95.000,240.000=190.000,272.000=95.000,304.000=190.000;
#STOPS:;
#BGCHANGES:;
// cache tags:
#FIRSTBEAT:16.000;
#LASTBEAT:351.000;
#SONGFILENAME:Songs/Rodd's Revival/Surface (Rodd Steps)/Surface (Rodd Steps).sm;
#HASMUSIC:1;
#HASBANNER:1;
#MUSICLENGTH:127.568;
// end cache tags

//---------------dance-single - R. Farias----------------
#NOTES:
     dance-single:
     R. Farias:
     Challenge:
     12:
     1.000,1.000,0.063,1.000,1.000,793.000,8.000,191.000,142.000,0.000:

0000
0000
0000
0000
,
0000
0000
0000
0000
,
0000
0000
0000
0000
,
0000
0000
0000
0000
,
0002
0000
0000
0000
0203
0320
0000
0000
,
2030
0000
0000
0000
3002
0203
0000
0000
,
0310
1000
0100
0010
0001
0010
0100
1000
,
0MM2
0M00
00M0
0M00
00M0
00M0
0M00
0MM0
20M3
0MM0
0M00
00M0
00M0
0M00
00M0
0000
,
3100
0010
0001
0010
0100
1000
0100
0010
0001
0010
0100
1000
0001
0100
0010
1000
,
0001
0100
0010
1000
0001
0100
0010
1000
0100
0010
0100
1000
0100
0010
0001
0010
,
0100
0010
0001
0010
0100
0010
0001
0100
0010
0100
0001
1000
0100
0010
0100
1000
,
0001
0100
0010
1000
0100
1000
0010
1000
0001
1000
0100
1000
0010
0100
0001
0010
,
0001
1000
0001
0100
0001
0010
0100
1000
0001
0100
0010
1000
0001
0100
0010
1000
,
0100
0010
0001
0010
0100
1000
0100
0010
0001
0100
0010
1000
0001
0100
0010
1000
,
0001
0100
0010
0100
0001
1000
0100
0010
0001
1000
0100
0010
0001
0010
0100
1000
,
0001
0010
0100
1000
0001
0100
0010
1000
0001
0100
0010
1000
0100
0010
0100
1000
,
0002
0203
0320
2030
,
3200
0300
0020
0030
0200
0000
0000
0000
0320
0000
0000
0000
0032
0000
0000
0000
,
0203
0320
2030
3002
,
2003
3000
0002
0003
2000
0000
0000
0000
3200
0300
0020
0030
0002
0003
0200
0300
,
0020
2030
3200
0302
,
0203
0300
0002
0003
0200
0000
0000
0000
0320
0000
0000
0000
0032
0000
0000
0000
,
0203
0300
0020
0030
0200
0000
0000
0000
0320
0000
0000
0000
2030
0000
0000
0000
,
3200
0000
0300
0000
0120
0030
0021
0000
,
0031
0100
0010
1000
0001
0100
0010
1000
0001
0100
0010
1000
0100
1000
0010
0100
,
0001
0010
0001
0100
0010
1000
0001
1000
0001
1000
0100
0010
0001
0010
0100
1000
,
0100
0010
0001
0100
0001
0100
0010
1000
0010
1000
0100
1000
0100
0010
0001
0100
,
0010
1000
0001
0100
0010
0100
0001
1000
0100
1000
0100
0010
0001
0010
0100
1000
,
0010
0100
0010
1000
0001
0100
0010
1000
0001
0100
0010
1000
0100
0010
0100
1000
,
0100
0010
0001
0010
0100
0010
0001
0100
0010
0100
0010
0100
0001
1000
0100
0010
,
0100
0010
0100
0010
0100
1000
0001
0100
0010
0100
0001
1000
0100
0010
0001
1000
,
0100
0010
0001
0010
0100
1000
0001
0010
0100
1000
0100
0010
0001
0010
0100
1000
,
0001
0100
0010
1000
0100
0010
0001
0010
,
0100
1000
0200
0000
0302
0000
0203
0000
,
0310
0001
0100
0010
1000
0001
0100
0010
,
1000
0100
2000
0000
3002
0000
0203
0000
,
0310
1000
0100
0001
0100
0010
0001
0100
,
0010
0100
0020
0000
2030
0000
3200
0000
,
0320
0030
0002
0003
0200
0000
0000
0000
0320
0000
0000
0000
2030
0000
0000
0000
,
3200
0320
0032
0203
,
0310
1000
0010
1000
0010
1000
0100
1000
0100
1000
0001
1000
0001
1000
0001
0100
,
0001
0100
0001
0100
0010
1000
0100
0010
0001
0010
0100
1000
0001
0100
0010
1000
,
0001
0100
0010
0100
0001
1000
0100
0010
0100
1000
0001
0100
0010
1000
0100
1000
,
0001
1000
0100
1000
0010
1000
0100
1000
0001
0100
0001
0010
0001
1000
0001
0100
,
0001
0010
0100
1000
0100
0010
0001
1000
0100
0010
0001
0010
0100
1000
0001
0010
,
0100
1000
0001
1000
0001
1000
0001
1000
0100
0010
0100
0010
0100
0010
0001
0010
,
0001
0100
0010
1000
0001
0100
0010
1000
0001
0100
0010
1000
0100
0010
0100
1000
,
0100
0010
0001
0010
0100
0010
0001
0100
0001
0100
0001
0100
0001
0000
0100
0000
,
0020
2030
3200
0302
,
0203
0000
0000
0000
0000
0000
0320
0030
0002
0003
0200
0300
0020
0030
2000
3000
,
0002
0000
0000
0000
0203
0000
0000
0000
0320
0030
0020
0030
2000
3000
0002
0003
,
0200
0300
0020
0030
0200
0300
0002
0003
2000
0000
0000
0000
3200
0000
0000
0000
,
0320
0032
2003
3002
,
0203
0000
0000
0000
0320
0000
0000
0000
0230
0300
0002
0003
2000
3000
0200
0300
,
0020
0032
0203
0320
,
2030
0000
0000
0000
3200
0000
0000
0000
0302
0000
M000
M000
02M3
00M0
M000
M000
,
0310
0001
M010
010M
10M0
0001
0100
M010
0100
0001
1000
0100
0010
M001
0010
0100
,
1000
0001
0100
0010
1000
0001
0100
M010
0100
00M1
1000
0100
0010
010M
1000
0001
,
0100
M010
0100
0001
1000
0100
001M
0100
1000
0M01
10M0
0001
0100
0010
0100
0010
,
2000
00M0
000M
3100
0020
0M00
M000
0031
0100
00M0
0101
M000
0011
0M00
1001
0000
,
21MM
0000
0000
0000
0000
0000
0200
3000
0320
0000
0000
0000
0000
0000
0032
0000
,
0203
0000
0000
0320
2030
3200
0320
0032
,
0203
0000
0000
0320
2030
0000
0000
3200
,
0320
0000
0000
0000
0000
0000
0230
0300
2000
3000
0002
0003
0200
0300
0020
0030
,
0200
0000
0000
0302
2003
0000
0000
3002
,
2003
0000
0000
0000
0000
0000
3002
0003
2000
3000
0200
0300
0002
0003
0200
0300
,
0020
0000
0000
0032
0203
0000
0000
2300
,
3200
0000
0000
0320
1030
0100
0010
0001
,
0200
M000
000M
0000
M00M
00M0
000M
M000
0320
000M
M00M
0000
203M
0000
30M2
00M0
,
0203
M0M0
0000
M0M0
000M
M0M0
M000
0000
032M
0000
0M00
000M
2030
000M
32M0
0000
,
032M
0000
000M
MM0M
0M00
0M00
M000
0M00
M032
MM00
0000
0000
2003
0M00
30M2
0000
,
M203
0000
0000
M000
0000
0000
0000
0000
0000
M000
0000
0000
M00M
0000
0000
M0M0
0000
0000
0000
0000
0000
M00M
0000
0000
0320
0000
0000
M00M
0000
0000
000M
0000
0000
0M00
0000
0000
M000
0000
0000
000M
0000
0000
MM0M
0000
000M
0000
0000
0000
,
2030
0000
00M0
000M
32M0
000M
000M
M000
M320
0000
M00M
000M
0230
0000
23M0
00M0
,
3M02
0000
00M0
0000
M203
0000
M000
M00M
032M
0000
0000
0000
0230
0000
0302
00M0
,
20M3
0000
000M
000M
32M0
000M
0000
0000
M3M2
M000
0000
0000
M203
0000
0320
M000
,
0M32
0000
M000
0000
0000
0000
0000
0000
M203
0000
M0M0
0000
0000
0000
000M
0000
032M
0000
0000
0000
000M
0000
0000
0000
1030
0100
1000
0000
0100
0010
0000
0001
,
0100
0010
1000
0001
0100
0010
1000
0001
0100
0010
1000
0100
0010
0001
0010
0100
,
1000
0100
0010
0001
0010
0100
1000
0001
1000
0001
1000
0001
1000
0100
1000
0100
,
1000
0100
1000
0100
0010
0001
1000
0100
0010
0001
0010
0100
1000
0001
0010
0100
,
1000
0001
0100
0010
0100
0001
1000
0100
0010
0100
1000
0001
0100
0010
1000
0100
,
1000
0001
1000
0100
1000
0010
1000
0100
1000
0010
1000
0100
0010
0001
0100
0010
,
0100
0001
1000
0100
0010
0001
0010
0100
1000
0001
0100
0010
1000
0100
0010
0100
,
1000
0100
0010
0001
0010
0100
0010
0001
0100
0010
1000
0001
0100
0010
1000
0100
,
0020
0000
0000
0000
0000
0000
0030
0000
0022
0033
0000
0000
0202
0303
0000
0000
,
0200
0320
2030
3200
,
0302
0000
0000
0203
0320
0032
0203
2300
,
3200
0000
0320
0000
1030
0100
0010
0001
,
0100
0010
0100
0010
0200
0000
0300
0000
;
