#TITLE:Only One Thing;
#SUBTITLE:(NOrgasm Edit);
#ARTIST:Bloody Vomit Bukkake;
#TITLETRANSLIT:;
#SUBTITLETRANSLIT:;
#ARTISTTRANSLIT:;
#CREDIT:;
#BANNER:Only one thing - bn.png;
#BACKGROUND:Only one thing - bg.png;
#LYRICSPATH:;
#CDTITLE:../aCD.png;
#MUSIC:Only One Thing (NOrgasm Edit).ogg;
#OFFSET:0.009;
#SAMPLESTART:67.006;
#SAMPLELENGTH:16.000;
#SELECTABLE:YES;
#BPMS:0.000=265.000;
#STOPS:;
#BGCHANGES:;
// cache tags:
#FIRSTBEAT:24.000;
#LASTBEAT:500.000;
#SONGFILENAME:Songs/Aoreo's Index Jawn 2/Only One Thing (NOrgasm Edit) - [Aoreo]/Only One Thing (NOrgasm Edit).sm;
#HASMUSIC:1;
#HASBANNER:1;
#MUSICLENGTH:114.207;
// end cache tags

//---------------dance-single - J. Nero----------------
#NOTES:
     dance-single:
     J. Nero:
     Challenge:
     25:
     1.000,1.000,0.385,0.473,1.000,1400.000,44.000,54.000,4.000,0.000:
0000
0000
0000
0000
,
0000
0000
0000
0000
,
0000
0000
0000
0000
,
0000
0000
0000
0000
,
0000
0000
0000
0000
,
0000
0000
0000
0000
,
2002
3003
0000
0022
0033
0020
0230
2300
,
3000
0000
2020
3030
0220
0330
0202
0303
,
2002
3003
2000
3200
0300
2000
3020
0230
,
0320
0030
0200
0302
0003
0020
0230
2300
,
3001
0100
0001
1000
0100
0010
0001
1000
0010
0100
0010
1000
0001
0100
0001
1000
,
0100
0010
0100
1000
0001
0100
0001
1000
0010
0100
0010
1000
0001
0010
0100
0010
,
0001
1000
0010
0100
0010
1000
0001
0100
0001
1000
0100
0010
0001
1000
0010
0100
,
0010
1000
0001
0010
0100
1000
0001
0100
0010
0100
0001
1000
0100
0010
0001
1000
,
0010
0100
0001
1000
0100
0010
0001
1000
0001
0100
0010
0100
0001
1000
0100
1000
,
0001
0100
0001
0010
0001
1000
0100
1000
0001
0100
0010
0100
0001
1000
0001
0010
,
0100
1000
0010
0100
0001
0100
0010
1000
0100
0010
0001
0100
0010
0100
0001
0010
,
0100
1000
0010
0100
0001
0010
0100
0010
0001
0100
0010
1000
0100
0010
0001
1000
,
0020
0000
0030
0000
,
0000
0000
0000
0000
0000
1000
0001
0000
,
0100
0001
0010
0100
,
1000
0010
0100
0001
,
1000
0100
0010
0100
,
1000
0010
0100
0001
,
1000
0100
0010
0001
,
0100
0000
0001
0000
1000
0000
0100
1000
,
0020
0030
0000
0000
0100
0000
0000
0000
0001
0000
0000
0000
0010
0000
0000
0000
,
0100
0010
0001
0100
,
0010
1000
0100
1000
,
0001
0100
0001
0010
,
0100
1000
0010
0100
,
0010
1000
0001
0010
,
0100
1000
0001
0100
,
0010
0000
0000
0000
0100
0000
0000
0000
0001
0000
0000
0000
1000
0000
0100
0010
,
0001
1001
1010
0110
,
0101
0011
0110
1100
,
1001
0101
1010
0110
,
0101
1001
1100
0110
,
0010
0001
1000
0010
0100
0010
1000
0001
0010
0100
1000
0001
0100
0001
1000
0100
,
1000
0001
0100
0001
1000
0001
0100
0010
0100
0001
1000
0100
0010
0001
1000
0100
,
1000
0010
0100
0010
1000
0100
0010
0001
0100
0010
0100
0001
0010
0100
1000
0010
,
0100
0001
1000
0100
1000
0001
0100
0001
1000
0000
0010
0000
0100
0000
0001
0000
,
0010
0100
1000
0001
0100
0010
1000
0100
0010
0001
1000
0001
0010
0100
1000
0001
,
0100
0001
0010
0100
1000
0001
0100
0010
0100
0001
1000
0100
0010
0100
1000
0001
,
0100
0010
0100
0001
1000
0010
0100
0001
0010
0100
0010
0001
1000
0010
0100
0010
,
1000
0100
0010
0001
0100
0010
1000
0100
0010
0001
0100
0010
1000
0100
0010
0001
,
1000
0001
0100
0010
0100
0001
1000
0100
1000
0001
0010
0001
0100
0010
0100
0001
,
1000
0001
0010
0100
1000
0001
0100
0001
1000
0100
0010
0100
1000
0001
0100
0010
,
1000
0100
0010
0001
1000
0100
1000
0010
1000
0001
0100
0001
0010
0001
1000
0100
,
0010
0001
0100
0010
0100
0001
0010
0100
1000
0010
0100
0010
1000
0100
0010
0001
,
1000
0001
0100
0010
0100
0001
1000
0001
0010
0100
1000
0001
0100
0010
0100
0001
,
1000
0100
1000
0010
1000
0001
0010
0100
1000
0001
0100
0010
0100
0001
1000
0001
,
0010
0100
1000
0001
0100
0010
0100
0001
1000
0100
0010
0100
1000
0001
0100
0010
,
1000
0100
0010
0001
0100
0010
1000
0100
0010
0001
0100
0010
1000
0100
0010
0001
,
1000
0010
0100
0010
1000
0001
0010
0100
1000
0001
0100
0001
1000
0100
0010
0100
,
1000
0010
0100
0010
1000
0001
0100
0001
0010
0100
1000
0010
0100
0010
1000
0100
,
0010
0001
1000
0010
0100
0010
1000
0001
0010
0100
0010
0001
0100
0010
1000
0100
,
0010
0001
1000
0010
0100
0010
1000
0001
0010
0100
1000
0010
0100
0010
1000
0001
,
0200
0300
0000
0202
0303
0002
0023
0230
,
0300
0000
2200
3300
2020
3030
0220
0330
,
0100
0001
1000
0001
0010
0100
1000
0001
0100
0010
0100
0001
1000
0100
0010
0001
,
0100
0001
1000
0010
0100
0010
1000
0100
0010
0001
1000
0001
0100
0010
0100
0001
,
1000
0001
0100
0010
0100
0001
1000
0100
0010
0001
1000
0010
1000
0001
0100
0001
,
0010
0100
1000
0001
0100
0010
0100
0001
1000
0100
0010
0001
1000
0010
0100
0010
,
1000
0001
0100
0001
1000
0100
0010
0001
1000
0010
0100
0010
1000
0001
0010
0100
,
1000
0010
0100
0010
1000
0001
0100
0001
1000
0100
1000
0010
0100
0001
0010
0001
,
0100
0010
1000
0001
0100
0001
1000
0100
0010
0001
1000
0100
1000
0001
0100
0010
,
0100
0001
1000
0001
0010
0100
1000
0001
0100
0010
0100
0001
1000
0100
0010
0001
,
1000
0001
0100
0010
0100
0001
1000
0100
0010
0100
1000
0001
0100
0010
0100
0001
,
1000
0001
0010
0100
1000
0001
0100
0001
1000
0100
0010
0001
1000
0010
0100
0010
,
1000
1100
0110
0011
,
1001
1010
0101
1001
,
1100
0110
0011
1001
,
1010
0110
0101
1001
,
1000
0010
1000
0100
0010
0001
1000
0001
0100
0010
1000
0100
0010
0001
0100
0001
,
1000
0010
1000
0100
0010
0001
1000
0100
1000
0010
0100
0001
1000
0100
0010
0001
,
0100
0010
1000
0100
0010
0001
0100
0010
1000
0100
0010
0100
1000
0010
0100
0001
,
0010
0100
1000
0010
0100
0001
0010
0100
2000
0000
0000
0000
0000
0000
0000
0000
,
3000
0000
0000
0000
,
0001
0010
0100
1000
0010
1000
0001
0100
0010
0100
0001
0010
0100
1000
0010
1000
,
0100
0010
0001
0100
0010
1000
0100
0010
0100
1000
0010
0100
0010
1000
0100
0010
,
0001
0100
0001
0010
0100
1000
0010
0100
0010
1000
0100
0010
0001
0100
0010
0100
,
0001
0010
0001
0100
0010
1000
0100
1000
0010
0100
0001
0010
0001
0100
0010
1000
,
0100
1000
0001
0010
0001
1000
0100
0010
0001
0100
0010
0100
0001
0010
0100
0010
,
0001
0100
0010
1000
0100
0010
0001
0100
0010
1000
0100
0010
0100
1000
0010
0100
,
0001
0010
0001
0100
0010
1000
0100
1000
0010
0100
0001
0010
0001
0100
0010
1000
,
0100
1000
0010
0100
0001
0010
0001
0100
0010
1000
0100
0010
0001
0100
0010
1000
,
0100
1000
0001
0010
0100
0010
0001
0100
0010
0100
0001
1000
0100
0010
0001
0100
,
0010
1000
0100
0010
0100
1000
0010
0100
0010
1000
0100
0010
0100
1000
0010
0100
,
0001
1000
0100
0010
0001
0100
0001
1000
0100
0010
0100
1000
0010
0100
0010
1000
,
0100
0010
0001
0100
0001
0010
0100
0010
0001
0100
0010
0100
0001
0010
0100
1000
,
0001
0100
0010
0100
0001
1000
0100
0010
0001
0100
0001
0010
0100
1000
0010
1000
,
0100
1000
0010
0100
0001
1000
0001
0010
0001
0100
0010
1000
0100
1000
0010
0100
,
0001
0010
0100
1000
0010
0100
0001
0010
0100
1000
0010
0100
0001
0010
0100
1000
,
0010
0100
0001
0010
0100
1000
0010
0100
0001
1000
0100
0010
0001
0100
0010
0100
,
0001
1000
0100
0010
0100
1000
0010
0100
0001
0010
0100
0010
0001
1000
0010
0100
,
0010
1000
0100
1000
0010
1000
0001
0100
0001
0010
0001
0100
0010
1000
0100
0010
,
0001
0100
0010
1000
0100
0010
0100
1000
0010
0100
0010
1000
0100
0010
0001
0100
,
0001
0010
0100
0010
0001
0100
0010
0100
0001
0010
0100
1000
0010
0100
0010
1000
,
0100
0010
0001
0100
0001
0010
0100
1000
0010
0100
0010
1000
0100
0010
0100
1000
,
0010
0100
0001
0010
0100
0010
0001
0100
0010
1000
0100
0010
0001
0100
0010
1000
,
0100
0010
0001
0100
0010
1000
0100
1000
0010
0100
0001
0010
0001
0100
0010
1000
,
0100
1000
0010
0100
0001
0010
0001
1000
0100
0010
0001
1000
0001
0100
0010
1000
,
0100
0010
0100
1000
0001
0100
0001
1000
0100
0010
0001
1000
0010
0100
0010
1000
,
0001
0010
0100
0010
0001
0100
0010
0100
0001
0010
0100
0010
0001
0100
0010
0100
,
0001
0010
0100
1000
0010
0100
0010
1000
0100
0010
0100
1000
0010
0100
0010
1000
,
0001
0100
0001
0010
0100
1000
0010
0100
0010
1000
0100
0010
0001
1000
0010
0100
,
0001
0010
0001
0100
0010
1000
0100
1000
0010
0100
0001
0010
0001
0100
0010
1000
,
0100
0010
0001
0100
0001
1000
0100
0010
0100
1000
0010
0100
0010
1000
0100
0010
,
0002
0003
0000
0022
0033
0020
0230
2300
,
3000
0000
2020
3030
0220
0330
0202
0303
,
0001
0100
0001
0010
0100
1000
0010
1000
0100
0010
0100
1000
0010
0100
0001
0010
,
0100
1000
0010
0100
0001
0010
0100
0010
0001
0100
0010
1000
0100
0010
0100
1000
,
0001
0100
0001
0010
0001
1000
0100
1000
0010
1000
0001
0010
0100
0010
0001
1000
,
0100
1000
0010
0100
0001
0010
0100
0010
0001
0100
0010
1000
0100
0010
0001
0100
,
0001
1000
0100
0010
0100
1000
0010
0100
0010
1000
0100
0010
0001
0100
0001
0010
,
0001
1000
0100
0010
0100
1000
0010
0100
0010
1000
0100
0010
0001
0100
0001
0010
,
0001
0100
0010
1000
0100
1000
0010
0100
0001
0010
0001
0100
0010
1000
0100
1000
,
0010
0100
0001
0010
0001
0100
0010
1000
0100
1000
0010
0100
0001
0010
0001
0100
,
0002
0000
0000
0000
,
0000
0000
0003
0000
,
0000
0000
0000
0000
,
0000
0000
0000
0000
,
0000
0000
0000
0000
,
0000
0000
0000
0000
,
MMMM
0000
0000
0000
;
