#TITLE:Black Lamp;
#SUBTITLE:;
#ARTIST:SD-501;
#TITLETRANSLIT:;
#SUBTITLETRANSLIT:;
#ARTISTTRANSLIT:;
#CREDIT:Rynker;
#BANNER:black lamp bn 2.png;
#BACKGROUND:black lamp bg 2.png;
#LYRICSPATH:;
#CDTITLE:;
#MUSIC:SD-501 - Black Lamp.ogg;
#OFFSET:-0.174;
#SAMPLESTART:16.834;
#SAMPLELENGTH:12.000;
#SELECTABLE:YES;
#DISPLAYBPM:260.000;
#BPMS:0.000=260.000,444.000=192.000,445.000=188.000,458.250=260.000,460.250=187.000,475.500=260.000,488.500=188.000,492.000=260.000;
#STOPS:;
#BGCHANGES:;
// cache tags:
#FIRSTBEAT:2.500;
#LASTBEAT:495.000;
#SONGFILENAME:Songs/SPEEEDCOOOORE 2/Black Lamp - [Rynker]/black lamp.sm;
#HASMUSIC:1;
#HASBANNER:1;
#MUSICLENGTH:119.339;
// end cache tags

//---------------dance-single - Rynker----------------
#NOTES:
     dance-single:
     Rynker:
     Challenge:
     16:
     1.000,1.000,0.050,0.369,0.913,1102.000,6.000,44.000,8.000,0.000:

0000
0000
0000
0000
,
0000
0000
0000
0000
,
0001
0100
0010
1000
0010
0100
0001
1000
,
0100
0010
0001
1000
0001
0010
0100
1000
,
0010
0100
0010
1000
0001
1000
0001
0010
,
0011
0001
0100
0010
1000
0100
0010
0001
,
0101
0100
0010
1000
0001
0010
0100
1000
,
0100
0010
0001
0000
0001
0100
0010
0100
,
0001
0100
0010
1000
0001
0010
0100
1000
,
0001
0100
0001
1000
0010
1000
0001
0100
0001
1000
0001
0100
0010
0100
0001
1000
,
0001
0010
0100
1000
0010
0100
0001
1000
,
0001
0000
0001
0001
0010
0000
0100
1000
,
0010
0000
0100
0001
0100
0000
0001
0010
0001
0010
0001
0000
1000
0000
0100
1000
,
0100
1000
0100
0000
0010
0000
0001
1000
0001
0000
1000
0000
0010
1000
0010
0000
,
0100
0001
1000
0001
0100
0010
1000
0001
,
0010
0100
1000
0001
1000
0010
0100
0001
,
2000
0000
0000
3000
,
0101
0000
1000
0000
0001
0010
0100
1000
,
0010
0100
0001
0010
0100
1000
0001
0100
,
0010
0000
0000
0100
0000
0000
0002
0000
0003
2000
0000
3000
0020
0000
0030
1000
0000
0000
0001
0000
0000
0010
0000
0000
,
0100
0000
0000
1000
0000
0000
0200
0000
0300
2000
0000
3000
0020
0000
0030
0100
0000
0000
0001
0000
0000
0010
0000
0000
,
0002
0000
0003
2000
0000
3000
0200
0000
0300
2000
0000
3000
0002
0000
0000
0000
0000
0000
0003
0000
0000
0000
0000
0000
,
1000
0000
0100
0000
0010
0000
0001
1000
0001
1000
0001
0000
0100
0000
0010
1000
,
0010
0000
1000
0000
0001
0000
0100
0001
0100
0001
0100
0000
0001
1000
0001
1000
,
0001
0000
0010
0000
0100
0000
1000
0100
1000
0000
0100
0000
1000
0000
0010
1000
,
0010
1000
0010
0000
0100
0000
0001
1000
0001
0000
1000
0000
0100
0000
0010
0000
,
0001
0010
0100
0010
0001
1000
0001
1000
0100
0010
0001
1000
0100
0010
0100
1000
,
0001
1000
0001
0100
0010
0100
0001
1000
0001
0100
0010
1000
0010
1000
0001
1000
,
0001
0000
0000
0000
,
0000
0000
0000
0000
,
0001
0000
0010
0000
0100
0000
1000
0001
1000
0001
1000
0000
0010
0000
0100
0001
,
0100
0000
0001
0000
1000
0000
0100
1000
0100
1000
0100
0000
1000
0000
0001
0010
,
0001
1000
0001
1000
0001
1000
0001
1000
,
0001
0010
0100
1000
0001
1000
0001
0010
0100
0010
0001
1000
0100
1000
0100
1000
,
0001
0000
1000
0000
0100
1000
0100
0000
0010
0000
0001
1000
0001
0000
1000
0000
,
0010
0000
0100
0000
0001
0100
0001
0000
0100
0000
0010
1000
0010
0000
1000
0000
,
0001
0000
1000
0000
0100
1000
0100
0000
0010
0000
0100
0010
0100
0000
0010
0000
,
0001
0000
1000
0000
0001
0010
0001
0000
0010
0001
0010
0100
1000
0100
0010
0001
,
2000
3200
0320
0032
,
0203
0000
0320
0000
,
2030
0000
0000
0000
3002
0000
0000
0000
0203
0000
0000
0000
0320
0000
0000
0030
,
1000
0010
0100
0001
1000
0001
0100
0010
0100
0001
1000
0001
0100
0001
1000
0010
,
2000
0000
0001
3000
0020
0000
0100
0030
2000
0000
0001
3000
0100
0000
0010
0000
,
0200
0000
0001
0300
0010
0000
0100
0000
0020
0000
0001
0030
1000
0000
0001
0000
,
0200
0000
0310
0000
0200
0000
0001
0300
2000
0000
3001
0000
1000
0000
0001
0000
,
0020
0000
0130
0000
0010
0000
0100
0000
2000
0000
0001
3000
0010
0001
0010
0001
,
2000
3002
0203
0320
,
2030
0000
0000
0000
0000
0000
0100
0000
0000
3000
0000
0000
2200
0000
0000
0000
3000
0000
1000
0000
0000
0000
0000
0000
,
0310
0001
0100
0010
0100
0001
0010
0100
,
0010
0001
0100
0010
1000
0100
0010
0100
,
1000
0001
0100
0010
1000
0010
0100
0001
1000
0010
1000
0001
0100
0001
1000
0010
,
0100
0001
0100
0001
1000
0010
1000
0001
1000
0001
0010
0100
0010
0001
1000
0001
,
1000
0000
0001
0000
1000
0000
0100
1000
0100
1000
0100
0000
1000
0000
0001
0000
,
0010
0100
0010
0001
1000
0100
1000
0001
0010
0001
0010
0100
1000
0001
1000
0001
,
1000
0001
0100
0010
0100
0001
0010
0100
,
1000
0100
0010
0001
1000
0001
0100
0010
,
0100
0001
1000
0100
0010
0001
1000
0001
,
2000
0000
0002
3003
,
0001
0000
0100
0000
0010
0000
1000
0001
1000
0001
1000
0000
0001
0000
0010
0001
,
0010
0000
0100
0000
1000
0000
0001
0010
0001
0000
1000
0000
0010
0100
0010
0100
,
0001
1000
0100
0010
0001
1000
0001
0100
,
0010
0100
0001
1000
0010
0100
0010
0100
0001
1000
0001
0100
0010
0100
0001
1000
,
0001
0000
1000
0000
0100
0000
0010
0001
0010
0001
0010
0000
0001
0000
1000
0001
,
1000
0000
0001
0000
0100
0000
0001
0100
0001
0000
0100
0000
0010
0000
1000
0100
,
1000
0100
1000
0000
0100
0000
0010
0001
0010
0000
0001
0000
0100
0000
0010
1000
,
0001
0010
0001
0010
0001
0010
0001
0010
,
0001
0000
1000
0000
0100
1000
0100
0000
1000
0000
0001
1000
0001
0000
0100
0000
,
0010
0000
1000
0000
0010
0100
0010
0000
0100
0000
0001
0100
0001
0000
1000
0000
,
0100
0000
0010
0000
0100
0010
0100
0000
0010
0000
0001
0010
0001
0000
1000
0000
,
0001
0000
0000
0000
0001
0000
0000
0000
0001
0000
0000
0000
1000
0001
1000
0001
,
0100
0000
0010
0000
0100
0001
0100
0000
0010
0000
1000
0010
1000
0000
0010
0000
,
1000
0001
0010
0100
1000
0001
0010
0100
,
1000
0000
0001
0000
0010
0001
0010
0000
0001
0000
0100
0001
0100
0000
0001
0000
,
1000
0000
0100
0000
1000
0100
1000
0000
0100
0000
0010
0001
0010
0000
0001
0000
,
0100
0000
0010
0000
1000
0010
1000
0000
0001
0000
0100
0001
0100
0000
0001
0000
,
0010
0000
0100
0000
1000
0100
1000
0000
0100
0000
0010
0001
0010
0000
0001
0000
,
0100
0001
1000
0010
0100
0001
1000
0010
,
0100
0000
0001
0000
0100
0001
0100
0000
0001
0000
0100
0001
0100
0000
0001
0000
,
1000
0000
0100
0000
0010
0000
0001
1000
0001
1000
0001
0000
0100
0000
0001
1000
,
0001
0000
1000
0000
0100
0000
0010
0100
0010
0100
0010
0000
0100
0000
1000
0001
,
1000
0001
0100
0001
0010
0100
1000
0010
,
0100
0001
0010
0100
0010
0001
1000
0001
,
0100
0010
1000
0010
1000
0010
0100
0001
,
0100
0010
1000
0001
0010
0100
1000
0010
,
0100
0001
1000
0100
0010
0100
1000
0001
,
0100
0001
0100
0010
1000
0010
0100
0001
1000
0001
1000
0010
0100
0001
0100
0010
,
1000
0001
0010
0100
0010
0001
0100
0010
,
1000
0010
0100
0001
0010
0100
1000
0001
,
0100
0010
1000
0010
0100
0010
1000
0010
,
0100
0001
1000
0001
1000
0010
0100
0010
1000
0001
1000
0001
0100
0010
1000
0010
,
0100
0000
0001
0000
1000
0000
0001
0100
0010
1000
0001
1000
0001
0000
0100
0010
,
0100
0000
0001
0000
1000
0000
0001
0010
0100
1000
0001
1000
0001
0000
0010
0100
,
0010
0000
0001
0000
1000
0000
0100
1000
0001
0010
0100
0010
0100
0000
1000
0001
,
1000
0000
0100
0000
1000
0000
0001
0000
0100
0000
0001
0100
0001
0000
0100
0000
,
0001
0000
0000
0000
,
1000
0000
0100
0000
0010
0000
0001
0000
0100
0000
0001
0000
1000
0001
1000
0001
,
1000
0000
0001
0000
0010
0000
0100
0000
1000
0000
0100
0000
1000
0010
1000
0010
,
1000
0000
0010
0000
0100
0000
0001
0000
0010
0000
0100
0000
1000
0001
1000
0001
,
1000
0000
0100
0000
1000
0000
0010
0000
0100
0000
0001
0000
1000
0001
1000
0001
,
1000
0000
0001
0000
0010
0000
0100
1000
,
0100
1000
0100
0000
0010
0001
0010
0001
,
0010
0001
1000
0001
0100
0000
0010
0000
,
0100
0000
0001
0000
1000
0100
0010
0001
,
1000
0001
0100
0010
1000
0001
0010
0100
,
0010
0001
0100
0001
1000
0100
0010
0001
,
1000
1000
1000
1000
,
1010
0010
0100
0001
1000
0001
0010
0100
,
0110
0000
0010
0000
0001
1000
0001
0000
0100
0000
0010
1000
0010
0000
1000
0000
,
0001
0010
0001
0010
0001
0010
0001
0010
,
0001
1000
0100
0010
0001
1000
0100
0010
0100
1000
0001
0010
0001
1000
0100
1000
,
0001
1000
0001
0100
0010
0100
0001
1000
0001
0100
0010
0100
0001
1000
0010
0100
,
0002
0000
2003
0100
3010
0001
1000
0001
,
0100
0010
0100
0001
1000
0001
1000
0100
,
0010
0001
1000
0001
0100
0010
1000
0001
,
0010
0000
0100
0000
0010
0000
0001
0000
1000
0MM0
0001
1000
0001
1000
0001
0000
,
0100
M0M0
0001
0000
1000
0000
0100
0000
0010
0000
0100
0000
1000
0000
0001
0000
,
0100
0010
0100
0001
1000
0001
0010
0100
,
1000
0010
0100
0001
0010
0100
1000
0001
,
0100
0010
0100
0001
1000
0100
0010
MM02
,
0003
1000
0001
1000
0001
0000
0000
0000
,
0000
1000
0100
0010
0001
1000
0010
0100
,
0001
0000
0100
0001
0100
0001
0100
0000
0001
0000
0010
0001
0010
0001
0010
0000
,
0100
10MM
0001
0100
0010
1000
0001
0010
,
0100
1000
0100
1000
0000
0000
0000
0000
0100
1000
0100
1000
0000
0000
0000
0000
;

//---------------dance-single - Aoreo & Rynker----------------
#NOTES:
     dance-single:
     Aoreo & Rynker:
     Hard:
     14:
     1.000,1.000,0.017,0.318,0.549,857.000,2.000,38.000,0.000,0.000:






0000
0000
0000
0000
,
0000
0000
0000
0000
,
1000
0100
1000
0001
,
0010
0100
1000
0001
,
1000
0100
1000
0001
,
0100
0001
0010
0100
1000
0001
1000
0010
,
0100
0001
0010
0100
,
1000
0000
0002
0000
1003
0100
1000
0001
,
0100
0001
0010
0100
1000
0001
1000
0001
,
1000
0010
1000
0010
0100
0001
0100
0001
1000
0010
1000
0001
0100
0010
0100
0001
,
1000
0001
0010
0100
,
2000
0000
3001
0010
0200
0000
1300
0001
,
1000
0100
1000
0000
0001
0000
0100
0000
0010
0100
0010
0000
0100
0000
0001
0000
,
1000
0100
1000
0000
0001
0000
0100
0000
0001
0000
0010
0000
0000
0000
0010
0000
,
0100
1000
0001
1000
0001
0100
0010
0100
,
0001
1000
0100
0010
0100
1000
0001
0100
,
0002
0000
0003
0000
,
1000
0000
1010
0000
0010
0100
0010
0100
,
0002
0023
0230
2300
,
3002
0000
0203
0320
0230
0300
0002
0000
,
2003
0000
3200
0320
0230
0300
2000
0000
,
3002
0023
0230
0320
0032
0000
1003
0000
,
0001
0000
0100
0000
0001
0000
1000
0010
1000
0010
0100
0000
0001
0000
0100
0001
,
0100
0000
0001
0000
1000
0000
0100
0010
0001
0010
0001
0000
1000
0000
0100
0010
,
0100
0000
0010
0000
0001
0000
0100
0000
0010
0000
1000
0000
0001
0000
1000
0100
,
1000
0100
0010
0000
0001
0000
1000
0001
1000
0000
0001
0000
0100
0000
0010
0000
,
0100
0001
0010
0100
1000
0010
0100
0001
1000
0100
0010
0001
,
0100
0001
0010
0100
1000
0010
0100
0001
1000
0100
0010
0001
,
1000
0000
0000
0000
,
0000
0000
0000
0000
,
0001
0000
0100
0000
0010
0000
0100
0001
0100
0000
0010
0000
1000
0000
0100
0000
,
1000
0000
0001
0000
0010
0000
0100
1000
0100
0000
1000
0000
0001
0000
0100
0000
,
0001
1000
0100
0010
0001
1000
0001
0100
,
0001
0100
0001
0100
0010
1000
0010
0100
0001
0100
0001
1000
0010
0100
0001
1000
,
0001
1000
0100
0010
,
0002
0003
0100
0010
,
1000
0100
0020
0000
,
0032
0000
0000
0000
0000
0000
0000
0000
1003
0100
1000
0001
0010
0100
1000
0001
,
1000
0001
0100
0010
,
2000
0000
3200
0000
,
0310
0001
0100
0010
,
1000
0001
1000
0001
0100
0010
0100
0001
1000
0000
0001
0000
1000
0010
0100
0001
,
1000
0001
0020
0000
,
0230
0000
2300
0000
,
3001
0100
0020
0000
,
2030
0000
3002
0000
,
0103
0010
1000
0100
,
0010
0100
1000
0001
,
0100
0001
1000
0001
0100
0010
0100
0001
,
0010
0100
1000
0001
0010
0100
1000
0001
,
0100
0001
0100
0010
1000
0010
0100
0001
1000
0100
0010
0100
,
1000
0001
0010
0100
1000
0001
0100
0010
0100
0001
1000
0010
,
0100
0000
0001
0000
0100
0000
0001
0000
1000
0010
1000
0000
0001
0000
0100
0000
,
0001
0100
0010
0100
0001
1000
0001
1000
0010
0100
0001
1000
0010
1000
0001
0100
,
0001
1000
0001
0100
0010
0100
0001
1000
,
0100
0010
0100
1000
0001
0100
0010
1000
,
0100
0010
0001
0100
0010
1000
0001
1000
,
0200
0000
2300
0000
,
3001
0000
0100
0000
0010
0000
1000
0001
1000
0001
1000
0000
0001
0000
0100
0001
,
0100
0001
1000
0100
0010
0001
0100
0010
,
0100
0001
1000
0100
0010
0001
0100
0010
,
0100
0001
0100
0000
0001
1000
0001
0000
1000
0100
1000
0000
0100
1000
0001
1000
,
0001
0010
0100
1000
,
0001
0100
0010
0100
,
0001
0010
0100
1000
,
0001
1000
0010
0100
0001
1000
0100
0010
,
0001
1000
0001
0000
1000
0001
0000
0100
,
0010
0100
0001
0000
1000
0100
0000
0010
,
0001
1000
0100
0000
1000
0001
0000
0100
,
0010
0000
0000
0000
0010
0000
0000
0000
0010
0000
0000
0000
1000
0001
1000
0001
,
1000
0100
0010
0000
0001
0100
0000
0010
,
1000
0001
1000
0100
0010
0001
1000
0001
,
1000
0001
1000
0000
0100
1000
0000
0001
,
0100
0010
1000
0000
0010
0100
0000
0001
,
0010
0100
1000
0000
0001
0100
0000
0001
,
1000
0010
0100
0000
0001
1000
0000
0100
,
0010
0100
1000
0100
0010
0001
1000
0100
,
0010
0001
0001
0001
,
0001
0000
1000
0000
0010
0000
0100
0001
0100
0001
0100
0000
0001
0000
1000
0000
,
0100
0000
0010
0000
0100
0000
1000
0100
1000
0100
1000
0000
0100
0000
0010
0000
,
0001
0100
0010
0100
0001
1000
0100
0010
,
0001
1000
0001
0100
0010
0100
0001
1000
,
0001
0010
0001
0000
1001
0000
1000
0100
,
0010
0001
1000
0001
0100
0010
0100
0001
,
1000
0100
0010
0100
1000
0001
0010
0001
,
1000
0100
1000
0001
1000
0001
0010
0100
0010
0001
1000
0001
1000
0100
1000
0001
,
0010
0001
0100
0010
,
0100
0000
0001
1000
0100
0000
0010
0000
,
0001
1000
0001
1000
0001
1000
0001
1000
,
0001
1000
0001
0100
0010
0100
0001
1000
0001
1000
0010
0100
0010
1000
0001
1000
,
0001
1000
0010
0100
0010
1000
0001
0010
,
0001
0000
1000
0100
0010
0100
1000
0001
,
0100
0000
0001
1000
0010
0100
0010
1000
,
0001
0000
0010
0100
1000
0100
0010
0000
,
0000
0000
0000
0000
,
0001
0000
0000
0000
1000
0000
0000
0000
0100
0000
0000
0000
1000
0001
1000
0001
,
1000
0000
0000
0000
0001
0000
0000
0000
0100
0000
0000
0000
0010
1000
0010
1000
,
0010
0000
0000
0000
1000
0000
0000
0000
0100
0000
0000
0000
1000
0001
1000
0001
,
1000
0000
0000
0000
0001
0000
0000
0000
0100
0000
0000
0000
0010
1000
0010
1000
,
0010
0000
1000
0000
0100
0000
0010
0100
,
1000
0001
0100
0000
0001
0100
0010
0100
,
0001
0100
0001
1000
0100
0000
0010
0000
,
0100
0000
1000
0000
0001
0100
0010
1000
,
0010
0100
0001
0010
0100
1000
0001
0100
,
0010
0100
0001
1000
0100
0010
0100
1000
,
0001
1000
0001
1000
,
0001
0100
0010
0100
0001
1000
0100
0010
,
0001
1000
1000
1000
,
1000
0001
0100
0010
0100
0001
0010
0100
,
1000
0001
0100
0010
0100
0001
1000
0100
,
1000
0100
1000
0001
0010
0001
1000
0001
1000
0100
1000
0001
0010
0001
1000
0001
,
2000
0000
3001
0100
0010
0100
0001
1000
,
0100
0010
0001
1000
0001
0100
0010
0100
,
0001
0010
0100
1000
0001
0100
0010
0100
,
0001
1000
0100
0010
0002
0000
0000
0000
,
0000
1003
0010
0100
0001
0010
0100
1000
,
0001
0100
0010
0100
0001
1000
0100
0010
,
0100
1000
0001
0100
0010
0100
0001
1000
,
0100
0010
0001
0010
0100
1000
0001
0100
,
0000
0001
0100
0001
0100
0000
0000
0000
,
0000
0010
1000
0010
0100
0001
1000
0100
,
1000
0000
0000
0000
,
0000
0001
0100
0010
0100
0001
1000
0100
,
0010
0001
0010
0001
0000
0000
0000
0000
1000
0001
1000
0001
0000
0000
0000
0000
;

//---------------dance-double - ----------------
#NOTES:
     dance-double:
     :
     Challenge:
     15:
     1.000,1.000,0.025,0.654,0.867,1054.000,3.000,78.000,50.000,0.000:




00000000
00000000
00000000
00000000
00000000
MMM00000
00000000
00000000
,
00000MMM
00000000
000MM000
00000000
,
00010000
00001000
00100000
01000000
10000000
00100000
10000000
01000000
,
00100000
00001000
00100000
01000000
10000000
00100000
10000000
00010000
,
01000000
00100000
00010000
00001000
00000100
00001000
00010000
00000000
,
01000000
10000000
01000000
00010000
00001000
00000010
00000100
00001000
,
00000001
00000100
00000010
00010000
00000100
00010000
00000010
00000100
,
00000001
00000010
00000100
0000M000
00010000
01000000
00100000
01000000
,
10000000
00010000
10000000
00100000
01000000
00001000
01000000
00001000
,
00010000
00001000
00010000
00001000
01000000
00001000
01000000
00001000
00010000
00001000
00010000
00001000
01000000
00000100
01000000
00001000
,
00010000
00001000
00100000
00001000
00010000
00000100
00001000
00000100
,
00000010
0000M000
00000001
00000010
00001000
00000M00
00010000
00100000
,
2000MM00
01000000
30010000
00100000
00020000
01000000
10030000
00100000
,
02000000
00010000
03001000
01000000
00002000
00103000
01000000
00100000
,
MM001000
00010000
00001000
00000100
00000010
00000100
00000001
00001000
,
00000001
00000010
00000100
00010000
00001000
00010000
01000000
00100000
,
00020000
00000000
00000000
00030000
,
11000000
00000000
00010000
00000000
10000000
00100000
10000000
00010000
,
020000MM
03000000
00200000
00300000
00020000
00030000
00002000
00003000
,
00000020
00000000
00000030
00000000
00000002
00000003
00000020
00000030
00002000
00003000
00000000
00000000
00020000
00000000
00030000
00000000
,
00200000
00000000
00300000
00000000
20000000
30000000
00200000
00300000
00020000
00030000
00000000
00000000
00002000
00000000
00003000
00000000
,
00200000
00300000
00020000
00030000
00200000
00300000
02000000
03000000
20000000
00000000
00000000
00000000
30000000
00000000
00000000
00000000
,
10000000
00000000
00010000
00000000
00100000
00000000
00001000
00010000
00001000
00010000
00001000
00000000
00100000
00000000
00010000
10000000
,
00010000
00000000
01000000
00000000
00001000
00000000
00010000
00001000
00010000
00001000
00010000
00000000
00000010
00001000
00000010
00001000
,
00000010
00000000
00001000
00000000
00000001
00000000
00000010
00000001
00000010
00000000
00000100
00000000
00001000
00000000
00000100
00010000
,
00000100
00010000
00000100
00000000
00010000
00000000
00001000
01000000
00001000
00000000
00100000
00000000
01000000
00000000
10000000
00000000
,
00010000
10000000
00010000
10000000
00010000
10000000
00010000
10000000
00010000
10000000
00010000
10000000
00010000
10000000
00010000
10000000
,
00100000
10000000
00100000
10000000
00100000
10000000
00100000
10000000
00100000
10000000
00100000
10000000
00100000
10000000
00100000
01000000
,
00010000
00000000
00000000
00000000
,
00000000
00000000
M0M0M000
00000000
00000000
00000MMM
00000000
00000000
,
10000000
00000000
00100000
00000000
01000000
00000000
00010000
01000000
00010000
01000000
00010000
00000000
10000000
00000000
01000000
10000000
,
01000000
00000000
00100000
00000000
00001000
00000000
00010000
00000010
00010000
00000010
00010000
00000000
00001000
00000000
00100000
00001000
,
00010000
00001000
00010000
00001000
00010000
00001000
00010000
00001000
,
00010000
00000100
00010000
00000100
00010000
00000100
00010000
00000100
00010000
00001000
00010000
00001000
01000000
00001000
01000000
00001000
,
00010000
00000000
00000100
00000000
00001000
00000100
00001000
00000000
00000001
00000000
00000100
00000001
00000100
00000000
00000010
00000000
,
00001000
00000000
00000010
00000000
00010000
00001000
00010000
00000000
00001000
00000000
00100000
00010000
00100000
00000000
01000000
00000000
,
00100000
00000000
00010000
00000000
10000000
00100000
10000000
00000000
00010000
00000000
01000000
00010000
01000000
00000000
00001000
00000000
,
00010000
00000000
00000100
00000000
00001000
00000100
00001000
00000000
00000001
00000010
00000100
00001000
00000001
00001000
00000100
00000010
,
00000002
00002003
00003020
00020030
,
00030200
00000000
00200300
00000000
,
00302000
20003000
30002000
02003000
,
03100000
01000000
00100000
01000000
00010000
01000000
00010000
10000000
00010000
00100000
01000000
10000000
00010000
10000000
00010000
01000000
,
00200000
00000000
01000000
00300000
00020000
00000000
01000000
00030000
00002000
00000000
01000000
00003000
00001000
00000000
00010000
00000000
,
00000020
00000000
00010000
00000030
00001000
00000000
00100000
00000000
00020000
00000000
00100000
00030000
00001000
00000000
00010000
00000000
,
00000020
00000000
00001030
00000000
00000002
00000000
00000010
00000003
00000200
00000000
00001300
00000000
00000100
00000000
01000000
00000000
,
00020000
00000000
01030000
00000000
00001000
00000000
01000000
00000000
00002000
00000000
00010000
00003000
00001000
00010000
00001000
00010000
,
00000020
00020030
00030002
00000023
,
00000230
00000000
00000000
00000000
00010300
00000000
00000000
00000000
00020200
00000000
00000000
00030000
01000000
00000000
00000000
00000300
,
00001000
01000000
00010000
01000000
00100000
01000000
10000000
01000000
,
00100000
01000000
00010000
10000000
00010000
00100000
01000000
10000000
,
00010000
10000000
00010000
10000000
00010000
01000000
00010000
01000000
00001000
01000000
00001000
01000000
00001000
01000000
00001000
01000000
,
00001000
00010000
00001000
00010000
00000100
00010000
00000100
00010000
00000100
00001000
00000100
00001000
00000100
00001000
00000100
00001000
,
00000001
00000000
00001000
00000000
00000010
00000000
00010000
00001000
00010000
00001000
00010000
00000000
00000010
00000000
00001000
00000000
,
00000001
00000010
00000001
00000010
00000100
00000010
00000100
00000010
00000100
00001000
00000100
00001000
00000100
00010000
00000100
00010000
,
00001000
00010000
00000100
00100000
00001000
00010000
00000010
01000000
,
00001000
00100000
00000100
00010000
00000010
01000000
00001000
00100000
,
00010000
00100000
00001000
00010000
00000010
00001000
00000010
00000100
,
00000002
00000000
00002000
00003003
,
00000001
00000000
00000010
00000000
00000100
00000000
00010000
00001000
00010000
00001000
00010000
00000000
00000100
00000000
00001000
00000100
,
00001000
00000000
00000100
00000000
00010000
00000000
00001000
00100000
00001000
00000000
00010000
00000000
00001000
01000000
00001000
01000000
,
00100000
10000000
00100000
01000000
00010000
01000000
00001000
00010000
,
00001000
00010000
00001000
00010000
00001000
00010000
00001000
00010000
00001000
00010000
00001000
00010000
00001000
00010000
00001000
00010000
,
00001000
00000000
0100000M
00000000
00010000
00000000
00100000
00010000
0010000M
00010000
00100000
00000000
00010000
00000000
01000000
00001000
,
01000000
00000000
M0010000
00000000
00100000
00000000
00000010
00010000
M0000010
00000000
00001000
00000000
00000100
00000000
00010000
00001000
,
00010000
00001000
00010000
00000000
00000010
00000000
00001000
00000100
00001000
00000000
00000010
00000000
00010000
00000000
00001000
00100000
,
00001000
00010000
00001000
00010000
00001000
00010000
00001000
00010000
,
00001000
00000000
00100000
00000000
00010000
00100000
00010000
00000000
00100000
00000000
00001000
00010000
00001000
00000000
00100000
00000000
,
00000010
00000000
00010000
00000000
00000010
00001000
00000010
00000000
00010000
00000000
00000010
00001000
00000010
00000000
00010000
00000000
,
00001000
00000000
00100000
00000000
00010000
00100000
00010000
00000000
00100000
00000000
00001000
00010000
00001000
00000000
00100000
00000000
,
00000010
00000000
00100000
00000000
00001000
00000000
00100000
00000000
00010000
00000000
00000000
00000000
10000000
00100000
01000000
00010000
,
01000000
00000000
00001000
00000000
00010000
00001000
00010000
00000000
00000010
00000000
00010000
00001000
00010000
00000000
00000010
00000000
,
00001000
00000001
00001000
00000100
00010000
00001000
01000000
00010000
,
00100000
00000000
00001000
00000000
00010000
00001000
00010000
00000000
00000100
00000000
00010000
00001000
00010000
00000000
00000100
00000000
,
00001000
00000000
00000010
00000000
00000100
00000010
00000100
00000000
00000001
00000000
00001000
00000001
00001000
00000000
00000100
00000000
,
00010000
00000000
00001000
00000000
00100000
00010000
00100000
00000000
00001000
00000000
01000000
00010000
01000000
00000000
00001000
00000000
,
00100000
00000000
00001000
00000000
00010000
00001000
00010000
00000000
00000010
00000000
00010000
00001000
00010000
00000000
00001000
00000000
,
01000000
00010000
01000000
00001000
00010000
00000100
00001000
00000010
,
00000100
00000100
00000100
00000100
,
00000001
00000000
00001000
00000000
00000100
00000000
00010000
00001000
00010000
00001000
00010000
00000000
00000100
00000000
00001000
00000001
,
00001000
00000000
00000010
00000000
00000100
00000000
00000001
00000100
00000001
00000100
00000001
00000000
00001000
00000000
00000100
00010000
,
00000100
00010000
00000100
00100000
00001000
10000000
00010000
01000000
,
00100000
10000000
00100000
10000000
01000000
10000000
01000000
10000000
,
00010000
01000000
00000010
00001000
00000001
00000010
00000100
00001000
,
00000010
00001000
00000100
00010000
00001000
00010000
01000000
10000000
,
00010000
10000000
00010000
10000000
00001000
01000000
00001000
00010000
,
00000010
00010000
00000010
00010000
00000010
00010000
00000010
00010000
00001000
01000000
00001000
01000000
00001000
01000000
00001000
01000000
,
00010000
10000000
00010000
00100000
01000000
00100000
10000000
00100000
,
00010000
00100000
01000000
10000000
00100000
01000000
00010000
01000000
,
00100000
00010000
00001000
00010000
00000010
00010000
00001000
00010000
,
00000100
00010000
00000100
00010000
00000100
00010000
00000100
00010000
00001000
00100000
00001000
00100000
00001000
00100000
00001000
00100000
,
00001000
00000000
00010000
00000000
00001000
00000000
00010000
00000100
00010000
00001000
00010000
00001000
00100000
00000000
00010000
10000000
,
00010000
00000000
01000000
00000000
00001000
00000000
00010000
00000010
00010000
00001000
00010000
00001000
01000000
00000000
00010000
10000000
,
00010000
00000000
00100000
00000000
01000000
00000000
00100000
00001000
00010000
00001000
00010000
00000100
00010000
00000000
00001000
01000000
,
00001000
00000000
00010000
00000000
00000100
00000000
00001000
00000000
00000100
00000000
00010000
00001000
00010000
00000000
00000100
00000000
,
00001000
000M00MM
00000000
00000000
MMM00000
00000000
00000000
00000000
,
00000001
00000000
00000100
00000000
00000010
00000000
00000100
00000000
00001000
00000000
00010000
00000000
00000010
00001000
00000010
00001000
,
00000010
00000000
00010000
00000000
00001000
00000000
00100000
00000000
00010000
00000000
10000000
00000000
01000000
00100000
01000000
00100000
,
01000000
00000000
10000000
00000000
00010000
00000000
10000000
00000000
00100000
00000000
01000000
00000000
00001000
00010000
00001000
00010000
,
00001000
00000000
01000000
00000000
00001000
00000000
00010000
00000000
00000010
00000000
00001000
00000000
00000001
00000010
00000001
00000010
,
00000001
00000000
00001000
00000000
00000100
00000000
00010000
00001000
,
00010000
00001000
00100000
00000000
01000000
00100000
00010000
00100000
,
00010000
10000000
00010000
10000000
01000000
00000000
10000000
00000000
,
00100000
00000000
00010000
00000000
00001000
00000100
00000010
00001000
,
00000001
00001000
00000100
00001000
00000010
00001000
00000100
00000010
,
00001000
00000010
00000100
00010000
00001000
00010000
01000000
10000000
,
00010000
00010000
00010000
00010000
,
10010000
10000000
01000000
10000000
00010000
01000000
00010000
10000000
,
00100000
00010000
00001000
00000010
,
00000001
00000010
00000001
00000010
00000001
00000010
00000001
00000010
,
00000001
00000010
00000100
00001000
00000001
00001000
00000001
00001000
00000100
00001000
00000100
00001000
00000100
00010000
00000100
00010000
,
00001000
00010000
00001000
00010000
00001000
01000000
00001000
00010000
00001000
01000000
00010000
01000000
00010000
01000000
00010000
01000000
,
0002000M
00000000
00000000
00000000
2003MMMM
30000000
01000000
00000000
00100000
00000000
00000000
00000000
00002000
00003000
00000000
00000000
,
00000200
00000300
00000001
00000000
00000010
00000000
00000000
00000000
00002000
00003000
00000000
00000000
00020000
00030000
01000000
00000000
,
10000000
00000000
00000000
00000000
00200000
00300000
00000000
00000000
00020000
00030000
00001000
00000000
00000100
00000000
00000020
00000030
,
00002000
00003000
00000000
00000000
00000002
00000003
00000000
00000000
00001000
00000MM0
00000001
00001000
00000001
00001000
00000001
00000000
,
00001000
00000MM0
00000000
00000000
00000001
00000000
00000010
00000000
00000000
00000000
00002000
00003000
00000000
00000000
00020000
00030000
,
01000000
00000000
10000000
00000000
00000000
00000000
00020000
00030000
00000000
00000000
02000000
03000000
00100000
00000000
10000000
00000000
,
00000000
00000000
00200000
00300000
00000000
00000000
02000000
03000000
00001000
00000000
00100000
00000000
00000000
00000000
00000020
00000030
,
00000000
00000000
00002000
00003000
00000100
00000000
00000010
00000000
00000002
00000003
00000020
00000030
00000100
00000000
000020MM
00000000
,
00003000
00000001
00001000
00000001
00001000
00000000
00000000
00000000
,
00000000
00000001
00001000
00000001
00001000
00000010
00010000
00001000
,
00100000
00000000
00010000
01000000
00010000
01000000
00010000
00000000
00100000
00000000
00001000
00010000
00001000
00010000
00001000
00000000
,
00100000
00000000
00MM0000
00000000
02000000
03000000
10000000
00000000
02000000
03000000
00000000
00000000
00200000
00300000
00000000
00000000
,
M0001000
00010000
00001000
00100000
00000M00
00000000
00000000
00000000
00000000
M0010000
00100000
01000000
1000M000
00000000
00000000
00000000
;
