#TITLE:Footsekz;
#SUBTITLE:;
#ARTIST:TheBoxX;
#TITLETRANSLIT:;
#SUBTITLETRANSLIT:;
#ARTISTTRANSLIT:;
#CREDIT:TheBoxX;
#BANNER:../Tachyon Gamma-bn.png;
#BACKGROUND:../Tachyon Gamma-bg.png;
#LYRICSPATH:;
#CDTITLE:;
#MUSIC:Footsekz.ogg;
#OFFSET:-0.004;
#SAMPLESTART:73.855;
#SAMPLELENGTH:15.000;
#SELECTABLE:YES;
#DISPLAYBPM:260.000;
#BPMS:0.000=260.000;
#STOPS:;
#BGCHANGES:;
// cache tags:
#FIRSTBEAT:3.000;
#LASTBEAT:480.125;
#SONGFILENAME:Songs/Tachyon Gamma/Footsekz - [The BoxX]/Footsekz.sm;
#HASMUSIC:1;
#HASBANNER:1;
#MUSICLENGTH:105.000;
// end cache tags

//---------------dance-single - TheBoxX----------------
#NOTES:
     dance-single:
     TheBoxX:
     Challenge:
     16:
     1.000,1.000,0.219,1.000,1.000,1090.000,23.000,120.000,4.000,0.000:



0000
0000
0000
0000
0000
0000
1000
0010
,
0100
0010
0000
1000
,
0000
0000
0000
0001
,
0000
0010
0000
0010
,
0000
0100
0000
1000
,
0000
0000
0001
0100
,
0000
0100
0010
1000
,
0000
0001
0000
0000
,
0000
1000
0100
0010
,
0000
0011
0000
0101
,
0000
1001
0000
1010
,
0000
0010
0100
0000
,
0000
0011
0100
1001
,
0000
1000
0100
0010
,
0001
0100
0000
1001
,
0000
0010
0110
0000
,
1000
0000
0010
0000
0110
0000
0100
0001
,
1000
0100
1100
1000
,
0010
0100
0101
0001
,
1000
0010
0110
1000
,
0001
0010
0110
0001
,
1000
0010
1010
0100
,
0001
1000
1100
0001
,
0100
0010
0101
1000
,
0100
0010
0011
0001
,
1000
0010
0110
1000
,
0001
0100
1001
0001
,
0010
0001
0110
1000
,
0100
1000
0101
0001
,
0010
0001
1010
0100
,
0010
0100
0000
1001
,
0000
0001
0100
0000
,
0002
0003
0000
0000
0000
0000
0000
0000
1000
0000
0100
0000
1000
0000
0000
0000
0002
0003
0000
0000
0000
0000
0000
0000
1000
0000
0100
0000
1000
0000
0000
0000
,
0002
0003
0000
0000
0000
0000
0000
0000
1000
0000
0100
0000
1000
0000
0000
0000
0002
0003
0000
0000
0000
0000
0000
0000
1000
0000
0100
0000
1000
0000
0000
0000
,
0020
0030
0000
0000
0000
0000
0000
0000
1000
0000
0001
0000
1000
0000
0000
0000
0020
0030
0000
0000
0000
0000
0000
0000
1000
0000
0001
0000
1000
0000
0000
0000
,
0020
0030
0000
0000
0000
0000
0000
0000
1000
0000
0001
0000
1000
0000
0000
0000
0020
0030
0000
0000
0000
0000
0000
0000
1000
0000
0001
0000
1000
0000
0000
0000
,
0200
0300
0000
0000
0000
0000
0000
0000
1000
0000
0001
0000
1000
0000
0000
0000
0200
0300
0000
0000
0000
0000
0000
0000
1000
0000
0001
0000
1000
0000
0000
0000
,
0200
0300
0000
0000
0000
0000
0000
0000
1000
0000
0001
0000
1000
0000
0000
0000
0200
0300
0000
0000
0000
0000
0000
0000
1000
0000
0001
0000
1000
0000
0000
0000
,
0002
0003
0000
0000
0000
0000
0000
0000
1000
0000
0010
0000
1000
0000
0000
0000
0002
0003
0000
0000
0000
0000
0000
0000
1000
0000
0010
0000
1000
0000
0000
0000
,
0002
0003
0000
0000
0000
0000
0000
0000
1000
0000
0010
0000
1000
0000
0000
0000
0002
0003
0000
0000
0000
0000
0000
0000
1000
0000
0010
0000
1000
0000
0000
0000
,
0002
0003
0000
0000
0000
0000
0000
0000
0001
0000
0100
0000
0001
0000
0000
0000
2000
3000
0000
0000
0000
0000
0000
0000
0001
0000
0100
0000
0001
0000
0000
0000
,
2000
3000
0000
0000
0000
0000
0000
0000
0001
0000
0100
0000
0001
0000
0000
0000
2000
3000
0000
0000
0000
0000
0000
0000
0001
0000
0100
0000
0001
0000
0000
0000
,
0020
0030
0000
0000
0000
0000
0000
0000
0001
0000
1000
0000
0001
0000
0000
0000
0020
0030
0000
0000
0000
0000
0000
0000
0001
0000
1000
0000
0001
0000
0000
0000
,
0020
0030
0000
0000
0000
0000
0000
0000
0001
0000
1000
0000
0001
0000
0000
0000
0020
0030
0000
0000
0000
0000
0000
0000
0001
0000
1000
0000
0001
0000
0000
0000
,
0200
0300
0000
0000
0000
0000
0000
0000
0001
0000
1000
0000
0001
0000
0000
0000
0200
0300
0000
0000
0000
0000
0000
0000
0001
0000
1000
0000
0001
0000
0000
0000
,
0200
0300
0000
0000
0000
0000
0000
0000
0001
0000
1000
0000
0001
0000
0000
0000
0200
0300
0000
0000
0000
0000
0000
0000
0001
0000
1000
0000
0001
0000
0000
0000
,
2000
3000
0000
0000
0000
0000
0000
0000
0001
0000
0010
0000
0001
0000
0000
0000
2000
3000
0000
0000
0000
0000
0000
0000
0001
0000
0010
0000
0001
0000
0000
0000
,
2000
3000
0000
0000
0000
0000
0000
0000
0001
0000
0010
0000
0001
0000
0000
0000
2000
3000
0000
0000
0000
0000
0000
0000
0001
0000
0010
0000
0001
0000
0000
0000
,
1000
0000
0010
0100
0010
1000
0001
0000
0100
0001
0100
0010
1000
0000
0001
1000
,
0001
0100
0010
0000
1000
0010
1000
0001
0200
0000
0302
0000
2003
0000
3002
0000
,
1003
0000
0100
0010
0100
1000
0001
0000
0010
0001
0010
0100
1000
0000
0001
1000
,
0001
0010
0100
0000
1000
0100
1000
0001
0020
0000
0032
0000
2003
0000
3002
0000
,
1003
0000
0010
0100
0010
1000
0001
0000
0100
0001
0100
0010
1000
0000
0001
1000
,
0001
0100
0010
0000
1000
0010
1000
0001
0200
0000
0302
0000
2003
0000
3002
0000
,
1003
0000
0100
0010
0100
1000
0001
0000
0010
0001
0010
0100
1000
0000
0001
1000
,
0001
0010
0100
0000
1000
0100
1000
0001
0020
0000
0032
0000
2003
0000
3002
0000
,
1003
0000
0100
0010
0100
1000
0001
0000
0100
0001
0100
0010
1000
0000
0001
1000
,
0001
0010
0100
0000
1000
0001
0100
0010
2000
0000
3020
0000
0230
0000
0320
0000
,
1030
0000
0010
0100
0010
1000
0001
0000
0010
0001
0010
0100
1000
0000
0001
1000
,
0001
0100
0010
0000
1000
0001
0010
0100
2000
0000
3200
0000
0320
0000
0230
0000
,
1300
0000
0100
0010
0100
1000
0001
0000
0100
0001
0100
0010
1000
0000
0001
1000
,
0001
0010
0100
0000
1000
0001
0100
0010
2000
0000
3020
0000
0230
0000
0320
0000
,
1030
0000
0010
0100
0010
1000
0001
0000
0010
0001
0010
0100
1000
0000
0001
1000
,
0001
0100
0010
0000
1000
0001
0010
0100
2000
0000
3200
0000
0320
0000
0230
0000
,
1300
0000
0001
0100
0010
0100
0001
0000
1000
0010
0100
0010
1000
0000
0001
0010
,
0100
0010
0001
0000
1000
0100
0010
0100
1000
0000
0001
0100
0010
1000
0001
0000
,
1000
0010
0100
0001
1000
0000
0001
0010
0100
1000
0001
0000
1000
0100
0010
0001
,
1000
0000
0001
0100
0001
1000
0001
0000
1000
0010
1000
0001
1000
0000
0001
0010
,
0001
1000
0001
0000
1000
0100
1000
0001
1000
0000
0001
0010
0100
0010
0001
0000
,
1000
0100
0010
0100
1000
0000
0001
0100
0010
0100
0001
0000
1000
0010
0100
0010
,
1000
0000
0001
0010
0100
1000
0001
0000
1000
0010
0100
0001
1000
0000
0001
0010
,
0001
1000
0001
0000
1000
0010
1000
0001
2000
0000
3020
0000
0230
0000
0320
0000
,
1030
0000
0001
0100
0010
0000
1000
0000
0001
0000
0010
0100
0010
0000
0001
0000
,
1000
0000
0001
0010
0001
0000
1000
0010
1000
0000
0001
0100
0001
0000
1000
0100
,
1000
0000
0001
0100
0010
0000
1000
0000
0001
0000
0010
0100
0010
0000
0001
0000
,
1000
0000
0001
0010
0001
0000
1000
0100
1000
0000
0001
0100
0001
0000
1000
0010
,
1000
0000
0001
0010
0100
0000
1000
0000
0001
0000
0100
0010
0100
0000
0001
0000
,
1000
0000
0010
0100
0010
0000
1000
0001
1000
0000
0100
0010
0100
0000
1000
0001
,
1000
0000
0001
0010
0100
0000
1000
0000
0001
0000
0100
0010
0100
0000
0001
0000
,
1000
0000
0001
0100
0001
0000
1000
0001
1000
0000
0100
0010
0100
0000
1000
0100
,
1000
0000
0001
0010
0100
0000
1000
0000
0001
0000
0100
0010
0100
0000
0001
0000
,
1000
0000
0001
0100
0001
0000
1000
0100
1000
0000
0001
0010
0001
0000
1000
0010
,
1000
0000
0001
0010
0100
0000
1000
0000
0001
0000
0100
0010
0100
0000
0001
0000
,
1000
0000
0001
0100
0001
0000
1000
0010
1000
0000
0001
0010
0001
0000
1000
0100
,
1000
0000
0001
0100
0010
0000
1000
0000
0001
0000
0010
0100
0010
0000
0001
0000
,
1000
0000
0100
0010
0100
0000
1000
0001
1000
0000
0010
0100
0010
0000
1000
0001
,
1000
0000
0001
0100
0010
0000
1000
0000
0001
0000
0010
0100
0010
0000
0001
0000
,
1000
0000
0001
0010
0001
0000
1000
0001
1000
0000
0010
0100
0010
0000
1000
0100
,
1000
0000
0010
0100
0010
1000
0001
0000
0100
0001
0100
0010
1000
0000
0001
1000
,
0001
0100
0010
0000
1000
0010
1000
0001
0200
0000
0302
0000
2003
0000
3002
0000
,
1003
0000
0100
0010
0100
1000
0001
0000
0010
0001
0010
0100
1000
0000
0001
1000
,
0001
0010
0100
0000
1000
0100
1000
0001
0020
0000
0032
0000
2003
0000
3002
0000
,
1003
0000
0010
0100
0010
1000
0001
0000
0100
0001
0100
0010
1000
0000
0001
1000
,
0001
0100
0010
0000
1000
0010
1000
0001
0200
0000
0302
0000
2003
0000
3002
0000
,
1003
0000
0100
0010
0100
1000
0001
0000
0010
0001
0010
0100
1000
0000
0001
1000
,
0001
0010
0100
0000
1000
0100
1000
0001
0020
0000
0032
0000
2003
0000
3002
0000
,
1003
0000
0010
0100
0010
1000
0001
0000
0100
0001
0100
0010
1000
0000
0001
1000
,
0001
0100
0010
0000
1000
0010
1000
0001
0200
0000
0302
0000
2003
0000
3002
0000
,
1003
0000
0100
0010
0100
1000
0001
0000
0010
0001
0010
0100
1000
0000
0001
1000
,
0001
0010
0100
0000
1000
0100
1000
0001
0020
0000
0032
0000
2003
0000
3002
0000
,
1003
0000
0010
0100
0010
1000
0001
0000
0100
0001
0100
0010
1000
0000
0001
1000
,
0001
0100
0010
0000
1000
0010
1000
0001
0200
0000
0302
0000
2003
0000
3002
0000
,
1003
0000
0100
0010
0100
1000
0001
0000
0010
0001
0010
0100
1000
0000
0001
1000
,
0001
0010
0100
0000
1000
0100
1000
0001
0020
0000
0032
0000
2003
0000
3002
0000
,
1003
0000
0100
0010
0100
1000
0001
0000
0100
0001
0100
0010
1000
0000
0001
1000
,
0001
0010
0100
0000
1000
0001
0100
0010
2000
0000
3020
0000
0230
0000
0320
0000
,
1030
0000
0010
0100
0010
1000
0001
0000
0010
0001
0010
0100
1000
0000
0001
1000
,
0001
0100
0010
0000
1000
0001
0010
0100
2000
0000
3200
0000
0320
0000
0230
0000
,
1300
0000
0100
0010
0100
1000
0001
0000
0100
0001
0100
0010
1000
0000
0001
1000
,
0001
0010
0100
0000
1000
0001
0100
0010
2000
0000
3020
0000
0230
0000
0320
0000
,
1030
0000
0010
0100
0010
1000
0001
0000
0010
0001
0010
0100
1000
0000
0001
1000
,
0001
0100
0010
0000
1000
0001
0010
0100
2000
0000
3200
0000
0320
0000
0230
0000
,
1300
0000
0100
0010
0100
1000
0001
0000
0100
0001
0100
0010
1000
0000
0001
1000
,
0001
0010
0100
0000
1000
0001
0100
0010
1000
0000
0001
0010
0100
1000
0001
0000
,
0100
0010
0100
0001
1000
0000
0100
0010
0100
1000
0001
0000
1000
0010
1000
0001
,
0100
0000
0001
0010
0001
1000
0100
0000
1000
0001
0100
0001
1000
0000
0001
0010
,
0100
0010
0001
0000
1000
0010
0100
0010
1000
0000
0001
1000
0100
0010
0001
0000
,
1000
0001
0100
0010
1000
0000
0100
0010
0001
1000
0001
0000
0100
0010
1000
0001
,
1000
0000
0100
1000
0001
0010
0001
0000
0100
0001
1000
0010
1000
0000
0100
1000
,
0001
1000
0010
0000
0100
0001
1000
0001
0020
0000
0230
0000
2300
0000
3200
0000
,
0300
MMMM
0000
0000
0000
0000
0000
0000
0000
0000
0000
0000
0000
0000
0000
0000
0000
0000
0000
0000
0000
0000
0000
0000
0000
0000
0000
0000
0000
0000
0000
0000
;

//---------------dance-single - TheBoxX----------------
#NOTES:
     dance-single:
     TheBoxX:
     Hard:
     15:
     1.000,1.000,0.219,1.000,1.000,1090.000,23.000,120.000,4.000,0.000:

0000
0000
0000
0000
0000
0000
0001
0100
,
0010
0100
0000
0001
,
0000
0000
0000
1000
,
0000
0100
0000
0100
,
0000
0010
0000
0001
,
0000
0000
1000
0010
,
0000
0010
0100
0001
,
0000
1000
0000
0000
,
0000
0001
0010
0100
,
0000
1100
0000
1010
,
0000
1001
0000
0101
,
0000
0100
0010
0000
,
0000
1100
0010
1001
,
0000
0001
0010
0100
,
1000
0010
0000
1001
,
0000
0100
0110
0000
,
0001
0000
0100
0000
0110
0000
0010
1000
,
0001
0010
0011
0001
,
0100
0010
1010
1000
,
0001
0100
0110
0001
,
1000
0100
0110
1000
,
0001
0100
0101
0010
,
1000
0001
0011
1000
,
0010
0100
1010
0001
,
0010
0100
1100
1000
,
0001
0100
0110
0001
,
1000
0010
1001
1000
,
0100
1000
0110
0001
,
0010
0001
1010
1000
,
0100
1000
0101
0010
,
0100
0010
0000
1001
,
0000
1000
0010
0000
,
2000
3000
0000
0000
0000
0000
0000
0000
0001
0000
0010
0000
0001
0000
0000
0000
2000
3000
0000
0000
0000
0000
0000
0000
0001
0000
0010
0000
0001
0000
0000
0000
,
2000
3000
0000
0000
0000
0000
0000
0000
0001
0000
0010
0000
0001
0000
0000
0000
2000
3000
0000
0000
0000
0000
0000
0000
0001
0000
0010
0000
0001
0000
0000
0000
,
0200
0300
0000
0000
0000
0000
0000
0000
0001
0000
1000
0000
0001
0000
0000
0000
0200
0300
0000
0000
0000
0000
0000
0000
0001
0000
1000
0000
0001
0000
0000
0000
,
0200
0300
0000
0000
0000
0000
0000
0000
0001
0000
1000
0000
0001
0000
0000
0000
0200
0300
0000
0000
0000
0000
0000
0000
0001
0000
1000
0000
0001
0000
0000
0000
,
0020
0030
0000
0000
0000
0000
0000
0000
0001
0000
1000
0000
0001
0000
0000
0000
0020
0030
0000
0000
0000
0000
0000
0000
0001
0000
1000
0000
0001
0000
0000
0000
,
0020
0030
0000
0000
0000
0000
0000
0000
0001
0000
1000
0000
0001
0000
0000
0000
0020
0030
0000
0000
0000
0000
0000
0000
0001
0000
1000
0000
0001
0000
0000
0000
,
2000
3000
0000
0000
0000
0000
0000
0000
0001
0000
0100
0000
0001
0000
0000
0000
2000
3000
0000
0000
0000
0000
0000
0000
0001
0000
0100
0000
0001
0000
0000
0000
,
2000
3000
0000
0000
0000
0000
0000
0000
0001
0000
0100
0000
0001
0000
0000
0000
2000
3000
0000
0000
0000
0000
0000
0000
0001
0000
0100
0000
0001
0000
0000
0000
,
2000
3000
0000
0000
0000
0000
0000
0000
1000
0000
0010
0000
1000
0000
0000
0000
0002
0003
0000
0000
0000
0000
0000
0000
1000
0000
0010
0000
1000
0000
0000
0000
,
0002
0003
0000
0000
0000
0000
0000
0000
1000
0000
0010
0000
1000
0000
0000
0000
0002
0003
0000
0000
0000
0000
0000
0000
1000
0000
0010
0000
1000
0000
0000
0000
,
0200
0300
0000
0000
0000
0000
0000
0000
1000
0000
0001
0000
1000
0000
0000
0000
0200
0300
0000
0000
0000
0000
0000
0000
1000
0000
0001
0000
1000
0000
0000
0000
,
0200
0300
0000
0000
0000
0000
0000
0000
1000
0000
0001
0000
1000
0000
0000
0000
0200
0300
0000
0000
0000
0000
0000
0000
1000
0000
0001
0000
1000
0000
0000
0000
,
0020
0030
0000
0000
0000
0000
0000
0000
1000
0000
0001
0000
1000
0000
0000
0000
0020
0030
0000
0000
0000
0000
0000
0000
1000
0000
0001
0000
1000
0000
0000
0000
,
0020
0030
0000
0000
0000
0000
0000
0000
1000
0000
0001
0000
1000
0000
0000
0000
0020
0030
0000
0000
0000
0000
0000
0000
1000
0000
0001
0000
1000
0000
0000
0000
,
0002
0003
0000
0000
0000
0000
0000
0000
1000
0000
0100
0000
1000
0000
0000
0000
0002
0003
0000
0000
0000
0000
0000
0000
1000
0000
0100
0000
1000
0000
0000
0000
,
0002
0003
0000
0000
0000
0000
0000
0000
1000
0000
0100
0000
1000
0000
0000
0000
0002
0003
0000
0000
0000
0000
0000
0000
1000
0000
0100
0000
1000
0000
0000
0000
,
0001
0000
0010
0100
0010
0100
0010
0000
0100
1000
0100
1000
0100
0000
1000
0001
,
1000
0001
1000
0000
0001
0010
0001
0010
0002
0000
2003
0000
3002
0000
2003
0000
,
3001
0000
0100
0001
0100
0001
0100
0000
0010
0100
0010
0100
0010
0000
1000
0010
,
1000
0010
1000
0000
0001
1000
0001
1000
0002
0000
2003
0000
3002
0000
2003
0000
,
3001
0000
0100
0010
0100
0010
0100
0000
0010
1000
0010
1000
0010
0000
1000
0001
,
1000
0001
1000
0000
0001
0100
0001
0100
0002
0000
2003
0000
3002
0000
2003
0000
,
3001
0000
0010
0100
0010
0100
0010
0000
0100
1000
0100
1000
0100
0000
1000
0001
,
1000
0001
1000
0000
0001
0010
0001
0010
0002
0000
2003
0000
3002
0000
2003
0000
,
3001
0000
1000
0001
1000
0001
1000
0000
0010
0100
0010
0100
0010
0000
1000
0001
,
1000
0001
1000
0000
0010
0100
0010
0100
0020
0000
0230
0000
0320
0000
0230
0000
,
0301
0000
1000
0001
1000
0001
1000
0000
0100
0010
0100
0010
0100
0000
1000
0001
,
1000
0001
1000
0000
0100
0010
0100
0010
0200
0000
0320
0000
0230
0000
0320
0000
,
0031
0000
1000
0010
1000
0010
1000
0000
0001
0100
0001
0100
0001
0000
1000
0010
,
1000
0010
1000
0000
0001
0100
0001
0100
0002
0000
2003
0000
3002
0000
2003
0000
,
3001
0000
1000
0100
1000
0100
1000
0000
0001
0010
0001
0010
0001
0000
1000
0100
,
1000
0100
1000
0000
0001
0010
0001
0010
0002
0000
2003
0000
3002
0000
2003
0000
,
3001
0000
0100
0001
0100
0001
0100
0000
0001
1000
0001
1000
0001
0000
1000
0100
,
1000
0100
1000
0000
0100
0010
0100
0010
0100
0000
0010
0001
0010
0001
0010
0000
,
0001
1000
0001
1000
0001
0000
1000
0010
1000
0010
1000
0000
0010
0100
0010
0100
,
0010
0000
0100
0001
0100
0001
0100
0000
0001
1000
0001
1000
0001
0000
1000
0100
,
1000
0100
1000
0000
0001
0010
0001
0010
0001
0000
1000
0010
1000
0010
1000
0000
,
0001
0100
0001
0100
0001
0000
1000
0001
1000
0001
1000
0000
0010
0100
0010
0100
,
0010
0000
1000
0001
1000
0001
1000
0000
0100
0010
0100
0010
0100
0000
1000
0001
,
1000
0001
1000
0000
0010
0100
0010
0100
0020
0000
0230
0000
0320
0000
0230
0000
,
0301
0000
1000
0010
0100
0000
0001
0000
1000
0000
0100
0010
0100
0000
1000
0000
,
0001
0000
0010
0100
0010
0000
0100
1000
0100
0000
1000
0001
1000
0000
0001
0010
,
0001
0000
0010
0100
1000
0000
0001
0000
1000
0000
0010
0100
0010
0000
1000
0000
,
0001
0000
0100
0010
0100
0000
0010
1000
0010
0000
1000
0001
1000
0000
0001
0100
,
0001
0000
0100
0010
1000
0000
0001
0000
1000
0000
0100
0010
0100
0000
1000
0000
,
0001
0000
0010
0100
0010
0000
0001
1000
0001
0000
0010
0100
0010
0000
0001
1000
,
0001
0000
1000
0100
0010
0000
0001
0000
1000
0000
0010
0100
0010
0000
1000
0000
,
0001
0000
0100
0010
0100
0000
0001
1000
0001
0000
0100
0010
0100
0000
0001
1000
,
0001
0000
1000
0010
0100
0000
0001
0000
1000
0000
0010
0100
0010
0000
1000
0000
,
0001
0000
1000
0010
1000
0000
0001
0100
0001
0000
1000
0010
1000
0000
0001
0100
,
0001
0000
1000
0100
0010
0000
0001
0000
1000
0000
0100
0010
0100
0000
1000
0000
,
0001
0000
1000
0100
1000
0000
0001
0010
0001
0000
1000
0100
1000
0000
0001
0010
,
0001
0000
1000
0010
0100
0000
0001
0000
1000
0000
0010
0100
0010
0000
1000
0000
,
0001
0000
0100
0010
0100
0000
0001
1000
0001
0000
0010
0100
0010
0000
0001
1000
,
0001
0000
1000
0100
0010
0000
0001
0000
1000
0000
0100
0010
0100
0000
1000
0000
,
0001
0000
0010
0100
0010
0000
0001
1000
0001
0000
0100
0010
0100
0000
0001
1000
,
0001
0000
0100
0001
0100
0001
0100
0000
0010
1000
0010
1000
0010
0000
1000
0001
,
1000
0001
1000
0000
0001
0100
0001
0100
0002
0000
2003
0000
3002
0000
2003
0000
,
3001
0000
1000
0100
1000
0100
1000
0000
0100
0010
0100
0010
0100
0000
0010
0001
,
0010
0001
0010
0000
0001
1000
0001
1000
0002
0000
2003
0000
3002
0000
2003
0000
,
3001
0000
0100
0010
0100
0010
0100
0000
0010
1000
0010
1000
0010
0000
1000
0001
,
1000
0001
1000
0000
0001
0100
0001
0100
0002
0000
2003
0000
3002
0000
2003
0000
,
3001
0000
0010
0100
0010
0100
0010
0000
0100
1000
0100
1000
0100
0000
1000
0001
,
1000
0001
1000
0000
0001
0010
0001
0010
0002
0000
2003
0000
3002
0000
2003
0000
,
3001
0000
0100
0001
0100
0001
0100
0000
0010
1000
0010
1000
0010
0000
0100
0010
,
0100
0010
0100
0000
0001
1000
0001
1000
0002
0000
2003
0000
3002
0000
2003
0000
,
3001
0000
0010
0001
0010
0001
0010
0000
0100
1000
0100
1000
0100
0000
0010
0100
,
0010
0100
0010
0000
0001
1000
0001
1000
0002
0000
2003
0000
3002
0000
2003
0000
,
3001
0000
0100
0001
0100
0001
0100
0000
0001
1000
0001
1000
0001
0000
1000
0010
,
1000
0010
1000
0000
0001
0100
0001
0100
0002
0000
2003
0000
3002
0000
2003
0000
,
3001
0000
0010
0001
0010
0001
0010
0000
0001
1000
0001
1000
0001
0000
1000
0100
,
1000
0100
1000
0000
0001
0010
0001
0010
0002
0000
2003
0000
3002
0000
2003
0000
,
3001
0000
1000
0001
1000
0001
1000
0000
0010
0100
0010
0100
0010
0000
1000
0001
,
1000
0001
1000
0000
0010
0100
0010
0100
0020
0000
0230
0000
0320
0000
0230
0000
,
0301
0000
1000
0001
1000
0001
1000
0000
0100
0010
0100
0010
0100
0000
1000
0001
,
1000
0001
1000
0000
0100
0010
0100
0010
0200
0000
0320
0000
0230
0000
0320
0000
,
0031
0000
1000
0001
1000
0001
1000
0000
0100
0010
0100
0010
0100
0000
1000
0001
,
1000
0001
1000
0000
0010
0100
0010
0100
0020
0000
0230
0000
0320
0000
0230
0000
,
0301
0000
1000
0001
1000
0001
1000
0000
0010
0100
0010
0100
0010
0000
1000
0001
,
1000
0001
1000
0000
0100
0010
0100
0010
0200
0000
0320
0000
0230
0000
0320
0000
,
0031
0000
1000
0100
1000
0100
1000
0000
0001
0010
0001
0010
0001
0000
1000
0010
,
1000
0010
1000
0000
0001
1000
0001
1000
0001
0000
0010
0100
0010
0100
0010
0000
,
0001
1000
0001
1000
0001
0000
0100
0010
0100
0010
0100
0000
0001
1000
0001
1000
,
0001
0000
1000
0100
1000
0100
1000
0000
0001
0010
0001
0010
0001
0000
1000
0010
,
1000
0010
1000
0000
0001
0100
0001
0100
0001
0000
0100
0010
0100
0010
0100
0000
,
0010
1000
0010
1000
0010
0000
1000
0001
1000
0001
1000
0000
0001
0010
0001
0010
,
0001
0000
0010
0100
0010
0100
0010
0000
0100
1000
0100
1000
0100
0000
0010
0001
,
0010
0001
0010
0000
0001
1000
0001
1000
0002
0000
2003
0000
3002
0000
2003
0000
,
3000
MMMM
0000
0000
0000
0000
0000
0000
0000
0000
0000
0000
0000
0000
0000
0000
0000
0000
0000
0000
0000
0000
0000
0000
0000
0000
0000
0000
0000
0000
0000
0000
;
