#TITLE:Lost in Society;
#SUBTITLE:;
#ARTIST:Kurwastyle Project;
#TITLETRANSLIT:;
#SUBTITLETRANSLIT:;
#ARTISTTRANSLIT:;
#CREDIT:lolipo;
#BANNER:society-bn.png;
#BACKGROUND:society-bg.png;
#LYRICSPATH:;
#CDTITLE:;
#MUSIC:Kurwastyle Project - Lost In Society.ogg;
#OFFSET:-0.094;
#SAMPLESTART:85.976;
#SAMPLELENGTH:12.000;
#SELECTABLE:YES;
#BPMS:0.000=220.000;
#STOPS:;
#BGCHANGES:;
// cache tags:
#FIRSTBEAT:16.000;
#LASTBEAT:522.000;
#SONGFILENAME:Songs/SPEEEDCOOOORE 4/Lost in Society - [Lolipo]/lost in society.sm;
#HASMUSIC:1;
#HASBANNER:1;
#MUSICLENGTH:144.012;
// end cache tags

//---------------dance-single - lolipo----------------
#NOTES:
     dance-single:
     lolipo:
     Challenge:
     15:
     1.000,1.000,0.208,0.347,0.996,1092.000,30.000,50.000,1.000,0.000:

0000
0000
0000
0000
,
0000
0000
0000
0000
,
0000
0000
0000
0000
,
0000
0000
0000
0000
,
2000
0000
3001
0100
0001
1000
0002
0000
1003
0100
0010
0100
1000
0001
0100
0010
,
0200
0000
0301
1000
0100
0010
0002
0000
0003
0000
2000
0000
0000
0000
0000
3000
,
0001
0000
0100
0010
1000
0010
0200
0000
0301
1000
0100
0010
0100
1000
0010
0100
,
0002
0000
1003
0100
0010
0001
2000
0000
3000
0000
0002
0000
0000
0000
0003
0000
,
1000
0100
0010
0001
1000
0010
0100
0010
1000
0001
0100
0010
1000
0000
0004
0000
,
0103
0000
0000
0000
0040
0000
1030
0000
0100
0000
1000
0001
0100
0001
1000
0100
,
0010
0100
1000
0001
0100
0001
1000
0010
1000
0100
0010
0001
0100
0010
1000
0001
,
0100
0010
1000
0100
0010
0000
0001
0000
1000
0000
0000
0000
0100
0000
0000
0000
,
1000
0010
1000
0001
0010
0100
1000
0001
0100
0001
1000
0100
0010
0001
0100
0010
,
1000
0001
0100
0010
,
1000
0010
0100
0001
,
1000
0100
0010
0001
0100
0010
1000
0001
,
0100
0010
1000
0001
0010
0001
1000
0100
0010
0100
1000
0010
1000
0100
0010
0001
,
0100
0001
1000
0001
0010
0100
1000
0001
1000
0010
0100
0001
1000
0010
1000
0001
,
0100
0010
1000
0001
1000
0100
1000
0001
0010
0100
1000
0010
1000
0100
0010
0001
,
1000
0001
1000
0001
0010
0100
1000
0001
,
0100
0001
0010
0001
1000
0010
0100
0001
1000
0000
0001
0000
0100
0000
0000
0000
,
0001
0000
0000
0000
1000
0100
1000
0001
0010
0100
1000
0001
0100
0001
1000
0010
,
0100
0010
1000
0100
,
1000
0010
0100
0001
,
0100
0010
1000
0001
1000
0100
1000
0000
,
1000
0100
0010
0001
1000
0001
0100
0000
,
0100
0010
1000
0001
1000
0100
0010
0000
,
0010
0001
1000
0001
0100
0010
1000
0000
,
0001
0000
0100
0010
1000
0001
1000
0100
0020
0000
0000
0000
0000
0000
0000
0000
,
0031
0000
1000
0100
1000
0001
0100
0010
2000
0000
0000
0000
0000
0000
0000
0000
,
3010
0000
1000
0100
0010
0001
1000
0010
0200
0000
0000
0000
0000
0000
0000
0000
,
0301
0000
1000
0010
0100
0001
1000
0100
0020
0000
0000
0000
0000
0000
0000
0030
,
1002
0000
0000
0000
,
0003
0000
0000
0000
,
0000
0000
0000
0000
,
0000
0000
0000
0000
,
2001
3200
2300
3020
,
0230
0000
0302
0000
0103
0010
1000
0001
,
0020
0032
0203
0320
,
2030
0000
0000
0000
3200
0000
0000
0000
1300
0000
0001
0000
1000
0010
1000
0001
,
0200
0320
2030
3200
,
2300
0000
3002
0000
0103
0001
1000
0010
,
0100
0001
0010
0001
1000
0001
0100
0010
,
1000
0001
1000
0100
0010
0001
1000
0100
1000
0001
0100
0010
1000
0001
0010
0100
,
1000
0000
0001
0000
1000
0000
0001
0100
0001
0000
1000
0000
0001
0000
0010
0000
,
0100
0000
1000
0000
0001
0000
0100
0010
0100
0000
0001
0000
1000
0000
0001
0000
,
0010
0000
0100
0000
1000
0000
0010
0100
0001
0000
1000
0000
0001
0000
0010
0100
,
1000
0000
0001
0000
1000
0000
0001
0100
0010
0000
1000
0000
0001
0000
0010
0000
,
0100
0000
1000
0000
0001
0000
1000
0010
0100
0000
0001
0000
0100
0000
0010
0000
,
1000
0000
0001
0000
1000
0000
0001
0010
0100
0000
1000
0000
0001
0000
1000
0000
,
0010
0000
0100
0000
0001
0000
1000
0100
1000
0000
0001
0000
0010
0000
0100
1000
,
0001
0101
0110
1010
,
1000
0000
0010
0000
1000
0000
0001
0010
0100
0000
1000
0000
0010
0000
0100
0000
,
0001
0000
1000
0001
0100
0010
1000
0001
0010
0000
0001
0000
1000
0000
0010
0000
,
0100
0001
1000
0100
1000
0000
0001
0010
0001
0000
1000
0100
1000
0000
0001
0000
,
0100
0000
0010
1000
0001
1000
0100
0000
1000
0000
0001
0000
0100
0000
0010
0000
,
0100
0001
1000
0010
0200
0000
0301
1000
,
0001
0010
0100
1000
0020
0000
0030
0100
,
0001
0000
0000
1000
0000
0000
0100
0000
1000
0000
0000
0010
0000
0000
0100
0000
,
0002
0103
0020
0130
0002
0103
0020
0130
,
0001
1000
0100
1000
0001
1000
0100
0010
,
0001
0100
0001
1000
0001
0100
0010
1000
,
0001
1000
0100
1000
0001
1000
0100
0010
,
0001
0100
0010
0100
0001
0010
0001
1000
,
0010
0100
0001
1000
0001
0020
0000
0000
,
0031
1000
0001
0100
0010
1000
0200
0000
,
2300
0000
3002
0000
,
0103
0010
0100
0001
1000
0100
1000
0001
,
1000
0001
0010
0001
1000
0001
0010
0100
,
1000
0010
1000
0001
1000
0010
0100
0001
,
1000
0001
0010
0001
1000
0001
0010
0100
,
1000
0010
0100
0010
1000
0100
1000
0001
,
1000
0001
1000
0010
0100
0001
0100
0010
1000
0001
0010
0100
1000
0001
0100
0010
,
1000
0001
1000
0100
0010
0001
1000
0010
1000
0001
1000
0100
0010
0001
1000
0001
,
0010
0100
1000
0100
0010
0001
1000
0001
1000
0010
0100
0001
1000
0100
1000
0001
,
0010
0100
1000
0001
0100
0010
1000
0001
1000
0100
0010
0001
1000
0001
0100
0010
,
1000
0000
0001
0001
0100
0010
1000
0100
,
0010
0001
0100
0010
1000
0001
1000
0100
,
0010
0001
0100
0010
1000
0001
1000
0100
,
0010
0001
1000
0010
0100
0001
0010
0100
,
1000
0001
1000
0100
0010
0001
1000
0010
0100
0010
1000
0001
0010
0001
1000
0010
,
0100
0001
1000
0100
1000
0001
0010
0100
1000
0000
0000
0000
0040
0000
0130
0000
,
0001
1000
0001
0010
0001
1000
0100
1000
0001
0100
0010
1000
0001
0000
1000
0000
,
0100
0000
0000
0000
0010
0000
0000
0000
0001
0100
0010
1000
0001
1000
0010
0100
,
0010
1000
0001
0010
0100
0010
0001
1000
0002
0000
0000
0000
0003
0000
0000
0000
,
0100
0010
1000
0001
0010
0100
0010
0001
,
1000
0000
0000
0000
0010
0100
0001
0000
0100
0001
1000
0010
0100
0001
1000
0100
,
0010
0000
0001
0000
1000
0000
0100
0000
1000
0000
0010
0000
0400
0000
0000
0300
,
0001
0100
0001
1000
0100
0010
0001
1000
0010
0100
0010
1000
0001
0010
0100
1000
,
0001
0100
0001
1000
0100
0010
0001
1000
0010
1000
0001
0010
0100
1000
0001
0010
,
0100
0000
1100
0000
1000
0001
0100
0010
,
1010
1001
0011
0000
,
1001
0000
0101
0000
1010
0000
0011
0001
,
1000
1100
1001
0101
,
0001
0100
0010
1000
0100
0010
0001
0010
,
0100
1000
0010
0100
0010
0000
1000
0000
,
0001
1000
0100
1000
0001
1000
0100
0010
,
0001
0100
0001
1000
0001
0100
0010
1000
,
0001
0010
0100
1000
0001
0100
0010
0100
0001
1000
0001
0100
0010
0000
1000
0000
,
0001
1000
0100
1000
0010
0100
0001
0100
,
0010
1000
0010
0100
0001
2000
0000
0000
,
3100
0010
0001
0100
0010
1000
0001
0000
,
0010
0000
0000
0000
0001
1000
0001
0000
0100
0000
0000
0000
0001
1000
0001
0000
,
0010
0100
1000
0010
0100
0001
1000
0100
,
1000
0010
1000
0001
0100
0010
1000
0001
0010
0100
1000
0001
0100
0001
1000
0010
,
0100
0001
1000
0001
0010
0001
1000
0010
0100
0010
1000
0001
0010
0100
1000
0010
,
1000
0001
0100
0010
1000
0001
1000
0100
0010
0001
1000
0001
1000
0100
1000
0010
,
0100
0000
0000
0000
0001
1000
0010
0000
0100
0000
0000
0000
0001
0000
0000
0000
,
1000
0100
0010
0100
1000
0001
0100
0010
1000
0010
0100
0001
1000
0100
0010
0100
,
1000
0010
0100
0001
0100
0010
1000
0001
0010
0100
0010
0001
0100
0010
1000
0001
,
1000
0000
0000
0000
,
0000
0000
0000
0000
,
0001
0000
0000
0000
1000
0100
0010
0000
0001
0000
0000
1000
0001
0100
0010
0000
,
1000
0000
0001
0000
1000
0100
1000
0001
1000
0000
0000
0001
0100
0000
0000
0001
,
1000
0000
0000
0000
0100
0000
1000
0000
0001
0000
0100
0010
1000
0001
0100
0000
,
0001
0000
1000
0100
1000
0000
0001
0000
1000
0000
0000
0100
0010
0000
0000
0100
,
0010
0000
0000
0000
0001
0000
0100
0000
0010
0000
1000
0001
0010
0001
0100
0000
,
0010
0000
0100
0001
1000
0100
2000
0000
3001
0100
0001
0010
0100
1000
0001
0100
,
0020
0030
1000
0001
1000
0010
0200
0000
0301
1000
0100
0010
0100
1000
0010
0100
,
0002
0000
1003
0100
0010
0001
2000
0000
3000
0000
0002
0000
0000
0003
0000
0000
,
1000
0010
1000
0001
0010
0100
0010
0001
,
1000
0010
0100
0010
1000
0001
0100
0010
,
1000
0100
0010
0001
1000
0001
0010
0100
,
1000
0001
1000
0100
0010
0001
0100
0010
0100
0001
1000
0100
0010
0000
0001
0000
,
1001
1010
0101
1001
,
0011
0110
1100
1001
,
0001
0100
0010
1000
0001
0000
0011
0000
,
1001
0000
0000
0000
0101
0000
0000
0000
0001
0010
0001
1000
0010
1000
0001
0100
,
0010
0000
0000
0000
,
0000
0000
0000
0000
,
0000
0000
M000
0000
;
