#TITLE:RUGGED ASH mode-141;
#SUBTITLE:;
#ARTIST:Is-m;
#TITLETRANSLIT:;
#SUBTITLETRANSLIT:;
#ARTISTTRANSLIT:;
#CREDIT:;
#BANNER:rugged.png;
#BACKGROUND:rugged-bg.png;
#LYRICSPATH:;
#CDTITLE:141logo.png;
#MUSIC:rugged_step2.mp3;
#OFFSET:-0.067;
#SAMPLESTART:26.087;
#SAMPLELENGTH:12.000;
#SELECTABLE:YES;
#BPMS:0.000=230.000;
#STOPS:;
#BGCHANGES:;
// cache tags:
#FIRSTBEAT:16.000;
#LASTBEAT:383.000;
#SONGFILENAME:Songs/Japanese Collaboration Mix/rugged/rugged.sm;
#HASMUSIC:1;
#HASBANNER:1;
#MUSICLENGTH:107.463;
// end cache tags

//---------------dance-single - Copied from Hard----------------
#NOTES:
     dance-single:
     Copied from Hard:
     Challenge:
     11:
     0.710,0.802,0.084,0.112,1.000,513.000,9.000,12.000,0.000,0.000:
0000
0000
0000
0000
,
0000
0000
0000
0000
,
0000
0000
0000
0000
,
0000
0000
0000
0000
,
0100
0010
1000
0010
,
0001
0100
1000
0001
,
1000
0100
0010
1000
,
0001
1000
0010
0100
,
1000
0100
0000
0000
0000
0000
0000
0000
0010
0001
0000
0000
0000
0000
0000
0000
,
0100
1000
0000
0000
0000
0000
0000
0000
0001
0010
0000
0000
0000
0000
0000
0000
,
0010
0000
0000
0000
0000
0000
0010
0000
0000
0000
0000
0100
,
0010
0000
0000
0000
0001
0100
0000
0000
1000
0010
0000
0000
,
1000
0000
0000
0000
,
0000
0000
0000
0000
,
1000
0000
0001
1000
0000
0001
1000
0000
0001
1000
0000
0001
,
1000
0000
0001
1000
0000
0001
1000
0000
0010
0000
0100
0000
,
0010
0000
0100
0010
0000
0100
0010
0000
0100
0010
0000
0100
,
0001
0000
0100
0001
0000
0100
0001
0000
0100
0000
0010
1000
,
0001
0000
0000
0000
0000
0000
0010
0000
0000
0000
0000
1000
,
0100
0000
0000
0000
0001
0100
0000
0000
1000
0100
0000
0000
,
0001
0000
0000
0000
,
0000
0000
0000
0000
0000
0010
1000
0000
0000
0100
0000
0000
,
1000
0000
0001
1000
0000
0001
1000
0000
0001
1000
0000
0001
,
1000
0000
0001
1000
0000
0001
1000
0000
0010
0000
0100
0000
,
0010
0000
0100
0010
0000
0100
0010
0000
0100
0010
0000
0100
,
0001
0000
0100
0010
0000
0100
0010
0000
0001
0000
0010
1000
,
0001
0000
1000
0010
0000
0000
1000
0000
0010
0000
0000
0001
,
0100
0000
0001
0000
0000
1000
0001
0000
1000
0010
0000
1000
,
0000
0000
0100
0001
0000
0000
1000
0000
0010
0000
0000
0100
,
0010
0000
0001
0000
0000
1000
0001
0000
0100
0010
0000
1000
,
0000
0000
1000
0001
0000
0000
1000
0000
0010
0000
0000
0001
,
0100
0000
0000
0000
0000
1000
0001
0000
1000
0010
0000
0100
,
0000
0000
1000
0010
0000
0000
1000
0000
0010
0000
0000
0001
,
1000
0000
0001
0000
0000
0100
0010
0000
1000
0001
0000
1001
,
0000
0000
0010
0100
0000
0000
1000
0000
0001
0000
0000
0010
,
0100
0000
0000
0000
0000
1000
0010
0000
1000
0010
0000
0001
,
0000
0000
1000
0100
0000
0000
0010
0000
0001
0000
0000
0001
,
1000
0000
0001
0000
0000
1000
0001
0000
1000
0010
0000
0100
,
0010
0000
1000
0001
0000
1000
0001
0000
1000
0001
0000
1000
,
0001
0000
1000
0001
0000
1000
0001
0000
0010
0000
0100
0000
,
1000
0000
0001
1000
0000
0001
1000
0000
0001
1000
0000
0001
,
0100
0000
0010
1000
0000
0100
0001
0000
1000
0000
0010
0000
,
1001
0000
0010
1000
0010
1000
0010
0000
0000
0100
0000
0000
,
0010
0000
0000
0001
0000
0000
1000
0100
0000
0010
0000
0000
,
1001
0000
0000
1000
0000
1000
0001
0000
0000
0010
0000
0010
,
0000
0001
1000
0001
0000
1000
0001
0000
1000
0001
0000
1000
,
0100
0001
0100
0000
0010
0100
0010
0100
0010
0100
0010
0000
,
1001
0000
0010
0000
0100
0000
0010
0000
0000
0001
0000
0000
,
0001
0000
0000
0001
0000
0000
0100
0000
0001
0000
0100
0010
,
0001
0000
0001
1000
0000
0100
0001
0000
0100
0001
0000
0010
,
1000
0000
0001
0100
0000
0010
0001
0000
0010
1000
0000
0100
,
0001
0000
0000
0001
0000
0000
0001
0000
1000
0001
0000
1000
,
0100
0010
0100
0001
0100
0000
0010
1000
0000
0100
0001
0000
,
0001
0000
0001
0010
0000
0010
0100
0000
0100
1000
0000
1000
,
0100
0000
0100
0010
0000
0010
0001
0000
0001
0010
0000
0010
,
0100
0000
0100
1000
0000
1000
0100
0000
0100
0010
0000
0010
,
1000
0000
0100
0000
0010
0000
0001
0000
0010
0000
0001
0100
,
2002
0000
0000
0000
,
0000
0000
0000
0000
0000
0000
3003
0000
0100
0010
0000
0000
,
0010
0000
0000
0010
0000
0000
0100
0010
0000
0010
0000
0000
,
0100
0000
0000
0100
0000
0000
0100
0010
0000
0100
0000
0000
,
0001
0000
0000
0001
0000
0000
0001
0100
0000
0001
0000
0000
,
1000
0000
0000
1000
0000
0000
1000
0010
0000
1000
0000
0000
,
1001
0000
0010
0100
0000
0100
0001
0000
0001
1000
0000
1000
,
0010
0000
0010
0100
0000
0001
1000
0000
0100
0001
0000
0010
,
0000
0000
0010
0000
0000
0001
0000
0000
0100
0002
0000
0000
,
2000
0000
0000
3003
,
1001
0000
0100
0010
0000
0010
0001
0000
0001
1000
0000
1000
,
0010
0000
0010
0001
0000
0100
0001
0000
0010
1000
0000
0100
,
0000
0000
0100
0000
0000
0001
0000
0000
0100
0002
0000
0000
,
2000
0000
0000
3003
,
1001
0000
0010
0100
0000
0100
0001
0000
0001
1000
0000
1000
,
0010
0000
0010
0100
0000
0001
1000
0000
0100
0001
0000
0010
,
0000
0000
0010
0000
0000
0001
0000
0000
0100
0002
0000
0000
,
2000
0000
0000
3003
,
0010
0000
0100
0010
0000
0100
0010
0000
0100
0010
0000
0100
,
0010
0000
0100
0010
0000
0100
0010
0000
0001
0000
1000
0000
,
0100
0000
0010
0100
0000
0010
0100
0000
0010
0100
0000
0010
,
0100
0000
0010
0100
0000
1000
0001
0000
0100
0010
0000
0001
,
0010
0100
0010
1000
,
0100
0010
0001
0100
,
0010
1000
0100
0002
,
0000
0000
0000
0003
,
0010
1000
0100
0001
,
0010
0100
1000
0010
,
0001
0100
0001
2000
,
0000
0000
0000
3000
,
0001
0000
0000
0000
0000
1000
0000
0000
0010
0100
0000
0001
,
1000
0000
0000
0000
0000
0000
0001
0000
1000
0010
0000
0001
,
0100
0000
0000
0001
0000
0000
0100
0000
1000
0010
0000
0000
,
0100
0000
0000
0001
0000
0000
0100
0000
1000
0001
0000
0000
,
0010
0000
1000
0010
0000
1000
0010
0000
1000
0010
0000
1000
,
0010
0000
1000
0010
0000
1000
0010
0000
1000
0010
0000
1000
,
0010
0000
1000
0100
0000
0001
0010
0000
1000
0100
0000
0001
,
0100
0001
1000
0001
1000
0001
1000
0001
1000
0000
0100
0000
,
2002
0000
0000
3003
;
