#TITLE:Squartatrice;
#SUBTITLE:;
#ARTIST:gmtn vs. Kozato;
#TITLETRANSLIT:;
#SUBTITLETRANSLIT:;
#ARTISTTRANSLIT:;
#CREDIT:;
#BANNER:../banner.png;
#BACKGROUND:../bg.png;
#LYRICSPATH:;
#CDTITLE:;
#MUSIC:squartatrice.ogg;
#OFFSET:-0.039;
#SAMPLESTART:83.060;
#SAMPLELENGTH:21.540;
#SELECTABLE:YES;
#BPMS:0.000=180.000;
#STOPS:;
#BGCHANGES:;
// cache tags:
#FIRSTBEAT:8.000;
#LASTBEAT:397.000;
#SONGFILENAME:Songs/Cirque du Lykan/Squartatrice - [Zaia]/Squartatrice.sm;
#HASMUSIC:1;
#HASBANNER:1;
#MUSICLENGTH:139.049;
// end cache tags

//---------------dance-single - Zaia - 14(low)----------------
#NOTES:
     dance-single:
     Zaia - 14(low):
     Challenge:
     14:
     1.000,1.000,0.137,0.050,1.000,1075.000,19.000,7.000,0.000,0.000:
0000
0000
0000
0000
,
0000
0000
0000
0000
,
0001
0100
0001
0010
0001
1000
0010
1000
,
0100
1000
0001
0100
0010
0100
0001
1000
,
0100
0010
0100
1000
0010
0100
0001
1000
,
0001
0010
0100
1000
0010
0100
0001
0010
,
0001
1000
0100
1000
0001
0100
0001
0010
,
0100
1000
0001
0100
0001
1000
0100
0010
,
0001
0100
0001
0010
0001
1000
0100
1000
,
0010
0000
1000
0000
0001
0000
0100
0000
0010
0000
0100
0001
1000
0001
0010
0100
,
1000
0010
1000
0100
1000
0001
0010
0001
,
0100
0001
1000
0100
0010
0100
1000
0001
,
0100
0010
1000
0001
0010
0100
1000
0010
,
1000
0001
0100
0001
0010
0001
1000
0001
,
0100
0010
1000
0001
1000
0100
1000
0001
,
0010
0000
0001
0000
0100
0000
0010
0000
1000
0000
0010
0100
0001
1000
0100
0010
,
0001
0100
0010
1000
0001
0100
0001
0010
,
0001
1000
0100
0010
0001
1000
0010
0100
,
0001
0010
0001
1000
0100
1000
0010
0100
,
0001
0000
0010
0000
0100
0010
0001
1000
0010
0100
0001
1000
0100
1000
0001
0100
,
0010
1000
0001
1000
0100
0010
0100
1000
0001
0100
0001
1000
0100
1000
0010
0100
,
0001
1000
0001
0010
0100
1000
0001
1000
0010
0100
0001
1000
0100
1000
0001
0010
,
0100
1000
0001
1000
0010
0100
0010
1000
0001
0010
0001
1000
0001
1000
0100
0010
,
0001
1000
0001
0100
0010
1000
0001
1000
0100
0010
0001
1000
0010
1000
0001
0010
,
0100
1000
0001
1000
0010
0100
0001
1000
0100
0010
0001
0100
0010
1000
0001
0010
,
0001
1000
0100
1000
0001
0100
0010
1000
0001
1000
0100
1000
0001
0010
0100
1000
,
0001
0100
0001
1000
0010
0100
0010
1000
0001
0010
0001
1000
0010
1000
0100
0010
,
0001
1000
0001
0100
0010
1000
0001
1000
0100
0010
0001
1000
0010
1000
0001
0100
,
0010
1000
0001
1000
0100
0010
0100
1000
0001
0100
0001
1000
0001
1000
0010
0100
,
0001
1000
0001
0010
0100
1000
0001
1000
0010
0100
0001
1000
0100
1000
0001
0100
,
0010
1000
0001
1000
0100
0010
0001
1000
0010
0100
0001
0010
0100
1000
0001
0100
,
0010
1000
0001
0010
0100
0010
0001
1000
0001
0100
0010
1000
0001
1000
0100
0010
,
0002
0000
1003
0000
0000
1010
0000
0010
,
0100
0000
0100
0000
0001
1000
0001
0010
0100
0000
1000
0000
1001
0000
0001
0000
,
0000
0000
0101
0000
0000
0000
0100
0000
0010
1000
0001
1000
0100
0000
0010
0000
,
0012
0000
1003
0000
0000
0101
0000
0100
,
0010
0000
0010
0000
1000
0001
1000
0100
0010
0000
0001
0000
1001
0000
1000
0000
,
0000
0000
0000
1010
0000
0000
0000
0000
0000
0010
0000
0000
0100
0000
0001
0000
1000
0000
0100
0000
1000
0000
0001
0000
,
0100
0010
1000
0001
1000
0100
0010
0001
1000
0001
0100
0010
0100
0001
1000
0001
,
0010
0100
1000
0001
1000
0100
1000
0010
0100
0001
1000
0001
0010
0001
1000
0010
,
0100
0001
1000
0100
0010
0100
1000
0001
1000
0010
0100
0001
1000
0001
0010
0100
,
2000
0000
3100
0000
0000
0110
0000
0010
,
0001
0000
1000
0000
0001
0000
0100
0010
1000
0000
0001
0010
0001
0000
1000
0100
,
1000
0000
0010
0100
0001
0000
1000
0000
0001
0000
1000
0000
0010
0000
0100
0000
,
0010
1000
0100
1000
0001
0000
0010
0001
0100
0001
1000
0000
0100
1000
0010
1000
,
0001
0100
0001
0010
0001
0000
1000
0001
0010
0001
0100
0000
0010
1000
0001
1000
,
0100
0010
0001
1000
0001
0100
0001
0010
,
0001
1000
0100
1000
0010
1000
0001
0100
,
0010
1000
0001
0010
0100
0010
0001
0100
,
0010
1000
0001
1000
0100
1000
0001
0010
,
0001
0100
0001
1000
0100
1000
0010
1000
,
0001
0100
0001
0010
0100
1000
0010
0100
,
0001
1000
0001
0100
0001
1000
0100
1000
,
1001
0000
0001
0000
0100
0000
0010
0000
0110
0000
0100
0000
0010
1000
0001
1000
,
0001
0010
0001
0100
0001
0000
0000
0000
1000
0010
1000
0010
1000
0100
1000
0001
,
0100
0001
0100
0001
0010
0000
0000
0000
0100
1000
0100
1000
0010
1000
0001
0010
,
0001
0010
0001
0100
0001
0000
0000
0000
1000
0100
1000
0100
1000
0010
1000
0001
,
0010
0000
0001
1000
0001
1000
0010
1000
0100
1000
0001
0010
0001
0100
0001
1000
,
0100
1000
0010
1000
0001
0000
0000
0000
0100
0001
0010
0001
1000
0000
0010
0000
,
1000
0100
1000
0001
0100
0000
0000
0000
0010
1000
0100
1000
0001
0000
0010
0000
,
0001
0100
0001
1000
0010
1000
0100
1000
0001
1000
0001
0100
0010
0100
0001
1000
,
0200
0000
0000
0300
0010
0100
1000
0001
0100
0001
0010
0001
1000
0010
1000
0100
,
1000
0001
1000
0010
0100
0001
1000
0100
0010
0100
1000
0001
1000
0010
1000
0001
,
0100
0001
0010
0001
1000
0010
1000
0001
0100
0001
0010
0001
1000
0100
1000
0001
,
0010
0001
0100
0010
1000
0001
1000
0100
0010
0001
1000
0010
0100
0001
0010
0001
,
1000
0100
1000
0010
1000
0001
0010
0001
0100
0010
1000
0001
1000
0100
0010
0001
,
1000
0010
1000
0100
1000
0001
0010
0100
0010
0001
1000
0010
1000
0001
0010
0100
,
1000
0010
1000
0001
0100
0001
1000
0100
1000
0001
0100
0010
1000
0100
0010
0100
,
1000
0010
0100
0001
0010
0100
0010
0100
1000
0010
1000
0001
1000
0001
0010
0100
,
0010
0001
1000
0010
0100
0001
1000
0010
1000
0100
1000
0001
0010
0001
0100
0010
,
1000
0000
0001
0000
1000
0000
0100
0000
0020
0000
0000
0000
0000
0000
0000
0030
0001
0000
0100
0000
0010
0000
1000
0000
0001
0000
0010
0000
0001
0000
1000
0000
,
0100
1000
0010
1000
0001
0010
0001
1000
0100
1000
0010
1000
0001
0100
0001
1000
,
0010
1000
0100
0010
0001
1000
0001
0100
0010
1000
0001
0010
0100
1000
0010
1000
,
0001
0100
0001
0010
0001
1000
0010
1000
0100
0010
0001
1000
0001
0100
0010
1000
,
0001
0010
0001
0100
0001
1000
0010
0100
0010
1000
0001
0010
0001
1000
0010
0100
,
0001
0010
0001
1000
0100
1000
0001
0100
0001
1000
0100
0010
0001
0100
0010
0100
,
0001
0010
0100
1000
0010
0100
0010
0100
0001
0010
0001
1000
0001
1000
0010
0100
,
0010
1000
0001
0010
0100
1000
0001
0010
0001
0100
0001
1000
0010
1000
0100
0010
,
0001
1000
0001
0100
0010
0000
0000
0000
1010
0000
0001
0000
0000
0000
0011
0000
,
1000
0000
1100
0001
0000
0101
1000
0010
,
1010
0000
0001
0000
1001
0100
0000
1001
,
0010
0000
0110
1000
0000
0001
0110
1000
,
0002
0000
1003
0010
1000
0001
0100
0001
,
0010
0000
0100
0000
0010
0001
0100
0001
1000
0100
1000
0010
1000
0001
0100
0001
,
0010
0000
0100
0000
1000
0001
1000
0100
0010
0100
1000
0001
1000
0010
1000
0001
,
0010
0001
0100
0001
1000
0000
0010
0000
0100
0000
0001
0000
1000
0100
1000
0010
,
1000
0001
0100
0001
0010
0000
0100
0000
1000
0000
0001
0100
0010
0000
1000
0000
,
0001
0010
0100
1000
0010
0100
0001
0010
,
0001
1000
0010
0100
0001
1000
0100
0010
,
0100
1000
0010
0100
0001
1000
0001
0010
,
0001
0000
0100
0000
0010
0000
1000
0000
0001
0000
0010
0100
1000
0000
0010
0000
,
0100
0001
1000
0100
1000
0100
0010
0001
,
1000
0001
0100
0010
1000
0001
0010
0100
,
0010
0001
0100
0010
1000
0001
1000
0100
,
0010
0100
1000
0010
1000
0001
0100
0001
,
0010
0001
1000
0010
0100
0010
1000
0001
,
0010
0100
2000
0000
0000
0000
0000
0000
,
0000
0000
0000
0000
,
0000
0000
0000
0000
,
0000
3000
0000
0000
;

//---------------dance-single - Zaia - 12(low-mid)----------------
#NOTES:
     dance-single:
     Zaia - 12(low-mid):
     Hard:
     12:
     0.985,1.000,0.137,0.072,0.820,930.000,19.000,10.000,0.000,0.000:
0000
0000
0000
0000
,
0000
0000
0000
0000
,
0001
0100
0001
0010
0001
1000
0010
1000
,
0100
1000
0001
0100
0010
0100
0001
1000
,
0100
0010
0100
1000
0010
0100
0001
1000
,
0001
0010
0100
1000
0010
0100
0001
0010
,
0001
1000
0100
1000
0001
0100
0001
0010
,
0100
1000
0001
0100
0001
1000
0100
0010
,
0001
0100
0001
0010
0001
1000
0100
1000
,
0010
0000
1000
0000
0001
0000
0100
0000
0010
0000
0100
0001
1000
0001
0010
0100
,
1000
0010
1000
0100
1000
0001
0010
0001
,
0100
0001
1000
0100
0010
0100
1000
0001
,
0100
0010
1000
0001
0010
0100
1000
0010
,
1000
0001
0100
0001
0010
0001
1000
0001
,
0100
0010
1000
0001
1000
0100
1000
0001
,
0010
0000
0001
0000
0100
0000
0010
0000
1000
0000
0010
0100
0001
1000
0100
0010
,
0001
0100
0010
1000
0001
0100
0001
0010
,
0001
1000
0100
0010
0001
1000
0010
0100
,
0001
0010
0001
1000
0100
1000
0010
0100
,
0001
0000
0010
0000
0100
0010
0001
1000
0010
0100
0001
1000
0100
1000
0001
0100
,
0010
1000
0001
1000
0100
0010
0100
1000
0001
0100
0001
1000
0100
1000
0010
0100
,
0001
1000
0001
0010
0100
1000
0001
1000
0010
0100
0001
1000
0100
1000
0001
0010
,
0100
1000
0001
1000
0010
0100
0010
1000
0001
0010
0001
1000
0001
1000
0100
0010
,
0001
1000
0001
0100
0010
1000
0001
1000
0100
0010
0001
1000
0010
1000
0001
0010
,
0100
1000
0001
1000
0010
0100
0001
1000
0100
0010
0001
0100
0010
1000
0001
0010
,
0001
1000
0100
1000
0001
0100
0010
1000
0001
1000
0100
1000
0001
0010
0100
1000
,
0001
0100
0010
0100
0001
0010
0001
1000
,
0100
1000
0010
1000
0001
0010
0100
1000
,
0001
1000
0010
0100
0001
1000
0100
0010
,
0100
1000
0001
0100
0010
0100
0001
1000
,
0010
1000
0001
0010
0001
0100
0001
1000
,
0010
1000
0001
0010
0100
0010
0001
1000
0001
0100
0010
1000
0001
1000
0100
0010
,
0002
0000
1003
0000
0000
1010
0000
0010
,
0100
0000
0100
0000
0001
1000
0001
0010
0100
0000
1000
0000
1001
0000
0001
0000
,
0000
0000
0101
0000
0000
0000
0100
0000
0010
1000
0001
1000
0100
0000
0010
0000
,
0012
0000
1003
0000
0000
0101
0000
0100
,
0010
0000
0010
0000
1000
0001
1000
0100
0010
0000
0001
0000
1001
0000
1000
0000
,
0000
0000
0000
1010
0000
0000
0000
0000
0000
0010
0000
0000
0100
0000
0001
0000
1000
0000
0100
0000
1000
0000
0001
0000
,
0100
0010
1000
0001
1000
0010
0100
0001
,
1000
0000
0100
0000
0010
0001
0100
0010
1000
0000
0001
0000
0010
0000
0001
0000
,
1000
0001
0100
0010
0100
0001
0010
0100
,
2000
0000
3100
0000
0000
0110
0000
0010
,
0001
0000
1000
0000
0001
0000
0100
0010
1000
0000
0001
0010
0001
0000
1000
0100
,
1000
0000
0010
0100
0001
0000
1000
0000
0001
0000
1000
0000
0010
0000
0100
0000
,
0010
1000
0100
1000
0001
0000
0010
0001
0100
0001
1000
0000
0100
1000
0010
1000
,
0001
0100
0001
0010
0001
0000
1000
0001
0010
0001
0100
0000
0010
1000
0001
1000
,
0100
0010
0001
1000
0001
0100
0001
0010
,
0001
1000
0100
1000
0010
1000
0001
0100
,
0010
1000
0001
0010
0100
0010
0001
0100
,
0010
1000
0001
1000
0100
1000
0001
0010
,
0001
0100
0001
1000
0100
1000
0010
1000
,
0001
0100
0001
0010
0100
1000
0010
0100
,
0001
1000
0001
0100
0001
1000
0100
1000
,
1001
0000
0001
0000
0100
0000
0010
0000
0110
0000
0100
0000
0010
1000
0001
1000
,
0001
0010
0001
1000
0001
0000
0000
0000
1000
0010
1000
0010
1000
0100
1000
0001
,
0100
0001
0100
0001
1000
0000
0000
0000
0100
1000
0100
1000
0010
1000
0001
0010
,
0001
0010
0001
1000
0001
0000
0000
0000
1000
0100
1000
0100
1000
0010
1000
0001
,
0010
0000
0001
1000
0001
1000
0010
1000
0100
1000
0001
0010
0001
1000
0001
1000
,
0100
1000
0001
1000
0001
0000
0000
0000
0100
0001
0010
0001
1000
0000
0010
0000
,
1000
0100
1000
0001
0100
0000
0000
0000
0010
1000
0100
1000
0001
0000
0010
0000
,
0001
0100
0001
1000
0010
1000
0100
1000
0001
1000
0001
0100
0010
0100
0001
1000
,
0200
0000
0000
0300
0010
0100
1000
0001
0100
0001
0010
0001
1000
0001
1000
0100
,
1000
0001
1000
0010
0100
0000
0001
0100
0010
0000
1000
0100
1000
0000
0010
0000
,
0000
0100
0001
1000
0001
0000
0010
0100
0010
0100
1000
0000
0001
0100
0010
1000
,
0001
1000
0100
1000
0001
0000
0010
0100
0010
0000
0100
1000
0001
0000
0100
0000
,
0000
0010
1000
0001
0010
0000
0100
1000
0100
1000
0001
0000
0100
0010
1000
0001
,
1000
0010
0100
0001
1000
0000
0001
0010
0001
0000
0010
0100
0000
1000
0100
0000
,
1000
0001
0100
0010
1000
0000
0001
0010
0000
0001
1000
0010
0100
0001
1000
0001
,
0010
0100
0010
0100
1000
0000
0000
0000
0001
0000
0100
0000
0000
0000
0010
0000
,
1000
0000
0001
0000
0010
0000
0100
0000
0010
0000
0100
0000
1000
0001
1000
0010
,
1000
0001
1000
0100
0020
0000
0000
0000
0130
0000
1000
0010
1000
0000
0100
0000
,
0000
0010
0001
1000
0001
0000
0100
0010
0100
0010
1000
0000
0001
0010
0100
1000
,
0001
1000
0010
1000
0001
0000
0100
0010
0100
0000
0010
1000
0001
0000
0010
0000
,
0000
0100
1000
0001
0100
0000
0010
1000
0010
1000
0001
0000
0010
0100
1000
0001
,
1000
0100
0010
0001
1000
0000
0001
0100
0001
0000
1000
0000
0010
0100
0001
0000
,
1000
0001
0100
0010
1000
0001
0010
0100
1000
0001
1000
0010
0100
0001
1000
0001
,
0010
0100
0010
0100
1000
0000
0000
0000
0001
0000
0010
0000
0000
0000
0100
0000
,
1000
0000
0001
0000
0000
0000
0100
0000
0000
0000
0010
0000
1000
0000
0001
0010
,
0000
0001
1000
0000
0010
0000
0000
0000
0101
0000
1000
0000
0000
0000
1100
0000
,
0001
0000
0011
1000
0000
1010
0001
0100
,
0101
0000
1000
0000
1001
0010
0000
1001
,
0100
0000
0110
0001
0000
1000
0110
0001
,
2000
0000
3001
0100
0001
1000
0010
1000
,
0100
0000
0010
0000
0100
1000
0010
1000
0001
0010
0001
0100
0001
1000
0010
1000
,
0100
0010
0002
0000
0000
0023
0000
0000
,
0230
0000
0000
0000
1300
0000
0010
0000
0100
0000
0001
0000
1000
0100
1000
0010
,
1000
0001
0100
0001
1000
0000
0100
0000
1000
0000
0001
0100
0010
0000
1000
0000
,
0001
0010
0100
1000
0010
0100
0001
0010
,
0001
1000
0010
0100
0001
1000
0100
0010
,
0100
1000
0010
0100
0001
1000
0001
0010
,
0001
0000
0100
0000
0010
0000
1000
0000
0001
0000
0010
0100
1000
0000
0010
0000
,
0100
0001
1000
0100
1000
0100
0010
0001
,
1000
0001
0100
0010
1000
0001
0010
0100
,
0010
0001
0100
0010
1000
0001
1000
0100
,
0010
0100
1000
0010
1000
0001
0100
0001
,
0010
0001
1000
0010
0100
0010
1000
0001
,
0010
0100
2000
0000
0000
0000
0000
0000
,
0000
0000
0000
0000
,
0000
0000
0000
0000
,
0000
3000
0000
0000
;

//---------------dance-single - Zaia - 10(high)----------------
#NOTES:
     dance-single:
     Zaia - 10(high):
     Medium:
     10:
     0.833,1.000,0.137,0.072,0.262,782.000,19.000,10.000,0.000,0.000:
0000
0000
0000
0000
,
0000
0000
0000
0000
,
0001
0100
0001
0010
0001
1000
0010
1000
,
0100
1000
0001
0100
0010
0100
0001
1000
,
0100
0010
0100
1000
0010
0100
0001
1000
,
0001
0010
0100
1000
0010
0100
0001
0010
,
0001
1000
0100
1000
0001
0100
0001
0010
,
0100
1000
0001
0100
0001
1000
0100
0010
,
0001
0100
0001
0010
0001
1000
0100
1000
,
0010
0000
1000
0000
0001
0000
0100
0000
0010
0000
0100
0001
1000
0001
0010
0100
,
1000
0010
1000
0100
1000
0001
0010
0001
,
0100
0001
1000
0100
0010
0100
1000
0001
,
0100
0010
1000
0001
0010
0100
1000
0010
,
1000
0001
0100
0001
0010
0001
1000
0001
,
0100
0010
1000
0001
1000
0100
1000
0001
,
0010
0000
0001
0000
0100
0000
0010
0000
1000
0000
0010
0100
0001
1000
0100
0010
,
0001
0100
0010
1000
0001
0100
0001
0010
,
0001
1000
0100
0010
0001
1000
0010
0100
,
0001
0010
0001
1000
0100
1000
0010
0100
,
0001
0010
0100
1000
0001
0100
0010
0100
,
0001
1000
0100
0010
0001
0100
0001
1000
,
0010
1000
0100
1000
0001
0100
0010
1000
,
0001
1000
0100
0010
0001
1000
0010
0100
,
0010
1000
0001
0010
0100
0010
0001
1000
,
0100
1000
0001
0100
0001
0010
0001
1000
,
0010
0100
0001
0010
0001
1000
0100
1000
,
0001
0100
0010
0100
0001
0010
0001
1000
,
0100
1000
0010
1000
0001
0010
0100
1000
,
0001
1000
0010
0100
0001
1000
0100
0010
,
0100
1000
0001
0100
0010
0100
0001
1000
,
0010
1000
0001
0010
0001
0100
0001
1000
,
0010
0100
0010
1000
0001
0010
0100
1000
,
0002
0000
1003
0000
0000
1010
0000
0010
,
0100
0000
0100
0000
0001
1000
0001
0010
0100
0000
1000
0000
1001
0000
0001
0000
,
0000
0000
0101
0000
0000
0000
0100
0000
0010
1000
0001
1000
0100
0000
0010
0000
,
0012
0000
1003
0000
0000
0101
0000
0100
,
0010
0000
0010
0000
1000
0001
1000
0100
0010
0000
0001
0000
1001
0000
1000
0000
,
0000
0000
0000
1010
0000
0000
0000
0000
0000
0010
0000
0000
0100
0000
0001
0000
1000
0000
0100
0000
1000
0000
0001
0000
,
0100
0010
1000
0001
1000
0010
0100
0001
,
1000
0000
0100
0000
0010
0001
0010
0100
1000
0000
0001
0000
0010
0000
0001
0000
,
1000
0001
0100
0010
0100
0001
0010
0100
,
2000
0000
3100
0000
0000
0110
0000
0010
,
0001
0000
1000
0000
0001
0000
0100
0010
1000
0000
0001
0010
0001
0000
1000
0100
,
1000
0000
0010
0100
0001
0000
1000
0000
0001
0000
1000
0000
0010
0000
0100
0000
,
0010
1000
0001
1000
0001
0000
0010
0001
1000
0001
1000
0000
0100
1000
0010
1000
,
0001
1000
0001
1000
0001
0000
1000
0001
0010
0001
1000
0000
0010
1000
0001
1000
,
0001
0010
0001
1000
0001
0100
0001
0010
,
0001
1000
0100
1000
0010
1000
0001
0100
,
0010
1000
0001
0010
0100
0010
0001
0100
,
0010
1000
0001
1000
0100
1000
0001
0010
,
0001
0100
0001
1000
0100
1000
0010
1000
,
0001
0100
0001
0010
0100
1000
0010
0100
,
0001
1000
0001
0100
0001
1000
0100
1000
,
1001
0000
0001
0000
0100
0000
0010
0000
0110
0000
0100
0000
0010
1000
0001
1000
,
0001
0010
0001
0000
1000
0000
0000
0000
0001
0100
0001
0000
1000
0100
1000
0000
,
0001
0010
0001
0000
0100
0000
0000
0000
0010
1000
0010
0000
1000
0001
1000
0000
,
0100
0010
0100
0000
1000
0000
0000
0000
0001
0010
0001
0000
1000
0010
1000
0000
,
0100
0000
1000
0001
1000
0000
0100
0000
0010
0001
0010
0001
1000
0001
0100
0001
,
1000
0010
1000
0000
0001
0000
0000
0000
0010
0001
1000
0000
0010
0000
0100
0000
,
0001
1000
0010
0000
0100
0000
0000
0000
0010
1000
0001
0000
0010
0000
0100
0000
,
1000
0001
1000
0001
0010
0000
0100
1000
0001
1000
0001
0000
0100
0010
1000
0001
,
0200
0000
0000
0300
0010
0000
0100
0000
0001
0000
0100
0000
0010
0000
1000
0000
,
0001
0010
0001
0100
0010
1000
0100
1000
,
0010
0100
0001
1000
0100
0010
0100
1000
,
0010
0100
0001
0010
0001
0100
0010
1000
,
0100
0010
0001
1000
0001
0100
0010
0100
,
0001
1000
0100
0010
0001
1000
0010
0100
,
0001
0010
0001
0100
0010
1000
0100
0010
,
0001
1000
0001
0000
1000
0010
0000
0100
,
0001
0000
1000
0000
0100
0000
0010
0000
0100
0000
0010
0000
0001
1000
0001
0100
,
0001
1000
0001
1000
0200
0000
0000
0000
1300
0000
0010
0000
0100
0000
0001
0000
,
0010
0001
0100
0010
1000
0001
0010
0100
,
0010
0001
0100
0010
1000
0100
1000
0010
,
0100
0001
0010
0100
1000
0001
1000
0010
,
0100
0010
1000
0001
0010
0100
1000
0001
,
0100
0010
1000
0100
1000
0010
0100
0001
,
0010
0100
1000
0001
1000
0100
0000
0010
,
0001
0000
1000
0000
0000
0000
0010
0000
0000
0000
0100
0000
0001
0000
1000
0100
,
0000
1000
0001
0000
0100
0000
0000
0000
1010
0000
0001
0000
0000
0000
0011
0000
,
1000
0000
1100
0001
0000
0101
1000
0010
,
1010
0000
0001
0000
1001
0100
0000
1001
,
0010
0000
0110
1000
0000
0001
0110
1000
,
0002
0000
1003
0010
1000
0001
0100
0001
,
0010
0000
0100
0000
0010
0001
1000
0001
1000
0001
1000
0001
1000
0001
0100
0000
,
0010
0100
0002
0000
0000
0023
0000
0000
,
0230
0000
1300
0010
0100
0001
1000
0100
,
0010
0000
0001
0000
1000
0000
0100
0000
1000
0000
0001
0100
0010
0000
1000
0000
,
0001
0010
0100
1000
0010
0100
0001
0010
,
0001
1000
0010
0100
0001
1000
0100
0010
,
0100
1000
0010
0100
0001
1000
0001
0010
,
0001
0000
0100
0000
0010
0000
1000
0000
0001
0000
0010
0100
1000
0000
0010
0000
,
0100
0001
1000
0100
1000
0100
0010
0001
,
1000
0001
0100
0010
1000
0001
0010
0100
,
0010
0001
0100
0010
1000
0001
1000
0100
,
0010
0100
1000
0010
1000
0001
0100
0001
,
0010
0001
1000
0010
0100
0010
1000
0001
,
0010
0100
2000
0000
0000
0000
0000
0000
,
0000
0000
0000
0000
,
0000
0000
0000
0000
,
0000
3000
0000
0000
;
