#TITLE:Vertex;
#SUBTITLE:;
#ARTIST:ASK;
#TITLETRANSLIT:;
#SUBTITLETRANSLIT:;
#ARTISTTRANSLIT:;
#CREDIT:;
#BANNER:vertex.png;
#BACKGROUND:vertex-bg.png;
#LYRICSPATH:;
#CDTITLE:;
#MUSIC:vertex.mp3;
#OFFSET:-6.637;
#SAMPLESTART:65.810;
#SAMPLELENGTH:12.000;
#SELECTABLE:YES;
#BPMS:0.000=145.990;
#STOPS:;
#BGCHANGES:;
// cache tags:
#FIRSTBEAT:0.000;
#LASTBEAT:211.500;
#SONGFILENAME:Songs/dragon force/vertex/vertex.sm;
#HASMUSIC:1;
#HASBANNER:1;
#MUSICLENGTH:96.914;
// end cache tags

//---------------dance-single - ----------------
#NOTES:
     dance-single:
     :
     Easy:
     4:
     0.339,0.376,0.268,0.237,0.000,181.000,26.000,23.000,0.000,0.000:  // measure 1
1000
0010
0110
0110
,  // measure 2
0001
1000
0100
1100
,  // measure 3
0010
0001
0101
0101
,  // measure 4
0020
0000
0000
0030
,  // measure 5
1000
0001
1000
0010
,  // measure 6
0100
0001
0100
0110
,  // measure 7
1000
0100
1000
0010
,  // measure 8
0100
0001
1000
1001
,  // measure 9
0100
0010
1000
1000
,  // measure 10
0001
0010
0100
0101
,  // measure 11
0100
1000
0010
0010
,  // measure 12
0200
0000
0000
0300
,  // measure 13
0002
0000
2003
0000
,  // measure 14
3010
0100
0001
0100
,  // measure 15
0020
0000
2030
0000
,  // measure 16
3100
0010
0001
0100
,  // measure 17
0020
0000
0230
0000
,  // measure 18
0301
1000
0100
1000
,  // measure 19
0002
0000
0203
0000
,  // measure 20
0310
0010
0010
0010
,  // measure 21
1000
0100
1000
1000
,  // measure 22
0001
0100
0001
0101
,  // measure 23
1000
0100
1000
0010
,  // measure 24
0100
0010
0100
0101
,  // measure 25
0010
0010
0100
0100
,  // measure 26
1000
0001
0100
0001
,  // measure 27
1000
1000
0001
0001
,  // measure 28
0200
0000
0000
0300
,  // measure 29
0001
1000
0001
1010
,  // measure 30
0010
0010
0100
0110
,  // measure 31
0002
0000
2003
0000
,  // measure 32
3020
0000
0130
1001
,  // measure 33
0100
0010
1000
1100
,  // measure 34
0010
0001
1000
0101
,  // measure 35
0200
0000
0320
0000
,  // measure 36
2030
0000
0001
3001
,  // measure 37
0100
0010
0100
0001
,  // measure 38
1000
0100
0110
0110
,  // measure 39
0001
0010
1000
0100
,  // measure 40
1000
0010
0110
0110
,  // measure 41
1000
0001
0100
0010
,  // measure 42
1000
0100
1001
1001
,  // measure 43
0100
0010
1000
0100
,  // measure 44
0020
0000
0000
0031
,  // measure 45
0001
0100
0010
1000
,  // measure 46
0001
0100
0010
1010
,  // measure 47
1000
0100
0010
0001
,  // measure 48
0010
0100
1000
0110
,  // measure 49
0100
0001
0100
0010
,  // measure 50
1000
0100
1000
0010
,  // measure 51
0200
0302
2003
3000
,  // measure 52
0220
0000
0330
1001
,  // measure 53
0110
0000
0000
0000
;

//---------------dance-single - ----------------
#NOTES:
     dance-single:
     :
     Medium:
     7:
     0.506,0.435,0.155,0.382,0.015,291.000,15.000,37.000,0.000,0.000:  // measure 1
1000
0001
1000
0000
0010
0100
0010
0000
,  // measure 2
1000
0100
1000
0000
0101
0000
0101
0000
,  // measure 3
0010
1000
0010
0000
0100
0001
0100
0000
,  // measure 4
0001
0000
0000
0001
0000
0000
0001
0000
0000
0000
1000
0000
0100
0000
0100
0000
,  // measure 5
0020
0000
0031
0000
1000
0100
1000
0010
,  // measure 6
0200
0000
0301
0000
0010
0100
1000
0001
,  // measure 7
0200
0000
0310
0000
1000
0001
0100
0010
,  // measure 8
2000
0000
0100
0000
0010
0010
3010
0000
,  // measure 9
0002
0000
0103
0000
0010
1000
0100
1000
,  // measure 10
0020
0000
0130
0000
0001
0010
0100
1000
,  // measure 11
0002
0000
0013
0000
0100
1000
0010
0100
,  // measure 12
0001
0000
0000
0001
0000
0000
0001
0000
0000
0000
1000
0000
0100
0000
0100
0000
,  // measure 13
0020
0000
1000
0000
0001
0000
1030
0001
,  // measure 14
0200
0000
1000
0000
0001
0000
1300
0010
,  // measure 15
0200
0000
1000
0000
0001
0000
1300
0001
,  // measure 16
0020
0000
1000
0000
0001
0000
1030
0100
,  // measure 17
0001
0000
0101
0000
0100
1000
0100
0000
,  // measure 18
0020
0001
0100
0031
,  // measure 19
1000
0000
1010
0000
0100
0010
0100
0000
,  // measure 20
0001
1000
0001
1000
0001
0001
0100
0000
,  // measure 21
1020
0000
1030
1000
0001
0100
0010
0000
,  // measure 22
1000
0100
0010
0000
1000
0100
0010
0000
,  // measure 23
0201
0000
0301
0001
0010
0100
1000
0000
,  // measure 24
0010
0100
0001
0000
0010
0100
0001
0000
,  // measure 25
1000
0000
0100
0000
0010
0000
0001
0100
,  // measure 26
0010
0000
1000
0000
0001
0000
0100
0010
,  // measure 27
0001
0000
0010
0000
1000
0001
0100
0000
,  // measure 28
0020
2030
3020
0230
,  // measure 29
0301
0000
0101
0000
1000
0010
0100
0001
,  // measure 30
0020
0000
0130
0000
1000
0010
1000
0000
,  // measure 31
0001
0100
0001
0000
0001
0100
0001
0000
,  // measure 32
1000
0010
0100
0001
0010
0000
0110
0000
,  // measure 33
2000
0000
3010
0000
0100
0001
1000
0100
,  // measure 34
0020
0000
0031
0000
1000
0010
1000
0000
,  // measure 35
0100
0010
0100
0000
0100
0010
0100
0000
,  // measure 36
2000
3002
2003
3020
,  // measure 37
0130
0000
0101
0000
0010
1000
0010
1000
,  // measure 38
0100
0000
0110
0000
0010
0001
0100
0000
,  // measure 39
0010
0000
1001
0000
1000
0100
1000
0010
,  // measure 40
0100
0000
1001
0000
0010
0100
0100
0000
,  // measure 41
0002
0000
2003
0000
3010
0100
0001
0100
,  // measure 42
0020
0000
2030
0000
3100
0010
0001
0000
,  // measure 43
0200
0000
0320
0000
1030
0001
0100
0010
,  // measure 44
2000
0001
0100
3100
,  // measure 45
0010
0001
0010
0001
1000
0001
0001
0000
,  // measure 46
0100
0010
0100
0010
1000
0100
0100
0000
,  // measure 47
0020
0000
0001
0000
0100
0100
0130
0000
,  // measure 48
2000
0000
3010
0000
0100
0001
0100
0000
,  // measure 49
0010
1000
0010
1000
0001
0010
0010
0000
,  // measure 50
0100
1000
0100
1000
0001
0100
0100
0000
,  // measure 51
0020
0000
0100
0000
1000
1000
1030
0000
,  // measure 52
1001
0000
0000
1001
0000
0000
1001
0000
0000
0000
0100
0000
0010
0000
0200
0000
,  // measure 53
0002
0300
0000
0003
;

//---------------dance-single - ----------------
#NOTES:
     dance-single:
     :
     Hard:
     9:
     0.607,0.518,0.175,0.041,0.341,391.000,17.000,4.000,0.000,0.000:  // measure 1
1000
0000
0000
1000
0000
0000
1000
0000
0001
0000
1000
0000
0010
0000
0100
0000
,  // measure 2
0001
0000
0000
0001
0000
0000
0001
0000
1000
0000
0010
0000
1010
0000
0000
0000
,  // measure 3
0100
0000
0001
0100
0000
0001
0100
0000
0010
0000
0100
0000
0001
0000
1000
0000
,  // measure 4
1001
0000
0000
1001
0000
0000
1001
0000
0000
0000
0010
0000
1000
0000
0100
0000
,  // measure 5
1000
0000
0010
1000
0000
0010
1000
0000
0001
0000
1000
0000
0010
0000
0100
0000
,  // measure 6
0001
0000
0100
0001
0000
0100
0001
0000
1000
0000
0010
0000
0100
0000
0000
0000
,  // measure 7
0100
0000
1000
0100
0000
1000
0100
0000
0010
0000
0100
0000
0001
0000
1000
0000
,  // measure 8
0100
0000
0001
0100
0000
0001
0100
0000
1000
0000
0010
0000
1100
0000
0000
0000
,  // measure 9
0001
0000
0010
0001
0000
0010
0001
0000
1000
0000
0010
0000
1000
0000
0100
0000
,  // measure 10
0010
0000
0001
0010
0000
0001
0010
0000
0100
0000
1000
0000
0010
0000
0000
0000
,  // measure 11
0100
0000
0001
0100
0000
0001
0100
0000
1000
0000
0100
0000
0001
0000
0010
0000
,  // measure 12
0110
0000
0000
0110
0000
0000
0110
0000
0000
0000
1000
0000
0001
0000
0100
0000
,  // measure 13
0010
1001
0100
0100
,  // measure 14
0010
0000
1000
0100
1000
0010
1000
0001
,  // measure 15
0100
1001
0010
0010
,  // measure 16
0100
0000
0001
1000
0001
0100
0001
0010
,  // measure 17
0100
0000
0110
0000
0010
0001
0100
0000
,  // measure 18
0010
0000
1000
0100
1000
0100
0010
0001
,  // measure 19
0100
0000
0110
0000
0010
1000
0100
0000
,  // measure 20
1000
0000
0001
0000
0100
0000
0001
1000
0000
0001
1000
0000
0010
0000
0000
0000
,  // measure 21
1000
0100
1000
0100
0010
0001
0001
0000
,  // measure 22
0100
0010
1000
0000
0100
0010
0001
0000
,  // measure 23
0100
0001
0100
0001
1000
0010
0010
0000
,  // measure 24
0100
0001
1000
0000
0100
0010
0001
0000
,  // measure 25
0100
0010
1000
0100
0010
0100
1000
0000
,  // measure 26
0001
0100
0001
0000
0010
1000
0010
0000
,  // measure 27
0100
0001
0100
1000
0010
0100
0001
0000
,  // measure 28
1000
0000
0100
0000
1000
0000
0010
0100
0000
0010
0100
0000
0001
0000
0000
0000
,  // measure 29
1000
0000
0100
0010
0000
0010
0100
0000
1000
0000
0001
0000
0100
0000
0010
0000
,  // measure 30
1000
0000
0100
0010
0000
0010
0100
0000
0001
0000
0100
0000
1000
0000
0000
0000
,  // measure 31
0010
0100
0001
0000
1000
0100
0010
0000
,  // measure 32
0100
0000
1000
0000
0010
0000
0100
0001
0000
1000
0100
0000
0020
0000
0000
0000
,  // measure 33
0031
0000
1000
0100
0000
0100
1000
0000
0010
0000
0100
0000
0001
0000
1000
0000
,  // measure 34
0001
0000
1000
0100
0000
0100
1000
0000
0001
0000
0010
0000
1000
0000
0000
0000
,  // measure 35
0001
0100
0010
0000
0001
1000
0100
0000
,  // measure 36
1000
0000
0010
0000
0100
0000
0001
1000
0000
1000
0000
0010
0100
0000
0100
0000
,  // measure 37
1000
0000
0100
0001
0000
0100
0001
0000
0010
0000
0100
0000
1000
0000
0010
0000
,  // measure 38
0100
0000
0001
0010
0000
0001
0010
0000
0100
0000
1000
0000
0010
0000
0000
0000
,  // measure 39
0100
0000
0001
1000
0000
0001
1000
0000
0010
0000
0100
0000
0001
0000
1000
0000
,  // measure 40
0100
0000
0010
0001
0000
0010
0001
0000
1000
0000
0010
0000
0110
0000
0000
0000
,  // measure 41
0001
0000
1000
0100
0000
1000
0100
0000
0010
0000
0100
0000
1000
0000
0100
0000
,  // measure 42
0010
0000
0001
0100
0000
0001
0100
0000
0010
0000
1000
0000
0001
0000
0000
0000
,  // measure 43
1000
0000
0100
0010
0000
0100
0010
0000
0001
0000
0100
0000
0001
0000
0010
0000
,  // measure 44
0200
0000
0001
0000
0010
0010
0310
0000
,  // measure 45
1000
0000
0001
0100
0000
0001
1000
0000
0010
0000
0100
0000
0001
0000
0001
0000
,  // measure 46
1000
0000
0100
0010
0000
0100
1000
0000
0001
0000
0100
0000
0010
0000
0000
0000
,  // measure 47
0100
0000
0010
1000
0000
0010
0100
0000
0001
0000
1000
0000
0010
0000
0010
0000
,  // measure 48
0100
0000
0001
1000
0000
0001
0010
0000
0100
0000
1000
0000
1010
0000
0000
0000
,  // measure 49
0100
0000
0100
0001
0000
0001
0010
0000
1000
0000
0010
0000
0001
0000
0100
0000
,  // measure 50
1000
0000
1000
0100
0000
0100
0001
0000
0010
0000
0100
0000
1000
0000
0010
0000
,  // measure 51
0001
0000
0001
0010
0000
0010
1000
0000
0001
0000
0100
0000
0010
0000
1000
0000
,  // measure 52
0110
0000
0000
1001
0000
0000
0110
0000
0000
0000
1000
0000
0001
0000
0200
0000
,  // measure 53
2000
0000
0300
0000
0000
0000
0000
3000
;
