#TITLE:You;
#SUBTITLE:(aggresive mix);
#ARTIST:浜崎あゆみ;
#TITLETRANSLIT:;
#SUBTITLETRANSLIT:;
#ARTISTTRANSLIT:Ayumi Hamasaki;
#CREDIT:;
#BANNER:You-banner.png;
#BACKGROUND:You-Bg.png;
#LYRICSPATH:;
#CDTITLE:cdtitle.png;
#MUSIC:Ayumi Hamasaki - Super Eurobeat pres. Ayu-ro mix - 12 - You (Aggressive Mix).mp3;
#OFFSET:-0.140;
#SAMPLESTART:39.453;
#SAMPLELENGTH:12.000;
#SELECTABLE:YES;
#BPMS:0.000=152.080;
#STOPS:;
#BGCHANGES:;
// cache tags:
#FIRSTBEAT:5.000;
#LASTBEAT:733.250;
#SONGFILENAME:Songs/newbie/You(aggresivemix)/you(aggresivemix).sm;
#HASMUSIC:1;
#HASBANNER:1;
#MUSICLENGTH:292.501;
// end cache tags

//---------------dance-single - ----------------
#NOTES:
     dance-single:
     :
     Hard:
     10:
     0.762,1.000,0.643,0.178,0.436,1321.000,188.000,52.000,0.000,0.000:
0000
0000
0000
0000
,
0000
0000
0000
0000
0001
0000
0001
0000
0001
0000
0000
1000
0100
1000
0100
0000
,
1000
0000
0000
0000
0010
0000
0010
0000
0010
0000
0000
1000
0001
1000
0001
0000
,
1000
0000
0000
0000
0100
0000
0100
0000
0100
0000
0000
0010
0001
0010
0001
0000
,
0010
0000
0000
0000
0010
0000
0010
0000
0010
0000
0000
1000
0001
1000
0001
0000
,
1000
0000
0000
0000
0100
0000
0100
0000
0100
0000
0000
1000
0010
1000
0010
0000
,
1000
0000
0000
0000
0001
0000
0001
0000
0001
0000
0000
1000
0100
1000
0100
0000
,
1000
0000
0000
0000
0010
0000
0010
0000
0010
1000
0010
1000
0010
1000
0010
1000
,
0001
1000
0100
1000
0001
0000
0010
0000
0010
0000
1000
0000
0001
0000
0010
0000
,
0011
0000
0100
1000
0001
0001
0100
0010
,
0110
0000
0000
0000
0001
1000
0001
0000
1000
0000
1000
0000
0100
0000
0010
0000
,
0011
0000
0100
0100
1000
0010
0100
0001
,
0011
0000
0100
0100
1000
0001
0100
0010
,
1010
0000
0001
1000
0100
0010
0001
1000
,
1100
0000
0000
0000
0001
1000
0001
1000
0001
1000
0001
1000
0001
1000
0001
1000
,
0001
1000
0001
1000
0001
1000
0001
1000
0001
1000
0001
1000
0001
1000
0001
1000
,
0001
1000
0001
1000
0002
0000
0000
0000
0000
0000
0000
0000
0000
0000
0000
0000
,
0003
0000
1010
1010
1010
1010
0000
1001
,
1001
0000
0000
0000
0100
1000
0100
1000
0100
1000
0001
2000
0000
0000
0000
0000
,
3000
0000
1010
1010
1010
1010
0000
1001
,
1001
1001
0100
0010
0001
1000
0100
0010
,
0001
1000
1100
1100
0001
0100
0010
1000
,
1001
0000
0000
0000
0100
0000
0100
0000
1000
0100
1000
0100
0000
0000
1000
0000
,
0001
0100
0010
1010
0001
0010
0001
1000
,
0100
1001
0010
1001
0100
1001
0010
0100
,
0100
0000
0000
0000
0011
0000
0100
0000
1001
0000
0010
0000
1000
0001
1000
0001
,
1000
0001
1000
0001
1000
0000
0010
0000
0100
0000
0001
0000
0011
0000
0011
0000
,
0000
0000
0100
1000
0100
0000
1000
0000
0001
0000
0200
0000
0000
0000
0000
0000
,
0000
0000
0000
0000
0300
0000
0001
0100
0001
0000
0100
0000
0010
0000
1000
0000
,
0000
0011
0011
0100
1000
0001
0000
0000
,
0001
0000
0010
0000
0100
0000
1000
0001
0000
0000
0000
0000
0010
0000
0100
0001
,
0000
0000
0000
0000
0001
0000
0001
0000
0001
0000
1000
0001
1000
0000
0001
0000
,
0001
0000
0000
0000
0010
0000
0010
0000
0010
0000
1000
0000
0001
0000
0010
0100
,
0000
0000
1001
0000
1001
0000
1100
0000
0100
0000
1000
0000
0100
1000
0100
1000
,
0100
1000
0100
1000
0100
0000
0000
0000
1001
0000
0000
0000
1010
0000
1001
0000
,
0000
1100
1001
0000
0011
0011
0000
0000
,
0000
0000
0010
1000
0010
0000
1000
0000
0100
0000
0010
0000
0011
0000
0000
1100
,
0000
0001
0001
0100
0010
1000
1100
0000
,
0011
0000
0000
0000
0100
0000
1000
0001
0000
0000
0100
0000
0010
0000
1000
0100
,
0000
0000
0000
0000
0001
0000
0001
0000
0010
0000
0100
0010
0001
0000
1000
0000
,
1000
0000
0010
0010
0100
0001
0001
0010
,
0100
0000
1000
0000
0001
1000
0001
0000
1000
0000
0010
0000
0110
0000
0000
0000
,
0000
0000
0000
0000
0010
1000
0010
0000
1000
0000
1100
0000
0000
0000
0011
0000
,
0000
0000
0100
1000
0100
0000
1000
0000
0002
0000
1000
0000
0000
0000
0000
0000
,
1000
0003
0000
0000
0010
0000
1000
0000
0001
0000
0011
0000
0100
0000
1100
0000
,
0001
0000
0001
0000
0010
1000
0001
0000
0100
0000
0000
0000
1100
0000
0000
0000
,
0101
0000
0010
0010
1000
0100
0000
0010
,
0000
0011
0011
0100
1000
1001
0100
1001
,
0010
0000
1000
0000
0010
0000
1000
0010
1000
0000
0001
0000
0001
0000
0010
0000
,
0100
0000
1000
0000
0100
1000
0100
1000
0100
1000
0100
1000
0100
1000
0100
1000
,
0100
1000
0100
1000
0001
0000
1001
0000
1001
0000
1010
0000
0000
0000
1001
0000
,
0000
1001
1001
0100
0001
1000
0000
0000
,
0010
0000
0010
0010
1000
0100
0000
0011
,
0000
1100
1001
0000
1010
0000
0101
0000
,
1100
0000
0001
0001
0010
0100
0000
0100
,
0000
0100
1000
1000
0010
0100
0000
0001
,
0000
0000
0010
0000
0100
0000
1000
0001
0000
0000
1000
0000
0010
0000
0010
0000
,
0100
0000
0001
0000
1000
0001
1000
0001
1000
0001
1000
0001
1000
0001
1000
0001
,
1000
0000
1100
1100
0001
0010
0000
1100
,
1001
0000
0000
0000
0010
1000
0010
1000
0100
0010
0001
0100
0000
0000
0000
0000
,
0000
0000
1001
1001
1100
1001
0000
0010
,
0010
1000
0001
0010
0100
0100
1000
0010
,
0100
0001
0010
0010
0001
1000
0000
0100
,
1000
0000
0000
0000
0001
0000
0100
0000
0001
0100
0001
0100
0000
0000
0000
0000
,
0000
0000
1010
1010
0001
0010
0000
1100
,
0000
0001
0100
0010
1000
0100
0100
0010
,
0001
0000
1000
0000
0100
1000
0100
1000
0100
1000
0100
1000
0100
1000
0001
1000
,
0010
1000
0100
0010
0001
0000
0010
0000
0011
0000
0011
0000
0011
0000
1100
0000
,
0000
0000
0001
1000
0001
0000
1000
0000
0010
0000
1010
0000
0000
0000
0000
0000
,
0000
0000
0000
0000
0000
0000
0001
1000
0001
0000
1001
0000
1100
0000
1001
0000
,
0000
0010
0010
0100
0001
0011
0000
0000
,
0100
1000
0100
0000
1000
0000
1000
0010
0000
0000
0000
0000
0001
0000
0001
0010
,
0000
0000
0000
0000
0010
0000
0010
0000
0010
0000
1000
0000
0001
0000
0010
0100
,
0000
0000
0000
0000
1001
0000
1001
0000
0100
0000
0010
0000
0001
0000
1000
0010
,
0000
0000
1010
0000
0001
0000
0100
0000
1001
0000
0100
0000
1000
0001
1000
0001
,
1000
0100
0010
0001
0110
0000
1001
0010
,
0000
1001
1100
0000
0011
0011
0000
0000
,
0000
0000
0010
1000
0020
0000
1000
0000
1000
0000
1030
0000
0001
0000
0000
0001
,
0000
0002
0100
0000
0103
0110
2100
0000
,
3002
0000
0000
0000
0013
0000
0100
1000
0000
0000
0001
0000
0010
0000
0100
1000
,
0000
0000
0000
0000
1010
0000
1010
0001
0000
0000
0100
0000
0010
0000
1000
0001
,
0000
0000
0000
0000
0011
0000
0100
1000
0000
0000
0001
0000
1001
0000
0100
0000
,
1001
0000
1010
1000
1001
1010
1100
0000
,
0000
0000
1001
1001
1100
1001
0000
1010
,
0000
0000
0001
0010
0001
0000
0010
0000
0100
0000
2000
0000
0000
0000
0000
3000
,
0000
0000
0010
0001
0010
0100
0000
1001
,
0000
1010
0001
0000
1100
0000
1001
0000
,
1010
0000
0001
0001
0010
0100
0000
1001
,
0000
0000
0200
0000
1000
0000
1000
0300
0000
0000
0010
0000
0000
0000
0010
0000
,
0000
0000
0000
0001
0001
1000
0100
0010
,
0001
0000
1000
0000
0100
1000
0100
1000
0001
1000
0010
1000
0100
0010
0001
0100
,
0010
1000
0100
0010
0001
0000
0011
0000
0011
0000
1001
0000
0000
0000
1010
0000
,
0000
0001
0001
0010
0100
0011
0000
0000
,
0000
0000
0000
0000
0001
1000
0001
0000
1000
0000
1010
0000
0000
0000
1001
0000
,
0000
0001
0011
0000
0101
0000
0002
0000
,
0010
0000
0100
0103
0010
1000
0000
0001
,
0000
0001
0001
0010
0000
0200
0000
1300
,
0000
0000
0010
0000
1000
0000
0001
0010
0000
0000
0100
0000
0100
0000
1000
0000
,
0001
0000
0100
0000
0001
0010
0001
0010
0001
0010
0001
0010
0001
0010
0001
0010
,
0001
0000
0011
0011
0100
1001
0000
0010
,
1000
0000
0010
0000
1000
0001
0010
0100
1000
0001
1000
0010
0000
0000
0000
0000
,
0000
0000
0011
0011
0100
0100
0000
0001
,
0001
0010
0001
1000
0010
0100
0001
0010
,
0100
0100
1000
0001
0010
0011
0000
0100
,
1001
0000
0000
0000
0001
1000
0001
1000
0010
0100
0001
0010
0000
0000
0000
0000
,
0000
0000
1010
0001
0010
0100
0000
1001
,
0000
0100
0000
0010
0010
0010
0010
0010
,
0010
0000
0000
0000
0001
1000
0001
1000
0001
1000
0001
1000
0001
1000
0001
1000
,
0001
1000
0001
1000
0001
0000
0100
0000
0010
0000
0000
0000
1000
0000
0000
0000
,
0000
0002
0000
0023
,
0000
0000
0200
0030
0000
0000
2300
0000
,
0000
0000
0000
0000
0020
0000
0000
3000
0000
0000
0000
0000
0230
0000
0000
0000
,
0000
0000
0000
0300
0001
0000
0010
0200
0000
0000
0000
0000
1300
0000
0010
0200
,
0000
0000
0000
0000
0301
0000
0010
0200
0000
0000
0000
0300
1000
0000
0010
2000
,
0000
0000
0000
0000
3001
0000
0010
0002
0000
0000
0000
0000
1003
0000
0100
2000
,
0000
0000
0000
0000
3002
0000
0000
0003
0100
0000
0000
0000
0010
0000
1000
0000
,
0001
0000
0000
0000
0010
0001
0010
0001
0000
0000
1000
0000
0100
0000
1000
0000
,
0001
0000
1000
0000
0100
1000
0100
1000
0100
1000
0001
1000
0010
1000
0100
0010
,
0001
0100
0010
1000
0100
0010
0001
0100
0010
1000
0100
0010
0001
0010
0100
1000
,
0001
0010
0100
1000
0001
1000
0010
1000
0001
1000
0010
0000
0101
0000
1100
0000
,
1100
0000
0000
0000
0010
0000
0001
0100
0000
0000
0000
0000
0010
0000
1000
0100
,
0010
0000
0000
0000
0001
0000
1000
0010
0000
0000
0000
0000
0001
0000
0100
0010
,
0000
0000
0000
0000
0001
0000
1000
0100
0000
0000
0000
0000
0001
0000
0010
0100
,
0000
0000
1001
0100
1000
0001
2000
0000
,
3000
0000
0000
0000
1010
0000
1010
0000
0002
0000
0010
0003
0000
0000
0100
0000
,
1000
0000
0000
0000
0001
1000
0100
1000
0001
1000
0010
0100
0000
0000
0000
0000
,
0000
0000
0000
0000
0001
0000
0002
0000
0010
0000
0010
0003
0000
0000
0100
0000
,
0100
0200
0000
0000
1000
0000
1000
0000
,
1000
0300
0000
0000
0010
0000
1000
0000
0001
0000
0010
0000
0000
0000
0001
1000
,
0000
0000
0000
0000
1000
0000
1000
0100
0010
0001
0100
0010
0000
0000
0000
0000
,
0000
0000
0001
0001
1000
1010
0000
1001
,
0000
0000
1010
0000
0002
0000
0010
0003
0110
0000
0000
0000
1000
0000
1000
0000
,
1000
0000
0000
0000
0001
1000
0001
1000
0001
1000
0001
1000
0001
1000
0001
1000
,
0001
1000
0001
1000
0010
0000
0100
0000
0001
0000
0011
0000
0100
0000
1001
0000
,
0000
0000
0010
1000
0020
0000
1000
0000
1000
0000
1000
0030
0000
0000
0000
0000
,
0000
0000
0000
0000
0000
0000
0001
1000
0001
0000
1000
0000
0100
0000
0010
0000
,
0000
0000
0001
0010
0100
0000
1000
0000
0020
0000
1000
0000
0030
0000
0000
0000
,
0001
0000
1000
0000
0100
0000
1000
0001
0000
0000
0000
0000
0010
0000
0100
1000
,
0000
0000
0000
0000
0010
0000
0010
0000
0010
0000
1000
0000
0001
0000
1000
0100
,
0000
0000
0000
0000
0001
0000
0001
0000
1000
0000
1000
0000
0010
0000
0100
0001
,
0000
0010
0010
0100
1000
0002
0000
0000
,
0000
0000
0000
0000
0003
0000
0000
0000
1001
0000
0000
0000
0000
0100
1000
0000
,
0000
0000
1001
0000
1020
0000
0000
0000
0100
0000
0100
0030
0000
0000
0000
0000
,
0000
0000
0001
0010
0002
0000
0010
0000
0010
0000
1003
0000
0100
0000
0000
1000
,
0000
1001
0200
0000
1300
0010
0200
0000
,
0301
0000
0000
0000
0010
0000
0100
1000
0000
0000
0001
0000
0100
0000
0010
0100
,
0000
0000
0000
0000
0001
0000
0100
0000
0010
0000
1000
0001
1000
0000
0001
0000
,
0001
0000
0010
0100
0010
0100
0010
0001
,
1000
0000
1010
1010
0001
1000
0200
0000
,
0300
0000
0000
0000
0011
0000
0100
0000
1000
0000
0002
0000
0000
0000
0100
0003
,
0000
0100
0020
1000
1000
1000
0030
0000
,
0000
0000
0000
0000
0001
0010
0001
0000
0010
0000
0200
0000
0000
0000
1300
0000
,
0000
0011
1100
0000
1001
0000
1010
0000
,
0101
0000
0000
0000
0020
0000
1000
0000
1000
0030
0002
0000
0000
0000
0023
0000
,
0000
0100
0100
0032
0000
1000
0000
1003
,
0000
0000
0000
0010
0010
1000
1000
0100
,
0000
0000
0100
0010
0100
0010
0001
0010
0100
0010
0001
0010
0100
0010
0001
0010
,
0100
0010
0001
0010
0100
0000
1000
0000
0001
0000
1001
0000
0000
0000
1100
0000
,
0000
0000
0001
0100
0002
0000
0100
0000
0100
0000
0100
0003
0000
0000
0000
0000
,
0000
0000
0000
0000
0010
1000
0010
0000
1000
0000
0011
0000
0000
0000
1100
0000
,
0011
0011
1000
0000
1010
0000
0101
0000
,
1010
0000
0011
1100
0011
1100
0000
1001
,
0000
0001
1000
0010
0000
0100
0000
0001
,
0000
0000
0001
0000
0010
0000
0100
1000
0000
0000
0001
0000
0001
0000
0010
0000
,
0100
0000
1000
0000
0001
1000
0001
1000
0001
1000
0001
1000
0001
1000
0001
1000
,
0001
1000
0001
1000
0020
0000
0100
0000
0100
0000
0130
0000
0000
0000
0001
0000
,
0010
0000
0000
0000
0100
1000
0001
1000
0010
0100
0001
0020
0000
0000
0000
0030
,
0000
0000
1010
1010
0002
0100
0000
1000
,
1000
1003
0010
1000
0100
0010
0001
0100
,
0010
1000
1001
0100
1000
0001
0100
0010
,
1000
0000
0000
0000
0001
0010
0100
1000
0001
0010
0100
1000
0000
0000
0000
0000
,
0000
0000
1010
1010
0002
0100
0000
1000
,
0000
1003
0010
0100
0001
0010
0100
0100
,
1000
0000
0010
0000
1000
0010
1000
0010
1000
0010
1000
0010
1000
0010
1000
0010
,
1000
0010
1000
0010
1000
0000
0001
0000
0010
0000
0000
0000
0000
0000
0100
0000
,
1000
0000
0000
0000
0001
1000
0100
0000
1000
0000
0001
0000
0000
0000
0100
0000
,
1010
0000
0000
0000
0010
0000
1000
0000
0100
0000
0010
0001
0010
0100
0000
0000
,
0010
0000
0000
0000
1001
0000
1100
0000
0001
0000
1000
0001
1000
0001
1000
0000
,
0100
0000
0000
0000
1001
0000
1001
0000
0010
0000
0100
0010
0100
0001
0000
0000
,
0100
0000
0000
0000
0010
0000
0010
0000
1000
0000
0001
1000
0001
1000
0001
0000
,
1000
0000
0000
0000
0100
0000
0100
0000
0010
0000
0001
0010
0100
0010
0001
0000
,
1000
0000
0000
0000
0010
0000
0010
0000
1000
0000
0001
1000
0100
1000
0001
0000
,
0100
0010
2002
0000
0000
0000
0000
0000
,
0000
0000
0000
0000
0000
3003
0000
0000
0000
0000
0000
0000
0000
0000
0000
0000
;
