#TITLE:Fireworks;
#SUBTITLE:;
#ARTIST:OSTER Project;
#TITLETRANSLIT:;
#SUBTITLETRANSLIT:;
#ARTISTTRANSLIT:;
#CREDIT:SulferDragon;
#BANNER:Fireworks-banner.png;
#BACKGROUND:Fireworks-bg.png;
#LYRICSPATH:;
#CDTITLE:!SulferDragon.png;
#MUSIC:Fireworks.mp3;
#OFFSET:-0.074;
#SAMPLESTART:60.540;
#SAMPLELENGTH:14.400;
#SELECTABLE:YES;
#BPMS:0.000=124.980;
#STOPS:;
#BGCHANGES:;
// cache tags:
#FIRSTBEAT:2.000;
#LASTBEAT:398.000;
#SONGFILENAME:Songs/KBU/Fireworks (SulferDragon)/Fireworks.sm;
#HASMUSIC:1;
#HASBANNER:1;
#MUSICLENGTH:203.546;
// end cache tags

//---------------dance-single - ----------------
#NOTES:
     dance-single:
     :
     Hard:
     11:
     1.000,1.000,1.000,0.472,1.000,1110.000,280.000,96.000,0.000,50.000:
0000
0000
2010
0010
,
3200
0010
2310
0010
,
3002
0000
0010
1100
2013
0000
0010
0000
,
3200
0000
0010
0000
2310
0100
0011
0100
,
3011
0000
0100
0000
0010
0000
0100
0000
0011
1000
0100
0010
0001
1000
0100
0010
0101
0000
0000
0000
0100
0000
0000
0000
0010
0000
1000
0000
0100
0000
0010
0000
,
0001
0001
0100
0001
0000
0010
0100
0001
0000
0000
1000
0000
1000
0100
0010
0100
,
0001
1100
0000
0010
0000
1100
1000
0010
0101
0000
0100
0000
0010
1000
0100
0010
,
0001
0001
0100
0001
0000
0010
0100
0001
0000
1000
0010
0001
0100
1000
0010
0001
,
0000
1100
0010
0100
0001
1100
0010
0000
0101
0000
0100
0000
0010
1000
0100
0010
,
0001
0001
0100
0001
0000
0010
0100
0001
0000
0000
1000
0000
1000
0100
0010
0100
,
0001
1100
0000
0010
0000
1100
1000
0010
0101
0000
0100
0000
0010
1000
0100
0010
,
0001
0001
0100
0001
0000
0010
0100
0001
0000
1000
0010
0001
0100
1000
0010
0001
,
0000
1100
0010
0100
0001
1100
0020
0000
0001
0000
1100
0000
0001
0000
1100
0000
,
1030
0001
1000
0001
1100
0000
0011
0000
0101
0100
0100
0100
0100
1000
0100
0010
,
0001
0000
0100
0000
0010
0000
0100
1000
0000
0000
1000
0000
0100
0000
0010
0000
,
0001
1100
0000
0100
0000
1010
0000
1000
0011
0100
0100
0100
0100
1000
0100
0010
,
0001
0000
0100
0000
0010
0000
0100
1000
0000
0000
1000
0000
0100
0010
0000
0001
,
0000
1100
0000
0010
0000
1010
0000
1000
0011
0000
0100
0000
0100
1000
0100
0010
,
0001
0000
0100
0000
0010
0000
0100
1000
0000
0000
1000
0000
0100
0000
0010
0000
,
0001
1100
0000
0100
0000
1010
0000
1000
0011
0100
0100
0100
0100
1000
0100
0010
,
0001
0000
0100
0000
0010
0000
0100
1000
0000
0000
1000
0000
0100
0010
0000
0001
,
0000
1100
0100
0010
0010
1001
0010
0100
1010
0010
0010
1010
0000
1000
0100
0100
,
1010
0010
0010
0010
0000
1000
0100
0100
1010
0010
0010
1010
0000
1000
0100
0100
,
0001
0000
0101
0000
0001
0000
0001
0000
0000
0000
0101
0000
0001
0000
0000
0000
0210
0000
0000
0000
0000
0000
0000
0000
1000
0000
0000
0300
0200
0000
0000
0000
,
0302
0000
1023
0000
0230
0001
1320
0001
2030
0000
0000
3200
0010
0000
0302
0000
,
0023
0000
1100
0000
0000
0000
0000
0000
1000
0000
0101
0000
2030
0000
0001
0000
3210
0000
0000
0000
0000
0000
0000
0000
1000
0000
0000
0300
0200
0000
0000
0000
,
0302
0000
1023
0000
0230
0001
1320
0001
2030
0000
0000
3200
0010
0000
0302
0000
,
0023
0000
0000
1100
0000
0000
0000
0000
0000
0000
0000
0000
0230
0000
0000
1001
0000
0000
0320
0000
0000
1000
0000
0000
0131
0000
0000
0000
1000
0000
0000
0000
0100
0000
0000
0000
0010
0000
0000
0000
1100
0000
0000
0000
0110
0000
0000
0000
,
0101
0010
0100
1010
0110
0101
0011
1000
0100
1010
1001
0011
,
0101
1000
0110
0000
0101
1000
0011
1000
0101
0010
1000
0100
0010
1000
0100
0010
,
1000
0100
0010
1000
0100
0010
0100
0001
0000
0000
0110
0000
0001
0000
0110
0000
,
2100
0100
0010
0010
3001
1000
0001
1000
0101
0000
0100
0000
0010
1000
0100
0010
,
0001
1010
0100
0100
0000
0001
0000
0010
0000
0000
0100
0000
0100
0000
0010
0001
,
0000
1100
0000
1000
0100
1010
0001
0010
0101
0000
0100
0000
0010
1000
0100
0010
,
0001
1010
0100
0100
0000
0001
0000
0010
0000
0000
0100
0000
0100
0000
0010
0001
,
0000
0000
0000
1010
0000
0000
0000
0000
0000
0100
0000
0000
0001
0000
0000
1100
0000
0000
0010
0000
0000
0000
0000
0000
0101
0000
0000
0000
0000
0000
0000
0000
0000
0000
0000
0000
1010
0000
0000
0000
1100
0000
0000
0000
0110
0000
0000
0000
,
0101
0000
0000
1010
0000
0000
0000
0000
0000
0110
0000
0000
0000
0000
0000
0000
0000
0000
1010
0000
0000
0000
0000
0000
0011
0000
0000
0000
0000
0000
0011
0000
0000
0000
0000
0000
1010
0000
0000
0000
1001
0000
0000
0000
0101
0000
0000
0000
,
0011
1100
0010
0101
1000
0110
1000
0100
0011
0000
0000
0100
0000
0000
0010
0000
,
1000
0011
0100
0000
0010
0001
0000
0200
0010
1000
0001
0000
0010
1000
0001
0000
,
2310
0001
0000
0010
3001
1000
0001
1000
0101
0000
0010
0000
1000
0001
0001
0000
,
0010
0000
0000
0001
0000
0100
0001
0010
0001
0001
1000
0100
0001
0010
0000
0100
,
0000
1010
0100
0010
0000
0101
1000
0000
1001
0000
0100
0000
0100
1000
0100
0010
,
0001
0100
1000
0100
0000
0010
0100
1000
0000
0000
0100
0010
0001
0100
0000
1010
,
0000
1100
0010
0101
0000
0110
0110
1000
0011
0000
0100
0010
0000
0010
0001
0000
,
0010
0000
0100
0000
1000
0000
0100
0000
0010
1000
0001
0100
0010
1000
0000
0001
,
0000
0000
0011
0000
0100
0000
0000
0000
1000
0000
0101
0000
0010
0000
0000
0000
1100
0001
0000
0000
0100
0000
0010
0000
0000
0000
0010
0000
0001
0000
0000
0000
,
0100
0000
0000
0010
0000
1000
0100
0010
0001
1000
0010
0001
0000
1000
0010
0100
,
2001
0100
0000
0100
3011
0000
0011
1000
0101
0100
0100
0100
0100
1000
0100
0010
,
0001
0000
0100
0000
0010
0000
0100
1000
0000
0000
1000
0000
0100
0000
0010
0000
,
0001
1100
0000
0100
0000
1010
0000
1000
0011
0100
0100
0100
0100
1000
0100
0010
,
0001
0000
0100
0000
0010
0000
0100
1000
0000
0000
1000
0000
0100
0010
0000
0001
,
0000
1100
0000
0010
0000
1010
0000
1000
0011
0000
0100
0000
0100
1000
0100
0010
,
0001
0000
0100
0000
0010
0000
0100
1000
0000
0000
1000
0000
0100
0000
0010
0000
,
0001
1100
0000
0100
0000
1010
0000
1000
0011
0100
0100
0100
0100
1000
0100
0010
,
0001
0000
0100
0000
0010
0000
0100
1000
0000
0000
1000
0000
0100
0010
0000
0001
,
0000
1100
0100
0010
0010
1001
0010
0100
1010
0010
0010
1010
0000
1000
0100
0100
,
1010
0010
0010
0010
0000
1000
0100
0100
1010
0010
0010
1010
0000
1000
0100
0100
,
0001
0000
0101
0000
0001
0000
0001
0000
0000
0000
0101
0000
0001
0000
0000
0000
0210
0000
0000
0000
0000
0000
0000
0000
1000
0000
0000
0300
0200
0000
0000
0000
,
0302
0000
1023
0000
0230
0001
1320
0001
2030
0000
0000
3200
0010
0000
0302
0000
,
0023
0000
1100
0000
0000
0000
0000
0000
1000
0000
0101
0000
2030
0000
0001
0000
3210
0000
0000
0000
0000
0000
0000
0000
1000
0000
0000
0300
0200
0000
0000
0000
,
0302
0000
1023
0000
0230
0001
1320
0001
2030
0000
0000
3200
0010
0000
0302
0000
,
0023
0000
0000
1100
0000
0000
0000
0000
0000
0000
0000
0000
0230
0000
0000
1001
0000
0000
0320
0000
0000
1000
0000
0000
0131
0000
0000
0000
1000
0000
0000
0000
0100
0000
0000
0000
0010
0000
0000
0000
1100
0000
0000
0000
0110
0000
0000
0000
,
0101
0010
0100
1010
0110
0101
0011
1000
0100
1010
1001
0011
,
0101
1000
0110
0000
0101
1000
0011
1000
0101
0010
1000
0100
0010
1000
0100
0010
,
1000
0100
0010
1000
0100
0010
0100
0001
0000
0000
0110
0000
0001
0000
0110
0000
,
2100
0100
0010
0010
3001
1000
0001
1000
0101
0000
0100
0000
0010
1000
0100
0010
,
0001
1010
0100
0100
0000
0001
0000
0010
0000
0000
0100
0000
0100
0000
0010
0001
,
0000
1100
0000
1000
0100
1010
0001
0010
0101
0000
0100
0000
0010
1000
0100
0010
,
0001
1010
0100
0100
0000
0001
0000
0010
0000
0000
0100
0000
0100
0000
0010
0001
,
0000
0000
0000
1010
0000
0000
0000
0000
0000
0100
0000
0000
0001
0000
0000
1100
0000
0000
0010
0000
0000
0000
0000
0000
0101
0000
0000
0000
0000
0000
0000
0000
0000
0000
0000
0000
1010
0000
0000
0000
1100
0000
0000
0000
0110
0000
0000
0000
,
0101
0000
0000
1010
0000
0000
0000
0000
0000
0110
0000
0000
0000
0000
0000
0000
0000
0000
1010
0000
0000
0000
0000
0000
0011
0000
0000
0000
0000
0000
0011
0000
0000
0000
0000
0000
1010
0000
0000
0000
1001
0000
0000
0000
0101
0000
0000
0000
,
0011
1100
0010
0101
1000
0110
1000
0100
0011
0000
0000
0100
0000
0000
0010
0000
,
1000
0011
0100
0000
0010
0001
0000
0200
0010
1000
0001
0000
0010
1000
0001
0000
,
2310
0001
0000
0010
3001
1000
0001
1000
0101
0000
0000
0000
0100
1000
0100
0010
,
0001
1010
0000
0010
0000
0100
0010
0002
0000
0000
0000
0000
0000
0013
0100
2000
,
0000
0101
0000
0000
0100
3011
1100
0010
0101
0000
0100
0000
0100
1000
0100
0010
,
0001
1010
0000
0010
0000
0100
0010
0001
0020
0000
0000
0000
0000
0031
0010
1200
,
0000
0000
0000
1001
0000
0000
0000
0000
0000
1001
0000
0000
0010
0000
0000
1000
0000
0000
0311
0000
0000
1000
0000
0000
0110
0000
0000
0000
1000
0000
0000
0000
0100
0000
0000
0000
0010
0000
0000
0000
0001
0000
0000
0000
1010
0000
0000
0000
,
0101
0000
0000
0000
1000
0000
0000
0000
0100
0000
0000
0000
1010
0000
0000
0000
0001
0000
0000
0000
0010
0000
0000
0000
0102
0000
0000
1010
0000
0000
0000
0000
0200
0003
0000
0000
0000
0000
0000
1001
0320
0000
0000
0000
0000
0000
0000
0000
,
2030
0101
0000
0000
3010
1001
0100
0010
0101
1000
0100
0010
0101
1000
0110
0001
,
0000
1010
0100
0001
0000
1100
0010
0001
0100
0010
1100
0001
1000
0100
0011
0100
,
2001
0010
0100
0010
3001
0000
1100
0010
0101
0000
0100
0000
0010
1000
0100
0010
,
0001
1010
0100
0100
0000
0001
0000
0010
0000
0000
0100
0000
0100
0000
0010
0001
,
0000
1100
0000
1000
0100
1010
0001
0010
0101
0000
0100
0000
0010
1000
0100
0010
,
0001
1010
0100
0100
0000
0001
0000
0010
0000
0000
0100
0000
0100
0000
0010
0001
,
0000
0000
0000
1010
0000
0000
0000
0000
0000
0100
0000
0000
0001
0000
0000
1100
0000
0000
0010
0000
0000
0000
0000
0000
0101
0000
0000
0000
0000
0000
0000
0000
0000
0000
0000
0000
1010
0000
0000
0000
1100
0000
0000
0000
0110
0000
0000
0000
,
0101
0000
0000
1010
0000
0000
0000
0000
0000
0110
0000
0000
0000
0000
0000
0000
0000
0000
1010
0000
0000
0000
0000
0000
0011
0000
0000
0000
0000
0000
0011
0000
0000
0000
0000
0000
1010
0000
0000
0000
1001
0000
0000
0000
0101
0000
0000
0000
,
0011
1100
0010
0101
1000
0110
1000
0100
0011
0000
0000
0100
0000
0000
0010
0000
,
1000
0011
0100
0000
0010
0001
0000
0200
0010
1000
0001
0000
0010
1000
0001
0000
,
2310
0000
0001
0000
0000
0000
0010
0000
3001
0000
1000
0000
0001
0000
1000
0000
0201
0000
0000
0000
0000
0000
0000
0000
1000
0000
0000
0300
0200
0000
0000
0000
,
0302
0000
1023
0000
0230
0001
1320
0001
2030
0000
0000
3200
0010
0000
0302
0000
,
0023
0000
1100
0000
0000
0000
0000
0000
1000
0000
0101
0000
2030
0000
0001
0000
3210
0000
0000
0000
0000
0000
0000
0000
1000
0000
0000
0300
0200
0000
0000
0000
,
0302
0000
1023
0000
0230
0001
1320
0001
2030
0000
0000
3200
0010
0000
0302
0000
,
0023
0000
0000
1100
0000
0000
0000
0000
0000
0000
0000
0000
0230
0000
0000
1001
0000
0000
0320
0000
0000
1000
0000
0000
0131
0000
0000
0000
1000
0000
0000
0000
0100
0000
0000
0000
0010
0000
0000
0000
1100
0000
0000
0000
0110
0000
0000
0000
,
0101
0010
0100
1010
0110
0101
0011
1000
0100
1010
1001
0011
,
0101
1000
0110
0000
0101
1000
0011
1000
0101
0010
1000
0100
0010
1000
0100
0010
,
1000
0100
0010
1000
0100
0010
1000
0100
0010
1000
0100
0010
1000
0100
0010
1000
,
0100
0010
1000
0100
0010
1000
0100
0001
0000
0010
0100
0001
0010
0100
0001
0010
,
0100
0001
0010
0100
0001
0010
0100
0001
1000
0010
1001
0010
0100
0010
1001
0010
,
2100
0010
0001
0010
3100
0000
1010
0000
0101
0000
0000
0000
0000
0000
0000
0000
;
