#TITLE:Final Fantasy VIII (Opening);
#SUBTITLE:;
#ARTIST:植松伸夫;
#TITLETRANSLIT:;
#SUBTITLETRANSLIT:;
#ARTISTTRANSLIT:Nobuo Uematsu;
#CREDIT:;
#BANNER:Final Fantasy 8 VIII (Opening Theme).jpg;
#BACKGROUND:Final Fantasy 8 VIII (Opening Theme)-bg.jpg;
#LYRICSPATH:;
#CDTITLE:;
#MUSIC:Final Fantasy 8 VIII (Opening Theme).mp3;
#OFFSET:0.973;
#SAMPLESTART:39.760;
#SAMPLELENGTH:11.920;
#SELECTABLE:YES;
#BPMS:0.000=74.000,4.000=73.000,8.500=73.980,12.000=77.500,18.000=149.600,55.000=150.860,68.000=149.600,118.000=150.080,134.000=150.080,142.000=149.600,173.500=225.000,522.500=150.000;
#STOPS:172.000=0.100
,172.750=0.080
,353.500=0.200
,354.250=0.200
,355.000=0.200
,355.750=0.200
,356.500=0.200
,357.250=0.200
,358.000=0.200
,358.750=0.200
,359.500=0.200
,360.250=0.200
,361.000=0.200
,361.750=0.200
,362.500=0.200
,363.250=0.200
,364.000=0.200
,364.750=0.200
,389.500=0.200
,390.250=0.200
,391.000=0.200
,391.750=0.200
,392.500=0.200
,393.250=0.200
,394.000=0.200
,394.750=0.200
,407.500=0.200
,408.250=0.200
,409.000=0.200
,409.750=0.200
,410.500=0.200
,411.250=0.200
,412.000=0.200
,522.500=0.400
;
#BGCHANGES:1.000=FFVIII - opening.avi=1.000=0=0=1,
543.500=Final Fantasy 8 VIII (Opening Theme)-bg.jpg=1.000=0=0=1,
99999=-nosongbg-=1.000=0=0=0 // don't automatically add -songbackground-
;
// cache tags:
#FIRSTBEAT:2.000;
#LASTBEAT:543.500;
#SONGFILENAME:Songs/longs versions/Liveri/Final Fantasy 8 VIII (Opening Theme).sm;
#HASMUSIC:1;
#HASBANNER:1;
#MUSICLENGTH:187.977;
// end cache tags

//---------------dance-double - ----------------
#NOTES:
     dance-double:
     :
     Easy:
     2:
     0.098,0.103,0.080,0.005,0.000,113.000,15.000,1.000,0.000,0.000:
00000000
00000000
00000000
00000000
,
00000000
00000000
00000000
00000000
,
00000000
00000000
00000000
00000000
,
00000000
00000000
00000000
00000000
,
00010000
00000000
01010000
00000000
,
00001000
00000000
00011000
00000000
,
00000010
00000000
00001010
00000000
,
00000001
00000100
00000001
00000000
,
00001000
00000000
00000100
00000000
,
00010000
00000000
00001000
00000000
,
00000010
00000000
00000001
00000000
,
00000100
00000000
00000010
00000000
,
00010000
00000000
00001000
00000000
,
00100000
00000000
00010000
00000000
,
00001000
00000000
00010000
00000000
,
00000100
00000000
00001000
00000000
,
00000001
00000000
00001000
00000000
,
00000001
00000000
00002000
00003000
,
00000100
00010000
00001000
00000000
,
00100000
00000000
00010000
00000000
,
01000000
00001000
00010000
00000000
,
00000010
00000000
00001000
00000000
,
00000001
00000010
00000100
00000000
,
00000001
00000000
00000100
00000000
,
00001000
00000000
00001100
00000000
,
00010000
00000000
00011000
00000000
,
00100000
00000000
00110000
00000000
,
10000000
01000000
10000000
00000000
,
00010000
00000000
01010000
00000000
,
00001000
00000000
00011000
00000000
,
00000010
00000000
00001010
00000000
,
00000001
00000010
00000001
00000000
,
00001000
00000000
00000100
00000000
,
00000001
00000000
00000100
00000000
,
00001000
00000000
00010000
00000000
,
00100000
10000000
00100000
00000000
,
01000000
00000000
00010000
00000000
,
10000000
00000000
01000000
00000000
,
00010000
00000000
00001000
00000000
,
00000010
00000001
00000010
00000000
,
00000100
00000000
00000100
00000000
,
00010000
00000000
00001000
00000000
,
00100000
00000000
00100000
00000000
,
00010000
00000000
00000000
00000000
,
01000000
00000000
01000000
00000000
,
00010000
00000000
00001000
00000000
,
00000010
00000000
00000010
00000001
,
00000100
00000000
00000000
00000000
,
00001000
00000000
00001100
00000000
,
00010000
00000000
00011000
00000000
,
00100000
00000000
00110000
00000000
,
10000000
01000000
10000000
00000000
,
00010000
00000000
01010000
00000000
,
00001000
00000000
00011000
00000000
,
00000010
00000000
00001010
00000000
,
00000001
00000010
00000100
00000000
;

//---------------dance-double - ----------------
#NOTES:
     dance-double:
     :
     Medium:
     6:
     0.185,0.207,0.112,0.021,0.000,219.000,21.000,4.000,0.000,0.000:
00000000
00000000
00000000
00000000
,
00000000
00000000
00000000
00000000
,
00000000
00000000
00000000
00000000
,
00000000
00000000
00000000
00000000
,
00000000
10000000
00000000
10000000
00000000
01000000
00000000
01000000
,
00000000
00100000
00000000
00100000
00000000
00010000
01000000
00100000
,
00000000
00010000
00000000
00010000
00000000
00001000
00000000
00001000
,
00000010
00000001
00000010
00000001
00000100
00000000
00000000
00000000
,
00000000
00000010
00000000
00000010
00000000
00001000
00000000
00001000
,
00000000
00000100
00000000
00000010
00000000
00000001
00000000
00000100
,
00000000
00001000
00000000
00001000
00000000
00010000
00000000
00010000
,
00000000
00100000
00000000
00100000
10000000
00000000
00000000
00000000
,
00000000
00010000
00000000
00010000
00000000
01000000
00000000
01000000
,
00000000
00001000
00000000
00010000
00000000
00100000
00000000
10000000
,
00000000
01000000
00000000
01000000
00000000
00010000
00000000
00010000
,
00000000
00001000
00000000
00001000
00010000
00000000
00000000
00000000
,
00000020
00000030
00000020
00000030
,
00000020
00000030
00000200
00000300
,
00000000
00001000
00000000
00001000
00000000
00010000
00000000
00010000
,
00000000
01000000
00000000
01000000
00000000
00010000
00001000
00010000
,
00000000
00000100
00000000
00000100
00000000
00000010
00000000
00000010
,
00000000
00000001
00000000
00000001
00000000
00000100
00001000
00000100
,
00000000
00000001
00000000
00000001
00000000
00001000
00000000
00001000
,
00000000
00000100
00000000
00010000
00001000
00000000
00000000
00000000
,
00110000
00000000
11000000
00000000
00010000
01000000
01000000
00000000
,
00001000
00010000
00010000
00000000
00000010
00000000
00000100
00000000
,
00001001
00000000
00000110
00000000
00001000
00000001
00000001
00000000
,
00000100
00001000
00011000
00000000
,
01010000
00000000
10100000
00000000
01000000
00010000
00010000
00000000
,
00100000
00001000
00001000
00000000
00010000
00000000
00000100
00000000
,
00001001
00000000
00000110
00000000
00000001
00001000
00001000
00000000
,
00000100
00010000
00011000
00000000
,
00000000
00100000
00000000
00100000
00000000
10000000
00000000
10000000
,
00000000
00100000
00000000
00010000
00000000
01000000
00000000
00001000
,
00000000
00010000
00000000
00010000
00000000
00000010
00000000
00000010
,
00000000
00001000
00000000
00001000
00000100
00000000
00000000
00000000
,
00000000
00010000
00000000
00010000
00000000
00001000
00000000
00001000
,
00000000
00100000
00000000
10000000
00000000
00010000
00000000
01000000
,
00000000
00001000
00000000
00001000
00000000
00010000
00000000
00010000
,
00000010
00000100
00000010
00000100
00000001
00000000
00000000
00000000
,
00000000
00000100
00000000
00001000
00000000
00010000
00000000
01000000
,
00000000
10000000
00000000
00010000
00000000
01000000
00000000
00100000
,
00000000
00010000
00000000
00001000
00000000
00100000
00000000
01000000
,
10000000
00100000
00010000
00001000
00000010
00000001
00000100
00000010
,
00000000
00000010
00000000
00001000
00000000
00000100
00000000
00010000
,
00000000
00001000
00000000
01000000
00000000
00100000
00000000
00010000
,
00000000
00001000
00000000
00000010
00000000
00000001
00000000
00001000
,
00000010
00000000
00000100
00000000
00001000
00010000
00001000
00100000
,
00010000
00000000
11000000
00000000
00010000
01000000
01000000
00000000
,
00001000
00010000
00010000
00000000
00000010
00000000
00000100
00000000
,
00001001
00000000
00000110
00000000
00001000
00000001
00000001
00000000
,
00000100
00001000
00011000
00000000
,
01010000
00000000
10100000
00000000
01000000
00010000
00010000
00000000
,
00100000
00001000
00001000
00000000
00010000
00000000
00000100
00000000
,
00001001
00000000
00000110
00000000
00000001
00001000
00001000
00000000
,
00010100
00101000
10010000
00000000
;

//---------------dance-double - ----------------
#NOTES:
     dance-double:
     :
     Hard:
     8:
     0.252,0.236,0.005,0.074,0.197,316.000,1.000,14.000,0.000,0.000:
00000000
00000000
00000000
00000000
,
00000000
00000000
00000000
00000000
,
00000000
00000000
00000000
00000000
,
00000000
00000000
00000000
00000000
,
10000000
00000000
00000000
00010000
01000000
00000000
00000000
00000000
00001000
00000000
00010000
00000000
00001000
00000000
00000000
00000000
,
00000010
00000000
00000001
00000000
00000100
00000000
00000000
00000000
00000010
00001000
00000000
00001000
00000100
00000000
00000000
00000000
,
00010000
00000000
00000000
00010000
00001000
00000000
00000000
00000000
00100000
00000000
00010000
00000000
01000000
00000000
00000000
00000000
,
00100000
10000000
00000000
00000000
01000000
00100000
00000000
00000000
00010000
01000000
00000000
00000000
00000000
00000000
00000000
00000000
,
00001000
00000000
00010000
00000000
01000000
00000000
00000000
00000000
00010000
00001000
00000000
00010000
00001000
00000000
00000000
00000000
,
00000010
00000000
00000001
00000000
00001000
00000000
00000000
00000000
00000010
00000100
00000000
00000010
00000100
00000000
00000001
00000000
,
00000010
00000000
00000100
00000000
00001000
00000000
00000000
00000000
00000001
00000100
00000000
00000100
00001000
00000000
00000000
00000000
,
00010000
00001000
00000000
00010000
00000000
00100000
00000000
10000000
00010000
00000000
00000000
00000000
00000000
00000000
00000000
00000000
,
00100000
00000000
01000000
00000000
10000000
00000000
00000000
00000000
00010000
01000000
00000000
00010000
01000000
00000000
00000000
00000000
,
00100000
00000000
00001000
00000000
00010000
00000000
00000000
00000000
00000010
00001000
00000000
00000010
00001000
00000000
00000001
00000000
,
00000010
00000000
00000100
00000000
00001000
00000000
00000000
00000000
00000001
00000100
00000000
00000010
00001000
00000000
00000000
00000000
,
00000100
00010000
00000000
00010000
00000000
00001000
00000000
00000010
00000001
00000000
00000000
00000000
00000000
00000000
00000000
00000000
,
00000100
00000020
00000000
00000000
00000030
00000000
00000000
00000000
00001000
00000200
00000000
00000000
00000300
00000000
00000000
00000000
,
00000010
00000002
00000000
00000000
00000003
00000000
00000000
00000000
00000200
00000000
00000000
00000000
00000300
00000000
00000000
00000000
,
00001000
00000000
00010000
00000000
00001000
00000000
00000000
00001000
00010000
00000000
00100000
00000000
10000000
00000000
00000000
10000000
,
01000000
00100000
00010000
01000000
00100000
00000000
00000000
00000000
,
10000000
00000000
01000000
00000000
00010000
00000000
00000000
00010000
00001000
00000000
00000100
00000000
00000001
00000000
00000000
00000001
,
00000010
00000100
00001000
00000010
00000100
00000000
00000000
00000000
,
00001000
00000000
00010000
00000000
00001000
00000000
00000000
00001000
00000010
00000000
00000001
00000000
00000100
00000000
00000000
00000100
,
00001000
00010000
01000000
10000000
00010000
00000000
00000000
00000000
,
01000000
00000000
00000000
01000000
00100000
00000000
00000000
00000000
10000000
00000000
01000000
00000000
01000000
00000000
00000000
00000000
,
00100000
00000000
00010000
00000000
00010000
00000000
00000000
00000000
01000000
00001000
00000000
00010000
00000010
00000000
00001000
00000000
,
00000001
00000000
00000000
00000001
00000010
00000000
00000000
00000000
00000100
00000000
00001000
00000000
00001000
00000000
00000000
00000000
,
00000010
00000100
00001000
00010000
01000000
00000000
00000000
00000000
,
10000000
00000000
00000000
00010000
01000000
00000000
00000000
00000000
00100000
00000000
10000000
00000000
10000000
00000000
00000000
00000000
,
01000000
00000000
00010000
00000000
00010000
00000000
00000000
00000000
00001000
00010000
00000000
00010000
00001000
00000000
00000010
00000000
,
00000001
00000000
00000000
00000001
00001000
00000000
00000000
00000000
00000010
00000000
00000100
00000000
00000100
00000000
00000000
00000000
,
00001000
00010000
00001000
00000010
00001001
00000000
00000000
00000000
,
00000100
00000000
00000010
00000000
00000001
00000000
00000000
00000000
00000100
00000010
00000000
00001000
00000001
00000000
00000000
00000000
,
00000100
00000000
00001000
00000000
00010000
00000000
00000000
00000000
01000000
10000000
00000000
10000000
01000000
00000000
00100000
00000000
,
00001000
00000000
00010000
00000000
00001000
00000000
00000000
00000000
00000010
00001000
00000000
00001000
00010000
00000000
00000000
00000000
,
00001000
00010000
00000000
00010000
00000000
00001000
00000000
00000010
00000001
00000000
00000000
00000000
00000000
00000000
00000000
00000000
,
00000100
00000000
00001000
00000000
00010000
00000000
00000000
00000000
00001000
00010000
00000000
00010000
01000000
00000000
00000000
00000000
,
10000000
00000000
00100000
00000000
01000000
00000000
00000000
00000000
00010000
00100000
00000000
00001000
00010000
00000000
00000100
00000000
,
00010000
00000000
00001000
00000000
00100000
00000000
00000000
00000000
01000000
10000000
00000000
10000000
01000000
00000000
00000000
00000000
,
00100000
00010000
00000000
01000000
00000000
00001000
00000000
00010000
00000010
00000000
00000000
00000000
00000000
00000000
00000000
00000000
,
00000000
00000200
00000000
00000300
00000002
00000000
00000003
00000000
,
00000000
00000020
00000000
00000030
00002000
00000000
00003000
00000000
,
00000000
00020000
00000000
00030000
00200000
00000000
00300000
00000000
,
10000000
01000000
00010000
01000000
10000000
00100000
01000000
00010000
,
00000000
00200000
00000000
00300000
00002000
00000000
00003000
00000000
,
00000000
00020000
00000000
00030000
02000000
00000000
03000000
10000000
,
00100000
00000000
00100000
00000000
00010000
00001000
00000010
00000001
,
00000100
00000000
00000000
00000000
00000100
00000000
00000000
00000010
00001000
00000000
00000100
00000000
00000010
00000000
00000001
00000000
,
00001000
00000000
00000000
00001000
00000100
00000000
00000000
00000000
00010000
00000000
00001000
00000000
00001000
00000000
00000000
00000000
,
00100000
00000000
01000000
00000000
01000000
00000000
00000000
00000000
10000000
00100000
00000000
00100000
10000000
00000000
01000000
00000000
,
00100000
00000000
00000000
00001000
00010000
00000000
00000000
00000000
00000010
00000000
00000100
00000000
00000100
00000000
00000000
00000000
,
00000001
00000010
00001000
00010000
00100000
00000000
00000000
00000000
,
10000000
00000000
00000000
10000000
01000000
00000000
00000000
00000000
00100000
00000000
00010000
00000000
01000000
00000000
00000000
00000000
,
00100000
00000000
10000000
00000000
01000000
00000000
00000000
00000000
00100000
00010000
00000000
00010000
01000000
00000000
00001000
00000000
,
00010000
00000000
00000000
00010000
00000010
00000000
00000000
00000000
00001000
00000000
00000100
00000000
00000100
00000000
00000000
00000000
,
00010000
00000000
00001000
00100000
00001000
00000000
00010000
00000000
00000010
00000000
00000000
00000000
00000000
00000000
00000000
00000000
;

//---------------dance-couple - Copied from----------------
#NOTES:
     dance-couple:
     Copied from:
     Easy:
     9:
     0.470,0.769,0.255,0.266,0.537,521.000,48.000,50.000,0.000,2.000:
00000000
00000000
00000000
00000000
,
00000000
00000000
00000000
00000000
00000000
01100000
00000000
00000000
,
00000000
10010000
00000000
00000000
00000000
00000000
00000000
00000000
,
00000000
00000000
00000000
00000000
00000000
00000000
00000000
10100000
,
00000000
00000000
01010000
00000000
,
00000000
00000000
00000000
00000000
,
00000000
10010000
01100000
10010000
,
00000000
00000000
00000000
10000000
00010000
10000000
00010000
10000000
,
00010000
10000000
00010000
10000000
00010000
10000000
00010000
10000000
,
00010000
10000000
00000000
00010000
01000000
10000000
01000000
00010000
,
01000000
10000000
01000000
00010000
00000000
20020000
00000000
00000000
,
00000000
00000000
00000000
30030000
,
00000000
00000000
00000000
10000000
10000000
00010000
00000000
10000000
,
10000000
00010000
00000000
10000000
10000000
00010000
10000000
01000000
,
00100000
00010000
00000000
10000000
00000000
10000000
00000000
10000000
,
00000000
10000000
00000000
10000000
00000000
10000000
00000000
10000000
,
00000000
10000000
00000000
20000000
00000000
30020000
00000000
00030000
,
00000000
10000000
01000000
10000000
01000000
10000000
01000000
10000000
,
01000000
10000000
01000000
20000000
00000000
30020000
00000000
10030000
,
00100000
10000000
00100000
10000000
00100000
10000000
00100000
10000000
,
00100000
10000000
00000000
20000000
00000000
30020000
00000000
10030000
,
00010000
10000000
00010000
10000000
00010000
10000000
00010000
10000000
,
00010000
10000000
00000000
10000000
00010000
10000000
00000000
01000000
,
00100000
01000000
00100000
01000000
00100000
01000000
00100000
01000000
,
00100000
01000000
00100000
20000000
00000000
30020000
00000000
10030000
,
00100000
10000000
01000000
10000000
00100000
10000000
01000000
10000000
,
00100000
10000000
01000000
00020000
00000000
20030000
00000000
30000000
,
00000000
00010000
00100000
00010000
01000000
00010000
00100000
00010000
,
01000000
00010000
00000000
20000000
00000000
30020000
00000000
10030000
,
00000000
00000000
10000000
01000000
00100000
00010000
00000000
00000000
00000000
00000000
10000000
00000000
00000000
00000000
00100000
00000000
,
00000000
00010000
00000000
10000000
00010000
10000000
00000000
10000000
,
00000000
10000000
00000000
00100000
00000000
00010000
00000000
00100000
,
00000000
10000000
00000000
22000000
00000000
00000000
33000000
00020000
,
00000000
00000000
00030000
02020000
00000000
00000000
03030000
00020000
,
00000000
00000000
00000000
20230000
00000000
00000000
00000000
30320000
,
00000000
00000000
00030000
00220000
00000000
00000000
00330000
00020000
,
00000000
00000000
00030000
20020000
00000000
00000000
30030000
20000000
,
00000000
00000000
30000000
20020000
00000000
00000000
30030000
02000000
,
00000000
00000000
03000000
02200000
00000000
00000000
03300000
00020000
,
00000000
00000000
00000000
20030000
00000000
00000000
00000000
30010000
,
00000000
00010000
00000000
10010000
00000000
00000000
00000000
00000000
,
00000000
10010000
00000000
00000000
00000000
10010000
00000000
00000000
,
00000000
10000000
00000000
10000000
00010000
10000000
00000000
00010000
,
10000000
00010000
00000000
10000000
00010000
10000000
00000000
00010000
,
10000000
00010000
00000000
10000000
00010000
10000000
00000000
00010000
,
10000000
00010000
00000000
10000000
00010000
10000000
00000000
10010000
,
00000000
00000000
10010000
00000000
00000000
00000000
10000000
00000000
00010000
00000000
00000000
10000000
00000000
00010000
00000000
00000000
,
00000000
00010000
00000000
00100000
00000000
01000000
00000000
10000000
00000000
00100000
00000000
01000000
00000000
00010000
00000000
00100000
,
00000000
01000000
00000000
10000000
00000000
00100000
00000000
01000000
00000000
00010000
00000000
00100000
00000000
01000000
00000000
10000000
,
00000000
00100000
00000000
01000000
00000000
00010000
00000000
01000000
00000000
10000000
00000000
01000000
00000000
00010000
00000000
01000000
,
00000000
10000000
00000000
01000000
00000000
00010000
00000000
00100000
00000000
10000000
00000000
00100000
00000000
00010000
00000000
00100000
,
00000000
10000000
00000000
00100000
00000000
00010000
00000000
00100000
00000000
00010000
00000000
10000000
00000000
00100000
00000000
10000000
,
00000000
00010000
00000000
01000000
00000000
00010000
00000000
10000000
00000000
01000000
00000000
10000000
00000000
00100000
00000000
01000000
,
00000000
00100000
00000000
10000000
00000000
00010000
00000000
10000000
00000000
00010000
00000000
10000000
00000000
00000000
10010000
00000000
,
00000000
10010000
00000000
20000000
00000000
00000000
00000000
00000000
,
00020000
00000000
30000000
00000000
20000000
00030000
00000000
30020000
,
00000000
00000000
00030000
20000000
00000000
00000000
00000000
30020000
,
00000000
00000000
00000000
20030000
00000000
00000000
30000000
00020000
,
00000000
00000000
00030000
10010000
00000000
00000000
00000000
10000000
,
00000000
00010000
00000000
00100000
00000000
01000000
00000000
00100000
,
00000000
00000000
10010000
00000000
00000000
00000000
00000000
10000000
00010000
00000000
10000000
00010000
00000000
00000000
00000000
00000000
,
00000000
00000000
00000000
00000000
00000000
00000000
00100000
00010000
00000000
10000000
01000000
00000000
00000000
00000000
00000000
00000000
,
00000000
00000000
00000000
00000000
00000000
00000000
10000000
00010000
00000000
10000000
00100000
00000000
00000000
00000000
00000000
00000000
,
00000000
00000000
00000000
00000000
00000000
00000000
00100000
01000000
00000000
01000000
00100000
00000000
00000000
00000000
00000000
00000000
,
00000000
00000000
00000000
00000000
00000000
00000000
10000000
00010000
00000000
00010000
10000000
00000000
00000000
00000000
00000000
00000000
,
00000000
00000000
00000000
00000000
00000000
00000000
10000000
00010000
00000000
00100000
10000000
00000000
00000000
00000000
00000000
00000000
,
00000000
00000000
00000000
00000000
00000000
00000000
00010000
10000000
00000000
10000000
00010000
00000000
00000000
00000000
00000000
00000000
,
00000000
00000000
00000000
00000000
00000000
00000000
01000000
00010000
00000000
10000000
00010000
00000000
00000000
00000000
00000000
00000000
,
00000000
00000000
00000000
10000000
00100000
01000000
00100000
01000000
,
10000000
00010000
00100000
01000000
10000000
00100000
01000000
00100000
,
00010000
10000000
01000000
00100000
01000000
00100000
10000000
00010000
,
00100000
01000000
00100000
10000000
01000000
00100000
10000000
01000000
,
01000000
00000000
10000000
00000000
00010000
00000000
10010000
00000000
00000000
00000000
00000000
00000000
00000000
00000000
00000000
10000000
,
00010000
00000000
10010000
20020000
,
30030000
00000000
00000000
00000000
10000000
00010000
10000000
00010000
00000000
00000000
00000000
10010000
00000000
00000000
00000000
01100000
,
00000000
00000000
00000000
10010000
00000000
00000000
00000000
01100000
00000000
00000000
00000000
10010000
00000000
00000000
10000000
00000000
,
00000000
10010000
00000000
10010000
00000000
00010000
01000000
00100000
,
01000000
00010000
00100000
01000000
10000000
01000000
00100000
01000000
,
00010000
01000000
10000000
00100000
00010000
01000000
00100000
10000000
,
00010000
10000000
01000000
00010000
01000000
00100000
10000000
01000000
,
00010000
00000000
10000000
00000000
01000000
00000000
00010000
00000000
10000000
00000000
00000000
00010000
00000000
00000000
00000000
01100000
,
00000000
00000000
00000000
01100000
00000000
00000000
00010000
00000000
10000000
00000000
00000000
00010000
00000000
00000000
00000000
01100000
,
00000000
00000000
00000000
01100000
00000000
00000000
10000000
00000000
00010000
00000000
00000000
10000000
00000000
01000000
00000000
00010000
,
00000000
01000000
00000000
10000000
00000000
01000000
00000000
00010000
00000000
01000000
00000000
10000000
00000000
01000000
00000000
00010000
,
00000000
01000000
00000000
10000000
00000000
00000000
00000000
10000000
00000000
00000000
00000000
10000000
00000000
00000000
00000000
10000000
,
00000000
00000000
00000000
10000000
00000000
00000000
00000000
10000000
00000000
00000000
00000000
10000000
00000000
00000000
00000000
10000000
,
00000000
00000000
00000000
10000000
00000000
00000000
00000000
10010000
00000000
00000000
00000000
00000000
00000000
00000000
00000000
00000000
,
00000000
00000000
00000000
10010000
00000000
00000000
00000000
00000000
00000000
00000000
00000000
10010000
00000000
00000000
00000000
00000000
,
00000000
00000000
00000000
10010000
00000000
00000000
00000000
10000000
00000000
00000000
00000000
10000000
00000000
00000000
00000000
10000000
,
00000000
00000000
00000000
10000000
00000000
00000000
00000000
10000000
00000000
00000000
00000000
10000000
00000000
00000000
00000000
10000000
,
00000000
00000000
00000000
10000000
00000000
00000000
00000000
10000000
00000000
00000000
00000000
10000000
00000000
00000000
00000000
10000000
,
00000000
00000000
00000000
10000000
00000000
00000000
00000000
10000000
00000000
00000000
00000000
10000000
00000000
00000000
00000000
10000000
,
00000000
00000000
00000000
10000000
00000000
00000000
00000000
00010000
00000000
00000000
00000000
00010000
00000000
00000000
00000000
00010000
,
00000000
00000000
00000000
00010000
00000000
00000000
00000000
00010000
00000000
00000000
00000000
00010000
00000000
00000000
00000000
00010000
,
00000000
00000000
00000000
00010000
00000000
00000000
00000000
00010000
00000000
00000000
00000000
00010000
00000000
00000000
00000000
00010000
,
00000000
00000000
00000000
00010000
00000000
00000000
00000000
00010000
00000000
00000000
00000000
00010000
00000000
00000000
00000000
00010000
,
00000000
00000000
00000000
00010000
00000000
00000000
00000000
10000000
00000000
00000000
00000000
00010000
00000000
00000000
00000000
10000000
,
00000000
00010000
00000000
10000000
00000000
00000000
00000000
00010000
00000000
00000000
00000000
10000000
00000000
00000000
00000000
00010000
,
00000000
10000000
00000000
00010000
00000000
00000000
00000000
10000000
00000000
00000000
00000000
00010000
00000000
00000000
00000000
10000000
,
00000000
00010000
00000000
10000000
00000000
00000000
00000000
00010000
00000000
00000000
00000000
10000000
00000000
00000000
00000000
00010000
,
00000000
10000000
00000000
00010000
00000000
00000000
00000000
10000000
00000000
00000000
00000000
00010000
00000000
00000000
00000000
10000000
,
00000000
00010000
00000000
10000000
00000000
00000000
00000000
00010000
00000000
00000000
00000000
10000000
00000000
00000000
00000000
00010000
,
00000000
10000000
00000000
00010000
00000000
00000000
00000000
10000000
00000000
00000000
00000000
00010000
00000000
00000000
00000000
10000000
,
00000000
00010000
00000000
10000000
00000000
00000000
00000000
00010000
00000000
00000000
00000000
10000000
00000000
00000000
00000000
00010000
,
00000000
10000000
00000000
00010000
00000000
00000000
00000000
20020000
00000000
00000000
00000000
00000000
00000000
00000000
00000000
00000000
,
00000000
00000000
00000000
00000000
,
00000000
00000000
30030000
00000000
00000000
00000000
00000000
10000000
00010000
10000000
00010000
10000000
00010000
10000000
00010000
10000000
,
00010000
10000000
00010000
10000000
00010000
10000000
00010000
10000000
00010000
10000000
00010000
10000000
00010000
10000000
00010000
10000000
,
00010000
00000000
00000000
00000000
00000000
00000000
00000000
00000000
00000000
00000000
00000000
00000000
10010000
00000000
00000000
00000000
00000000
00000000
10010000
00000000
00000000
00000000
00000000
00000000
00000000
10010000
00000000
00000000
00000000
00000000
00000000
00000000
10010000
00000000
00000000
00000000
00000000
00000000
00000000
00000000
00000000
00000000
00000000
00000000
00000000
00000000
00000000
00000000
00000000
00000000
00000000
00000000
00000000
00000000
00000000
00000000
00000000
00000000
00000000
00000000
00000000
00000000
00000000
00000000
,
00000000
00000000
20020000
00000000
,
00000000
00000000
00000000
00000000
,
00000000
30030000
00000000
00000000
;

//---------------dance-couple - Copied from----------------
#NOTES:
     dance-couple:
     Copied from:
     Medium:
     9:
     0.470,0.769,0.255,0.266,0.537,521.000,48.000,50.000,0.000,2.000:
00000000
00000000
00000000
00000000
,
00000000
00000000
00000000
00000000
00000000
01100000
00000000
00000000
,
00000000
10010000
00000000
00000000
00000000
00000000
00000000
00000000
,
00000000
00000000
00000000
00000000
00000000
00000000
00000000
10100000
,
00000000
00000000
01010000
00000000
,
00000000
00000000
00000000
00000000
,
00000000
10010000
01100000
10010000
,
00000000
00000000
00000000
10000000
00010000
10000000
00010000
10000000
,
00010000
10000000
00010000
10000000
00010000
10000000
00010000
10000000
,
00010000
10000000
00000000
00010000
01000000
10000000
01000000
00010000
,
01000000
10000000
01000000
00010000
00000000
20020000
00000000
00000000
,
00000000
00000000
00000000
30030000
,
00000000
00000000
00000000
10000000
10000000
00010000
00000000
10000000
,
10000000
00010000
00000000
10000000
10000000
00010000
10000000
01000000
,
00100000
00010000
00000000
10000000
00000000
10000000
00000000
10000000
,
00000000
10000000
00000000
10000000
00000000
10000000
00000000
10000000
,
00000000
10000000
00000000
20000000
00000000
30020000
00000000
00030000
,
00000000
10000000
01000000
10000000
01000000
10000000
01000000
10000000
,
01000000
10000000
01000000
20000000
00000000
30020000
00000000
10030000
,
00100000
10000000
00100000
10000000
00100000
10000000
00100000
10000000
,
00100000
10000000
00000000
20000000
00000000
30020000
00000000
10030000
,
00010000
10000000
00010000
10000000
00010000
10000000
00010000
10000000
,
00010000
10000000
00000000
10000000
00010000
10000000
00000000
01000000
,
00100000
01000000
00100000
01000000
00100000
01000000
00100000
01000000
,
00100000
01000000
00100000
20000000
00000000
30020000
00000000
10030000
,
00100000
10000000
01000000
10000000
00100000
10000000
01000000
10000000
,
00100000
10000000
01000000
00020000
00000000
20030000
00000000
30000000
,
00000000
00010000
00100000
00010000
01000000
00010000
00100000
00010000
,
01000000
00010000
00000000
20000000
00000000
30020000
00000000
10030000
,
00000000
00000000
10000000
01000000
00100000
00010000
00000000
00000000
00000000
00000000
10000000
00000000
00000000
00000000
00100000
00000000
,
00000000
00010000
00000000
10000000
00010000
10000000
00000000
10000000
,
00000000
10000000
00000000
00100000
00000000
00010000
00000000
00100000
,
00000000
10000000
00000000
22000000
00000000
00000000
33000000
00020000
,
00000000
00000000
00030000
02020000
00000000
00000000
03030000
00020000
,
00000000
00000000
00000000
20230000
00000000
00000000
00000000
30320000
,
00000000
00000000
00030000
00220000
00000000
00000000
00330000
00020000
,
00000000
00000000
00030000
20020000
00000000
00000000
30030000
20000000
,
00000000
00000000
30000000
20020000
00000000
00000000
30030000
02000000
,
00000000
00000000
03000000
02200000
00000000
00000000
03300000
00020000
,
00000000
00000000
00000000
20030000
00000000
00000000
00000000
30010000
,
00000000
00010000
00000000
10010000
00000000
00000000
00000000
00000000
,
00000000
10010000
00000000
00000000
00000000
10010000
00000000
00000000
,
00000000
10000000
00000000
10000000
00010000
10000000
00000000
00010000
,
10000000
00010000
00000000
10000000
00010000
10000000
00000000
00010000
,
10000000
00010000
00000000
10000000
00010000
10000000
00000000
00010000
,
10000000
00010000
00000000
10000000
00010000
10000000
00000000
10010000
,
00000000
00000000
10010000
00000000
00000000
00000000
10000000
00000000
00010000
00000000
00000000
10000000
00000000
00010000
00000000
00000000
,
00000000
00010000
00000000
00100000
00000000
01000000
00000000
10000000
00000000
00100000
00000000
01000000
00000000
00010000
00000000
00100000
,
00000000
01000000
00000000
10000000
00000000
00100000
00000000
01000000
00000000
00010000
00000000
00100000
00000000
01000000
00000000
10000000
,
00000000
00100000
00000000
01000000
00000000
00010000
00000000
01000000
00000000
10000000
00000000
01000000
00000000
00010000
00000000
01000000
,
00000000
10000000
00000000
01000000
00000000
00010000
00000000
00100000
00000000
10000000
00000000
00100000
00000000
00010000
00000000
00100000
,
00000000
10000000
00000000
00100000
00000000
00010000
00000000
00100000
00000000
00010000
00000000
10000000
00000000
00100000
00000000
10000000
,
00000000
00010000
00000000
01000000
00000000
00010000
00000000
10000000
00000000
01000000
00000000
10000000
00000000
00100000
00000000
01000000
,
00000000
00100000
00000000
10000000
00000000
00010000
00000000
10000000
00000000
00010000
00000000
10000000
00000000
00000000
10010000
00000000
,
00000000
10010000
00000000
20000000
00000000
00000000
00000000
00000000
,
00020000
00000000
30000000
00000000
20000000
00030000
00000000
30020000
,
00000000
00000000
00030000
20000000
00000000
00000000
00000000
30020000
,
00000000
00000000
00000000
20030000
00000000
00000000
30000000
00020000
,
00000000
00000000
00030000
10010000
00000000
00000000
00000000
10000000
,
00000000
00010000
00000000
00100000
00000000
01000000
00000000
00100000
,
00000000
00000000
10010000
00000000
00000000
00000000
00000000
10000000
00010000
00000000
10000000
00010000
00000000
00000000
00000000
00000000
,
00000000
00000000
00000000
00000000
00000000
00000000
00100000
00010000
00000000
10000000
01000000
00000000
00000000
00000000
00000000
00000000
,
00000000
00000000
00000000
00000000
00000000
00000000
10000000
00010000
00000000
10000000
00100000
00000000
00000000
00000000
00000000
00000000
,
00000000
00000000
00000000
00000000
00000000
00000000
00100000
01000000
00000000
01000000
00100000
00000000
00000000
00000000
00000000
00000000
,
00000000
00000000
00000000
00000000
00000000
00000000
10000000
00010000
00000000
00010000
10000000
00000000
00000000
00000000
00000000
00000000
,
00000000
00000000
00000000
00000000
00000000
00000000
10000000
00010000
00000000
00100000
10000000
00000000
00000000
00000000
00000000
00000000
,
00000000
00000000
00000000
00000000
00000000
00000000
00010000
10000000
00000000
10000000
00010000
00000000
00000000
00000000
00000000
00000000
,
00000000
00000000
00000000
00000000
00000000
00000000
01000000
00010000
00000000
10000000
00010000
00000000
00000000
00000000
00000000
00000000
,
00000000
00000000
00000000
10000000
00100000
01000000
00100000
01000000
,
10000000
00010000
00100000
01000000
10000000
00100000
01000000
00100000
,
00010000
10000000
01000000
00100000
01000000
00100000
10000000
00010000
,
00100000
01000000
00100000
10000000
01000000
00100000
10000000
01000000
,
01000000
00000000
10000000
00000000
00010000
00000000
10010000
00000000
00000000
00000000
00000000
00000000
00000000
00000000
00000000
10000000
,
00010000
00000000
10010000
20020000
,
30030000
00000000
00000000
00000000
10000000
00010000
10000000
00010000
00000000
00000000
00000000
10010000
00000000
00000000
00000000
01100000
,
00000000
00000000
00000000
10010000
00000000
00000000
00000000
01100000
00000000
00000000
00000000
10010000
00000000
00000000
10000000
00000000
,
00000000
10010000
00000000
10010000
00000000
00010000
01000000
00100000
,
01000000
00010000
00100000
01000000
10000000
01000000
00100000
01000000
,
00010000
01000000
10000000
00100000
00010000
01000000
00100000
10000000
,
00010000
10000000
01000000
00010000
01000000
00100000
10000000
01000000
,
00010000
00000000
10000000
00000000
01000000
00000000
00010000
00000000
10000000
00000000
00000000
00010000
00000000
00000000
00000000
01100000
,
00000000
00000000
00000000
01100000
00000000
00000000
00010000
00000000
10000000
00000000
00000000
00010000
00000000
00000000
00000000
01100000
,
00000000
00000000
00000000
01100000
00000000
00000000
10000000
00000000
00010000
00000000
00000000
10000000
00000000
01000000
00000000
00010000
,
00000000
01000000
00000000
10000000
00000000
01000000
00000000
00010000
00000000
01000000
00000000
10000000
00000000
01000000
00000000
00010000
,
00000000
01000000
00000000
10000000
00000000
00000000
00000000
10000000
00000000
00000000
00000000
10000000
00000000
00000000
00000000
10000000
,
00000000
00000000
00000000
10000000
00000000
00000000
00000000
10000000
00000000
00000000
00000000
10000000
00000000
00000000
00000000
10000000
,
00000000
00000000
00000000
10000000
00000000
00000000
00000000
10010000
00000000
00000000
00000000
00000000
00000000
00000000
00000000
00000000
,
00000000
00000000
00000000
10010000
00000000
00000000
00000000
00000000
00000000
00000000
00000000
10010000
00000000
00000000
00000000
00000000
,
00000000
00000000
00000000
10010000
00000000
00000000
00000000
10000000
00000000
00000000
00000000
10000000
00000000
00000000
00000000
10000000
,
00000000
00000000
00000000
10000000
00000000
00000000
00000000
10000000
00000000
00000000
00000000
10000000
00000000
00000000
00000000
10000000
,
00000000
00000000
00000000
10000000
00000000
00000000
00000000
10000000
00000000
00000000
00000000
10000000
00000000
00000000
00000000
10000000
,
00000000
00000000
00000000
10000000
00000000
00000000
00000000
10000000
00000000
00000000
00000000
10000000
00000000
00000000
00000000
10000000
,
00000000
00000000
00000000
10000000
00000000
00000000
00000000
00010000
00000000
00000000
00000000
00010000
00000000
00000000
00000000
00010000
,
00000000
00000000
00000000
00010000
00000000
00000000
00000000
00010000
00000000
00000000
00000000
00010000
00000000
00000000
00000000
00010000
,
00000000
00000000
00000000
00010000
00000000
00000000
00000000
00010000
00000000
00000000
00000000
00010000
00000000
00000000
00000000
00010000
,
00000000
00000000
00000000
00010000
00000000
00000000
00000000
00010000
00000000
00000000
00000000
00010000
00000000
00000000
00000000
00010000
,
00000000
00000000
00000000
00010000
00000000
00000000
00000000
10000000
00000000
00000000
00000000
00010000
00000000
00000000
00000000
10000000
,
00000000
00010000
00000000
10000000
00000000
00000000
00000000
00010000
00000000
00000000
00000000
10000000
00000000
00000000
00000000
00010000
,
00000000
10000000
00000000
00010000
00000000
00000000
00000000
10000000
00000000
00000000
00000000
00010000
00000000
00000000
00000000
10000000
,
00000000
00010000
00000000
10000000
00000000
00000000
00000000
00010000
00000000
00000000
00000000
10000000
00000000
00000000
00000000
00010000
,
00000000
10000000
00000000
00010000
00000000
00000000
00000000
10000000
00000000
00000000
00000000
00010000
00000000
00000000
00000000
10000000
,
00000000
00010000
00000000
10000000
00000000
00000000
00000000
00010000
00000000
00000000
00000000
10000000
00000000
00000000
00000000
00010000
,
00000000
10000000
00000000
00010000
00000000
00000000
00000000
10000000
00000000
00000000
00000000
00010000
00000000
00000000
00000000
10000000
,
00000000
00010000
00000000
10000000
00000000
00000000
00000000
00010000
00000000
00000000
00000000
10000000
00000000
00000000
00000000
00010000
,
00000000
10000000
00000000
00010000
00000000
00000000
00000000
20020000
00000000
00000000
00000000
00000000
00000000
00000000
00000000
00000000
,
00000000
00000000
00000000
00000000
,
00000000
00000000
30030000
00000000
00000000
00000000
00000000
10000000
00010000
10000000
00010000
10000000
00010000
10000000
00010000
10000000
,
00010000
10000000
00010000
10000000
00010000
10000000
00010000
10000000
00010000
10000000
00010000
10000000
00010000
10000000
00010000
10000000
,
00010000
00000000
00000000
00000000
00000000
00000000
00000000
00000000
00000000
00000000
00000000
00000000
10010000
00000000
00000000
00000000
00000000
00000000
10010000
00000000
00000000
00000000
00000000
00000000
00000000
10010000
00000000
00000000
00000000
00000000
00000000
00000000
10010000
00000000
00000000
00000000
00000000
00000000
00000000
00000000
00000000
00000000
00000000
00000000
00000000
00000000
00000000
00000000
00000000
00000000
00000000
00000000
00000000
00000000
00000000
00000000
00000000
00000000
00000000
00000000
00000000
00000000
00000000
00000000
,
00000000
00000000
20020000
00000000
,
00000000
00000000
00000000
00000000
,
00000000
30030000
00000000
00000000
;

//---------------dance-couple - Copied from----------------
#NOTES:
     dance-couple:
     Copied from:
     Hard:
     9:
     0.470,0.769,0.255,0.266,0.537,521.000,48.000,50.000,0.000,2.000:
00000000
00000000
00000000
00000000
,
00000000
00000000
00000000
00000000
00000000
01100000
00000000
00000000
,
00000000
10010000
00000000
00000000
00000000
00000000
00000000
00000000
,
00000000
00000000
00000000
00000000
00000000
00000000
00000000
10100000
,
00000000
00000000
01010000
00000000
,
00000000
00000000
00000000
00000000
,
00000000
10010000
01100000
10010000
,
00000000
00000000
00000000
10000000
00010000
10000000
00010000
10000000
,
00010000
10000000
00010000
10000000
00010000
10000000
00010000
10000000
,
00010000
10000000
00000000
00010000
01000000
10000000
01000000
00010000
,
01000000
10000000
01000000
00010000
00000000
20020000
00000000
00000000
,
00000000
00000000
00000000
30030000
,
00000000
00000000
00000000
10000000
10000000
00010000
00000000
10000000
,
10000000
00010000
00000000
10000000
10000000
00010000
10000000
01000000
,
00100000
00010000
00000000
10000000
00000000
10000000
00000000
10000000
,
00000000
10000000
00000000
10000000
00000000
10000000
00000000
10000000
,
00000000
10000000
00000000
20000000
00000000
30020000
00000000
00030000
,
00000000
10000000
01000000
10000000
01000000
10000000
01000000
10000000
,
01000000
10000000
01000000
20000000
00000000
30020000
00000000
10030000
,
00100000
10000000
00100000
10000000
00100000
10000000
00100000
10000000
,
00100000
10000000
00000000
20000000
00000000
30020000
00000000
10030000
,
00010000
10000000
00010000
10000000
00010000
10000000
00010000
10000000
,
00010000
10000000
00000000
10000000
00010000
10000000
00000000
01000000
,
00100000
01000000
00100000
01000000
00100000
01000000
00100000
01000000
,
00100000
01000000
00100000
20000000
00000000
30020000
00000000
10030000
,
00100000
10000000
01000000
10000000
00100000
10000000
01000000
10000000
,
00100000
10000000
01000000
00020000
00000000
20030000
00000000
30000000
,
00000000
00010000
00100000
00010000
01000000
00010000
00100000
00010000
,
01000000
00010000
00000000
20000000
00000000
30020000
00000000
10030000
,
00000000
00000000
10000000
01000000
00100000
00010000
00000000
00000000
00000000
00000000
10000000
00000000
00000000
00000000
00100000
00000000
,
00000000
00010000
00000000
10000000
00010000
10000000
00000000
10000000
,
00000000
10000000
00000000
00100000
00000000
00010000
00000000
00100000
,
00000000
10000000
00000000
22000000
00000000
00000000
33000000
00020000
,
00000000
00000000
00030000
02020000
00000000
00000000
03030000
00020000
,
00000000
00000000
00000000
20230000
00000000
00000000
00000000
30320000
,
00000000
00000000
00030000
00220000
00000000
00000000
00330000
00020000
,
00000000
00000000
00030000
20020000
00000000
00000000
30030000
20000000
,
00000000
00000000
30000000
20020000
00000000
00000000
30030000
02000000
,
00000000
00000000
03000000
02200000
00000000
00000000
03300000
00020000
,
00000000
00000000
00000000
20030000
00000000
00000000
00000000
30010000
,
00000000
00010000
00000000
10010000
00000000
00000000
00000000
00000000
,
00000000
10010000
00000000
00000000
00000000
10010000
00000000
00000000
,
00000000
10000000
00000000
10000000
00010000
10000000
00000000
00010000
,
10000000
00010000
00000000
10000000
00010000
10000000
00000000
00010000
,
10000000
00010000
00000000
10000000
00010000
10000000
00000000
00010000
,
10000000
00010000
00000000
10000000
00010000
10000000
00000000
10010000
,
00000000
00000000
10010000
00000000
00000000
00000000
10000000
00000000
00010000
00000000
00000000
10000000
00000000
00010000
00000000
00000000
,
00000000
00010000
00000000
00100000
00000000
01000000
00000000
10000000
00000000
00100000
00000000
01000000
00000000
00010000
00000000
00100000
,
00000000
01000000
00000000
10000000
00000000
00100000
00000000
01000000
00000000
00010000
00000000
00100000
00000000
01000000
00000000
10000000
,
00000000
00100000
00000000
01000000
00000000
00010000
00000000
01000000
00000000
10000000
00000000
01000000
00000000
00010000
00000000
01000000
,
00000000
10000000
00000000
01000000
00000000
00010000
00000000
00100000
00000000
10000000
00000000
00100000
00000000
00010000
00000000
00100000
,
00000000
10000000
00000000
00100000
00000000
00010000
00000000
00100000
00000000
00010000
00000000
10000000
00000000
00100000
00000000
10000000
,
00000000
00010000
00000000
01000000
00000000
00010000
00000000
10000000
00000000
01000000
00000000
10000000
00000000
00100000
00000000
01000000
,
00000000
00100000
00000000
10000000
00000000
00010000
00000000
10000000
00000000
00010000
00000000
10000000
00000000
00000000
10010000
00000000
,
00000000
10010000
00000000
20000000
00000000
00000000
00000000
00000000
,
00020000
00000000
30000000
00000000
20000000
00030000
00000000
30020000
,
00000000
00000000
00030000
20000000
00000000
00000000
00000000
30020000
,
00000000
00000000
00000000
20030000
00000000
00000000
30000000
00020000
,
00000000
00000000
00030000
10010000
00000000
00000000
00000000
10000000
,
00000000
00010000
00000000
00100000
00000000
01000000
00000000
00100000
,
00000000
00000000
10010000
00000000
00000000
00000000
00000000
10000000
00010000
00000000
10000000
00010000
00000000
00000000
00000000
00000000
,
00000000
00000000
00000000
00000000
00000000
00000000
00100000
00010000
00000000
10000000
01000000
00000000
00000000
00000000
00000000
00000000
,
00000000
00000000
00000000
00000000
00000000
00000000
10000000
00010000
00000000
10000000
00100000
00000000
00000000
00000000
00000000
00000000
,
00000000
00000000
00000000
00000000
00000000
00000000
00100000
01000000
00000000
01000000
00100000
00000000
00000000
00000000
00000000
00000000
,
00000000
00000000
00000000
00000000
00000000
00000000
10000000
00010000
00000000
00010000
10000000
00000000
00000000
00000000
00000000
00000000
,
00000000
00000000
00000000
00000000
00000000
00000000
10000000
00010000
00000000
00100000
10000000
00000000
00000000
00000000
00000000
00000000
,
00000000
00000000
00000000
00000000
00000000
00000000
00010000
10000000
00000000
10000000
00010000
00000000
00000000
00000000
00000000
00000000
,
00000000
00000000
00000000
00000000
00000000
00000000
01000000
00010000
00000000
10000000
00010000
00000000
00000000
00000000
00000000
00000000
,
00000000
00000000
00000000
10000000
00100000
01000000
00100000
01000000
,
10000000
00010000
00100000
01000000
10000000
00100000
01000000
00100000
,
00010000
10000000
01000000
00100000
01000000
00100000
10000000
00010000
,
00100000
01000000
00100000
10000000
01000000
00100000
10000000
01000000
,
01000000
00000000
10000000
00000000
00010000
00000000
10010000
00000000
00000000
00000000
00000000
00000000
00000000
00000000
00000000
10000000
,
00010000
00000000
10010000
20020000
,
30030000
00000000
00000000
00000000
10000000
00010000
10000000
00010000
00000000
00000000
00000000
10010000
00000000
00000000
00000000
01100000
,
00000000
00000000
00000000
10010000
00000000
00000000
00000000
01100000
00000000
00000000
00000000
10010000
00000000
00000000
10000000
00000000
,
00000000
10010000
00000000
10010000
00000000
00010000
01000000
00100000
,
01000000
00010000
00100000
01000000
10000000
01000000
00100000
01000000
,
00010000
01000000
10000000
00100000
00010000
01000000
00100000
10000000
,
00010000
10000000
01000000
00010000
01000000
00100000
10000000
01000000
,
00010000
00000000
10000000
00000000
01000000
00000000
00010000
00000000
10000000
00000000
00000000
00010000
00000000
00000000
00000000
01100000
,
00000000
00000000
00000000
01100000
00000000
00000000
00010000
00000000
10000000
00000000
00000000
00010000
00000000
00000000
00000000
01100000
,
00000000
00000000
00000000
01100000
00000000
00000000
10000000
00000000
00010000
00000000
00000000
10000000
00000000
01000000
00000000
00010000
,
00000000
01000000
00000000
10000000
00000000
01000000
00000000
00010000
00000000
01000000
00000000
10000000
00000000
01000000
00000000
00010000
,
00000000
01000000
00000000
10000000
00000000
00000000
00000000
10000000
00000000
00000000
00000000
10000000
00000000
00000000
00000000
10000000
,
00000000
00000000
00000000
10000000
00000000
00000000
00000000
10000000
00000000
00000000
00000000
10000000
00000000
00000000
00000000
10000000
,
00000000
00000000
00000000
10000000
00000000
00000000
00000000
10010000
00000000
00000000
00000000
00000000
00000000
00000000
00000000
00000000
,
00000000
00000000
00000000
10010000
00000000
00000000
00000000
00000000
00000000
00000000
00000000
10010000
00000000
00000000
00000000
00000000
,
00000000
00000000
00000000
10010000
00000000
00000000
00000000
10000000
00000000
00000000
00000000
10000000
00000000
00000000
00000000
10000000
,
00000000
00000000
00000000
10000000
00000000
00000000
00000000
10000000
00000000
00000000
00000000
10000000
00000000
00000000
00000000
10000000
,
00000000
00000000
00000000
10000000
00000000
00000000
00000000
10000000
00000000
00000000
00000000
10000000
00000000
00000000
00000000
10000000
,
00000000
00000000
00000000
10000000
00000000
00000000
00000000
10000000
00000000
00000000
00000000
10000000
00000000
00000000
00000000
10000000
,
00000000
00000000
00000000
10000000
00000000
00000000
00000000
00010000
00000000
00000000
00000000
00010000
00000000
00000000
00000000
00010000
,
00000000
00000000
00000000
00010000
00000000
00000000
00000000
00010000
00000000
00000000
00000000
00010000
00000000
00000000
00000000
00010000
,
00000000
00000000
00000000
00010000
00000000
00000000
00000000
00010000
00000000
00000000
00000000
00010000
00000000
00000000
00000000
00010000
,
00000000
00000000
00000000
00010000
00000000
00000000
00000000
00010000
00000000
00000000
00000000
00010000
00000000
00000000
00000000
00010000
,
00000000
00000000
00000000
00010000
00000000
00000000
00000000
10000000
00000000
00000000
00000000
00010000
00000000
00000000
00000000
10000000
,
00000000
00010000
00000000
10000000
00000000
00000000
00000000
00010000
00000000
00000000
00000000
10000000
00000000
00000000
00000000
00010000
,
00000000
10000000
00000000
00010000
00000000
00000000
00000000
10000000
00000000
00000000
00000000
00010000
00000000
00000000
00000000
10000000
,
00000000
00010000
00000000
10000000
00000000
00000000
00000000
00010000
00000000
00000000
00000000
10000000
00000000
00000000
00000000
00010000
,
00000000
10000000
00000000
00010000
00000000
00000000
00000000
10000000
00000000
00000000
00000000
00010000
00000000
00000000
00000000
10000000
,
00000000
00010000
00000000
10000000
00000000
00000000
00000000
00010000
00000000
00000000
00000000
10000000
00000000
00000000
00000000
00010000
,
00000000
10000000
00000000
00010000
00000000
00000000
00000000
10000000
00000000
00000000
00000000
00010000
00000000
00000000
00000000
10000000
,
00000000
00010000
00000000
10000000
00000000
00000000
00000000
00010000
00000000
00000000
00000000
10000000
00000000
00000000
00000000
00010000
,
00000000
10000000
00000000
00010000
00000000
00000000
00000000
20020000
00000000
00000000
00000000
00000000
00000000
00000000
00000000
00000000
,
00000000
00000000
00000000
00000000
,
00000000
00000000
30030000
00000000
00000000
00000000
00000000
10000000
00010000
10000000
00010000
10000000
00010000
10000000
00010000
10000000
,
00010000
10000000
00010000
10000000
00010000
10000000
00010000
10000000
00010000
10000000
00010000
10000000
00010000
10000000
00010000
10000000
,
00010000
00000000
00000000
00000000
00000000
00000000
00000000
00000000
00000000
00000000
00000000
00000000
10010000
00000000
00000000
00000000
00000000
00000000
10010000
00000000
00000000
00000000
00000000
00000000
00000000
10010000
00000000
00000000
00000000
00000000
00000000
00000000
10010000
00000000
00000000
00000000
00000000
00000000
00000000
00000000
00000000
00000000
00000000
00000000
00000000
00000000
00000000
00000000
00000000
00000000
00000000
00000000
00000000
00000000
00000000
00000000
00000000
00000000
00000000
00000000
00000000
00000000
00000000
00000000
,
00000000
00000000
20020000
00000000
,
00000000
00000000
00000000
00000000
,
00000000
30030000
00000000
00000000
;

//---------------dance-single - Copied from Copied f----------------
#NOTES:
     dance-single:
     Copied from Copied f:
     Hard:
     9:
     0.758,1.000,0.628,0.989,0.638,693.000,118.000,186.000,0.000,49.000:
0000
0000
0000
0000
0000
0000
0000
0000
2020
0000
0000
0000
3232
0000
0003
0300
,
0000
0000
0000
0000
0000
2020
0000
3232
,
0300
0003
0000
0000
0000
0000
0000
0000
0000
0000
0000
0000
2200
0000
0000
0000
,
3322
0000
0000
0030
0003
0000
0000
0000
0000
0000
0000
0000
0000
0000
0000
0202
,
0000
0023
0300
0232
0000
0303
0000
0000
1000
0000
0011
0000
0100
0000
0011
0000
,
1000
0011
0100
0011
1000
0011
0100
0011
,
1000
0000
0011
0000
0100
0000
0011
0100
1000
0000
0100
0000
0011
0000
0100
0000
,
1000
0100
0011
0100
1000
0000
0022
0000
,
0000
0000
0030
0000
,
0000
0000
0000
0000
0000
0000
0000
0000
0003
0000
0000
0000
0000
0000
0000
0000
0100
0000
0000
0000
1000
0000
0000
0010
0002
0000
0000
0000
0003
0000
0000
0000
,
0100
0000
0000
0000
1000
0000
0000
0100
0020
0000
0000
0000
0030
0000
0000
0000
0100
0000
0000
0000
1000
0000
0000
0000
0002
0000
0000
0000
0023
0000
0000
0000
,
0230
0000
0302
0000
0203
0000
0320
0000
1030
0100
0010
0001
0100
0001
0100
0001
,
0100
0000
0000
0000
0001
0100
0001
0100
0001
0000
0000
0000
0010
0100
1000
0000
,
0010
0100
1000
0000
0001
0010
0100
1000
0200
0000
0000
0300
2020
0000
3000
0000
,
0031
1000
0010
0100
1000
0010
1000
0100
,
0001
0010
0100
0000
0010
0000
1000
0000
0200
0000
0000
0300
2020
0000
3000
0000
,
0031
1000
0010
0100
1000
0010
1000
0100
,
0001
0010
0100
0000
0010
0000
1000
0000
0020
0000
0000
0030
0202
0000
0003
0000
,
0310
0100
0010
0100
1000
0100
1000
0100
,
0010
0001
0010
0000
0100
0000
1000
0000
0002
0000
0023
0000
0232
0000
0300
0000
,
0013
0000
0100
0000
0010
0000
0100
0000
1000
0000
0100
0000
0001
0010
0100
1000
,
0010
0100
0010
0000
0100
0000
1000
0000
2200
0000
0000
3300
2200
0000
0010
0000
,
3301
0010
0001
0100
1000
0100
0010
0001
,
0010
0001
0010
0000
0100
1000
0100
0000
2020
0000
0000
3030
2020
0000
0001
0000
,
3130
0010
0001
0100
1000
0100
0010
0001
,
0010
0001
0010
0000
0100
1000
0100
0000
0220
0000
0000
0330
0220
0000
0301
0000
,
1030
0010
0001
0100
1000
0100
0010
0001
,
0010
0001
0010
0000
0100
1000
0100
0000
0202
0000
0310
0000
0200
0000
1300
0000
,
0103
1000
0100
1000
0010
1000
0010
0100
,
0001
0000
0010
0000
0001
0000
0010
0000
2020
0000
0000
0000
0000
0000
0000
0030
,
0020
0000
0000
0000
0000
0000
0000
3030
2200
0000
0000
0000
0000
0000
0000
0000
,
0320
0000
0000
0000
0000
0000
0000
0000
3232
0000
0000
0000
0000
0000
0000
0003
,
0002
0000
0000
0003
0020
0000
0000
0000
,
0032
0000
0000
0000
0000
0000
0303
0000
2002
0000
0000
0000
0000
0000
0000
0003
,
3220
0000
0032
0000
,
2323
0000
0000
0000
3200
0000
0000
0030
,
2302
0000
0000
0000
0203
0000
0000
0300
,
3220
0300
0230
0000
1310
0100
0100
0001
,
0100
0000
0100
0010
1001
0000
0001
0000
0000
0000
0100
0010
1001
0000
0010
0000
,
0010
0010
0001
0001
1100
0010
2200
3300
,
0011
0100
0022
0033
1010
0100
2020
3030
,
0101
0010
0202
0303
0110
1000
0220
0330
,
0110
0001
0220
0330
1010
0100
2200
3300
,
1001
0000
0000
1001
0000
0000
1000
0000
0000
0100
0000
0000
0001
0000
0000
0100
,
0000
0000
1000
0000
0000
0100
0000
0000
0001
0000
0000
0100
0000
0000
1000
0000
,
0000
0100
0000
0000
0010
0000
0000
0100
0000
0000
1000
0000
0000
0100
0000
0000
,
0010
0000
0000
0100
0000
0000
0001
0000
0000
0010
0000
0000
1000
0000
0000
0100
,
0000
0000
0001
0000
0000
0010
0000
0000
1000
0000
0000
0100
0000
0000
0001
0000
,
0000
0010
0000
0000
1000
0000
0000
0100
0000
0000
0001
0000
0000
0010
0000
0000
,
1000
0000
0000
0100
0000
0000
0002
0000
0000
0010
0000
0000
0023
0000
0000
0001
,
0000
0230
0000
0000
1000
0000
0000
0010
,
0000
0000
0000
0000
2300
0000
0000
0010
0000
0000
3200
0000
0000
0001
0000
0000
,
0320
0000
0000
0100
0000
0000
0032
0000
0000
0000
0000
0000
0023
0000
0000
0000
,
0000
0230
0000
0000
0001
0000
0000
0010
,
0300
0000
0001
0010
0100
1000
0001
0010
,
0100
0000
1000
0000
0001
0000
0220
1000
0000
0000
0000
0000
0030
0000
0000
0000
,
0300
0000
0220
0001
0000
0000
0000
0000
0300
0000
0000
0000
0030
0000
0202
0010
,
0000
0000
0000
0000
0003
0000
0000
0000
0300
0000
0220
1000
0000
0000
0000
0000
,
0300
0000
0000
0000
0030
0000
0202
0010
0000
0000
0000
0000
0003
0000
0000
0000
,
0300
0000
0022
0100
0000
0000
0000
0000
0030
0000
0000
0000
0003
0000
0220
0001
,
0000
0000
0000
0000
0030
0000
0000
0000
0300
0000
2002
0010
0000
0000
0000
0000
,
0000
0000
0000
0000
3003
0000
1000
0000
0000
0100
0000
0000
0022
0000
0033
0000
,
0000
0000
1000
0000
0000
0100
0000
0000
0010
0000
0000
0001
0000
0000
0022
0000
,
0033
1000
0000
0000
0022
0000
0000
1030
0000
0000
0100
0000
0000
0010
0000
0000
,
0100
0000
0000
0010
0003
0000
0101
0000
0000
0000
0000
0000
0022
0000
0000
0000
,
0000
0133
1000
0000
0000
0000
0000
0000
0000
0000
0000
0000
0000
0000
0101
0010
,
0000
0000
0000
0000
0220
0000
0000
0000
0000
1330
0100
0000
0000
0000
0000
0000
,
0000
0000
0000
0000
0000
0000
1010
0100
0000
0000
0000
0000
0220
0000
0000
0000
,
0000
0331
0010
0000
0000
0000
0000
0000
0000
0000
0000
0000
0000
0000
1100
0010
,
0000
0000
0000
0000
2020
0000
0000
0000
0000
3031
0100
0000
0000
0000
0000
0000
,
0000
0000
0000
0000
0000
0000
0110
0000
0000
1000
0000
0000
0022
0000
0000
0000
,
0000
0100
1033
0000
0000
0000
0000
0000
0000
0000
0000
0000
0000
0000
0110
0000
,
0000
1000
0000
0000
0202
0000
0000
0000
0000
1000
0313
0000
0000
0000
0000
0000
,
0000
0000
0000
0000
0000
0000
1010
0000
0000
0001
0000
0000
0220
0000
0000
0000
,
0000
0001
1330
0000
0000
0000
0000
0000
0000
0000
0000
0000
0000
0000
1100
0000
,
0000
0001
0000
0000
2020
0000
0000
0000
0000
0000
3130
0000
0000
0000
0000
0000
,
0001
0000
0000
0000
0000
0000
0010
0000
0000
0000
0000
0000
0100
0000
0000
0000
0000
0000
0010
0000
0000
0100
0000
0000
0010
0000
0000
0000
0000
0000
0010
0000
,
0000
0100
0000
0000
0010
0000
0000
0000
0000
0000
0001
0000
0000
0010
0000
0000
0100
0000
0000
0000
0000
0000
1000
0000
0000
0100
0000
0000
0010
0000
0000
0000
,
0000
0000
0010
0000
0000
0001
0000
0000
0100
0000
0000
0000
0000
0000
0100
0000
0000
1000
0000
0000
0010
0000
0000
0000
0000
0000
0010
0000
0000
0001
0000
0000
,
0010
0000
0000
0000
0000
0000
0100
0000
0000
1000
0000
0000
0100
0000
0000
0000
0000
0000
0010
0000
0000
0100
0000
0000
0010
0000
0000
0000
0000
0000
0001
0000
,
0000
0100
0000
0000
0010
0000
0000
0000
0000
0000
0100
0000
0000
0010
0000
0000
1000
0000
0000
0000
0000
0000
0100
0000
0000
1000
0000
0000
0010
0000
0000
0000
,
0000
0000
0001
0000
0000
0010
0000
0000
1000
0000
0000
0000
0000
0000
0010
0000
0000
0100
0000
0000
0010
0000
0000
0000
0000
0000
0000
0000
0000
0000
0000
0000
,
0101
0000
0100
0011
0000
0000
0101
0000
,
0000
0100
1010
0000
1000
0100
0010
0101
,
0000
0000
0000
0000
0000
0000
0000
0000
1100
0000
0000
0010
0000
0000
0001
0000
0000
0000
0000
0000
0000
0000
0000
0000
0000
0000
0000
0000
0000
0000
0000
0000
,
0000
1000
0000
0100
0000
1000
0000
0200
0000
0000
0000
0000
0001
0000
0000
0000
,
0000
0010
0000
0000
1000
0000
0000
1000
,
0300
0000
0000
1000
0100
0000
0000
0000
0000
0100
0010
0000
0000
0000
0000
0100
,
0001
0000
0000
0000
0000
0010
0001
0000
1000
0100
0000
0100
0010
0000
0010
0001
,
0000
0001
0110
0000
0010
0100
0000
0100
1000
0000
1000
0110
0000
0100
0010
0000
,
0010
0001
0000
0001
0010
0000
0010
1100
0000
0010
0100
0000
0010
1100
0000
0010
,
0100
0000
0010
1100
0000
0000
0000
1000
0000
0000
0010
0000
0000
0002
0000
0000
,
0000
1003
0100
0010
0000
0000
0000
1000
0100
0010
0000
0000
0000
0000
0000
1000
,
0000
0000
0100
0000
0000
0020
0000
0000
0000
1030
0100
0001
0000
0000
0000
1000
,
0100
0001
0000
0000
0000
0000
0000
0001
0000
0000
0010
0000
0000
0002
0000
0000
,
0023
0000
0000
0230
0000
0000
0320
0000
0000
0230
0000
0000
0302
0000
0000
2003
,
0000
0000
0000
0000
3020
0000
0000
0000
0000
0000
0230
0000
0000
0000
0000
0000
0310
0000
0000
0000
0000
0000
0100
0000
0000
0010
0000
0000
1000
0000
0000
0100
,
0000
0000
0010
0000
0000
0001
0000
0000
0000
0000
0000
0000
1100
0000
0000
0000
0000
0000
0110
0000
0000
0000
0000
0000
1100
0000
0000
0000
0000
0000
0110
0000
,
0000
0000
0011
0000
0000
0110
0000
0000
0101
0000
0000
1010
0000
0000
0202
0000
,
0000
0303
0000
0000
0010
0000
0000
0100
0000
0000
0010
0000
0000
0100
0000
0000
,
0022
0000
0000
0133
0000
0000
0100
0000
0000
0010
0000
0000
0202
0000
0000
0313
,
0000
0000
0100
0000
0000
0000
0000
0000
0202
0000
0000
0303
0000
0000
0110
0000
,
0000
1010
0000
0000
0011
0000
0000
0101
0000
0000
1010
0000
0000
0110
0000
0000
,
1010
0000
0000
0101
0000
0000
0000
0000
0000
0000
1000
0000
0000
1000
0000
0000
,
0202
0000
0000
1303
0000
0000
1000
0000
0000
1000
0000
0000
0220
0000
0000
1330
,
0000
0000
1000
0000
0000
1000
0000
0000
0002
0000
0000
0023
0000
0000
0230
0000
,
0000
0000
0320
0000
0000
0000
0000
0000
0230
0000
0000
0000
0000
0000
0320
0000
0000
0000
0000
0000
0031
0000
0000
0010
0000
0000
0100
0000
0000
1000
0000
0000
,
0100
0000
0000
1000
0000
0000
0100
0000
0000
0010
0000
0000
0001
0000
0000
0010
0000
0000
0100
0000
0000
1000
0000
0000
0001
0000
0000
0010
0000
0000
0100
0000
,
0000
1000
0000
0000
0001
0000
0000
0010
0000
0000
0100
0000
0000
0000
0000
0000
0000
0000
0000
0000
0000
0000
0000
0000
0000
0000
0000
0000
0000
0000
0000
0000
,
0000
0000
0000
0000
0000
0000
0000
0000
2000
0000
0000
0000
0000
0000
0000
0000
0000
3100
0000
0000
0010
0000
0000
0000
0000
0000
0000
0000
0000
0000
0000
0000
,
0000
0000
0000
0000
0000
0000
0000
0000
0000
0000
0000
0000
0001
0000
0000
0020
0000
0000
0000
0000
0000
0000
0000
0000
0230
0000
0000
0000
0000
0000
0000
0000
,
0000
0000
0000
0000
2300
0000
0000
0000
0000
0000
0000
0000
0000
0000
0000
0000
0000
0000
0000
0000
0000
0000
0000
0000
0000
0000
0000
0000
3001
0000
0000
0010
,
0000
0000
0100
0000
0000
1000
0000
0000
0000
0000
0000
0000
0000
0000
0000
0000
0000
0000
0000
0000
0100
0000
0000
0000
0000
0000
0010
0000
0000
0000
0000
0000
,
0001
0000
0000
0000
0000
0000
0001
0000
0000
0100
0000
0000
0001
0000
0000
0000
,
0000
0000
0100
0000
0000
0010
0000
0000
0001
0000
0000
0000
0000
0000
0001
0000
,
0000
0000
0100
0000
0000
0000
0000
0000
0001
0000
0000
0100
0000
0000
1000
0000
0000
0000
0000
0000
0100
0000
0000
0000
0000
0000
0010
0000
0000
0000
0000
0000
,
0001
0000
0000
1000
0000
0000
0001
0000
0000
0100
0000
0000
0001
0000
0000
0000
,
0000
0000
0100
0000
0000
0010
0000
0000
0001
0000
0000
1000
0000
0000
0001
0000
,
0000
0000
0100
0000
0000
0000
0000
0000
0001
0000
0000
0010
0000
0000
0100
0000
0000
0000
0000
0000
0002
0000
0000
0000
0000
0000
0000
0000
0000
0000
0000
0000
,
0100
0000
0000
0000
0000
0000
0023
0000
0000
1000
0000
0000
0100
0000
0000
0000
,
0000
0230
0000
0000
0010
0000
0000
2300
,
0000
0010
0000
0000
0100
0000
0000
0000
0000
0000
3002
0000
0000
0000
0000
0000
,
1000
0000
0000
0100
0000
0000
0023
0000
0000
1000
0000
0000
0100
0000
0000
0000
,
0000
0000
0230
0000
0000
0001
0000
0000
0010
0000
0000
0001
0000
0000
2300
0000
,
0000
0010
0000
0000
0001
0000
0000
0010
0000
0000
3220
0000
0000
0000
0000
0000
,
0000
0000
0000
0000
,
0000
0000
0000
0000
,
0300
0000
0000
0000
0000
0000
0000
0000
0000
0000
0000
0000
0000
0000
0000
0000
0000
0000
0000
0000
0031
0000
0000
0010
0000
0000
0100
0000
0000
0001
0000
0000
,
0010
0000
0000
0100
0000
0000
0001
0000
0000
0010
0000
0000
0100
0000
0000
0001
0000
0000
0010
0000
0000
0100
0000
0000
0001
0000
0000
0010
0000
0000
0100
0000
,
0000
0001
0000
0000
0010
0000
0000
0100
0000
0000
0001
0000
0000
0010
0000
0000
0100
0000
0000
0001
0000
0000
0010
0000
0000
0100
0000
0000
0001
0000
0000
0010
,
0000
0100
0000
0000
0001
0000
0010
0000
0100
0000
1000
0000
0000
0000
0000
0000
,
0000
0000
0000
0200
0000
0000
0000
0000
,
0000
0000
0000
0000
,
0000
0000
0000
0000
,
0000
0000
0000
0000
,
0000
0000
0000
0000
0000
0000
0000
0300
;

//---------------dance-single - Copied from Copied f----------------
#NOTES:
     dance-single:
     Copied from Copied f:
     Medium:
     7:
     0.623,0.831,0.473,0.841,0.396,573.000,89.000,158.000,0.000,21.000:
0000
0000
0000
0000
0000
0000
0000
0000
2020
0000
0000
3030
2020
0000
0000
0000
,
3030
0000
0000
0000
0000
0000
0000
0000
0000
0000
0220
0000
0000
0330
0220
0000
,
0000
0000
0000
0330
0000
0000
0000
0000
0000
0000
0000
0000
0000
0000
0000
0000
0000
0000
2200
0000
0000
0000
3300
0000
,
2200
0000
0000
0000
3300
0000
0000
0000
0000
0000
0000
0000
0000
0000
0000
2020
,
0000
3130
0000
0220
0000
0000
0300
0000
0130
0000
0001
0000
0100
0000
0001
0000
,
0100
0001
0100
0001
0100
0010
0100
0010
,
0100
0010
0100
0010
1000
0100
0011
0100
,
1000
0100
0011
0100
1000
0000
0012
0000
,
0000
0000
0000
0000
,
0000
0000
0000
0000
0000
0000
0000
0000
0003
0000
0000
0000
0000
0000
0000
0000
1000
0000
0000
0000
1000
0000
0000
0010
0001
0000
0000
0000
0000
0000
0000
0000
,
1000
0000
0000
0000
1000
0000
0000
0100
0010
0000
0000
0000
0000
0000
0000
0000
1000
0000
0000
0000
1000
0000
0000
0000
0001
0000
0000
0000
0010
0000
0000
0000
,
0100
0000
0001
0000
1000
0000
0100
0000
1000
0000
0010
0001
0100
0001
0100
0001
,
0100
0000
0000
0000
0001
0100
0001
0100
0001
0000
0000
0000
0010
0100
1000
0000
,
0010
0100
1000
0000
0001
0010
0100
1000
0200
0000
0000
0300
2000
0000
0000
0000
,
3001
1000
0010
0100
1000
0010
1000
0100
,
0001
0010
0100
0000
0010
0000
1000
0000
0200
0000
0000
0300
0020
0000
0000
0000
,
0031
1000
0010
0100
1000
0010
1000
0100
,
0001
0010
0100
0000
0010
0000
1000
0000
0020
0000
0000
0030
0020
0000
0000
0000
,
0031
0100
0010
0100
1000
0100
1000
0100
,
0010
0001
0010
0000
0100
0000
1000
0000
0002
0000
0023
0000
0032
0000
0000
0000
,
0013
0100
0010
0100
1000
0100
1000
0100
,
0010
0001
0010
0000
0100
0000
1000
0000
2200
0000
0000
3300
2200
0000
0010
0000
,
3301
0010
0001
0100
1000
0100
0010
0001
,
0010
0001
0010
0000
0100
1000
0100
0000
2020
0000
0000
3030
2020
0000
0000
0000
,
3130
0010
0001
0100
1000
0100
0010
0001
,
0010
0001
0010
0000
0100
1000
0100
0000
0220
0000
0000
0330
0220
0000
0000
0000
,
1330
0010
0001
0100
1000
0100
0010
0001
,
0010
0001
0010
0000
0100
1000
0100
0000
0202
0000
0323
0000
0032
0000
0000
0000
,
0013
1000
0100
1000
0010
1000
0010
0100
,
0001
0000
0010
0000
0001
0000
0010
0000
2020
0000
0000
0000
0000
0000
0000
0030
,
0020
0000
0000
0000
0000
0000
0000
3030
2200
0000
0000
0000
0000
0000
0000
0000
,
0320
0000
0000
0000
0000
0000
0000
0000
3232
0000
0000
0000
0000
0000
0000
0003
,
0002
0000
0000
0003
0020
0000
0000
0000
,
0032
0000
0000
0000
0000
0000
0303
0000
2002
0000
0000
0000
0000
0000
0000
0003
,
3220
0000
0032
0000
,
2323
0000
0000
0000
3200
0000
0000
0030
,
2302
0000
0203
0000
,
3320
0000
0031
0000
1010
0010
0010
0001
,
0010
0010
1010
0100
0000
0010
1001
0010
,
0010
0010
0001
0001
2000
3100
2000
3000
,
0020
0031
0020
0030
0200
0310
0200
0300
,
0020
0031
0020
0030
0200
2300
3200
0300
,
0002
0023
0032
0003
0020
0230
0322
0033
,
1001
0000
0000
0110
0000
0000
1000
0000
0000
0100
0000
0000
0001
0000
0000
0100
,
0000
0000
1000
0000
0000
0100
0000
0000
0001
0000
0000
0100
0000
0000
1000
0000
,
0000
0100
0000
0000
0010
0000
0000
0100
0000
0000
1000
0000
0000
0100
0000
0000
,
0010
0000
0000
0100
0000
0000
0001
0000
0000
0010
0000
0000
1000
0000
0000
0100
,
0000
0000
0001
0000
0000
0010
0000
0000
1000
0000
0000
0100
0000
0000
0001
0000
,
0000
0010
0000
0000
1000
0000
0000
0100
0000
0000
0001
0000
0000
0010
0000
0000
,
1000
0000
0000
0100
0000
0000
0002
0000
0000
0000
0000
0000
0023
0000
0000
0000
,
0000
0230
0000
0000
0001
0000
0000
0010
,
0000
0000
0000
0000
2300
0000
0000
0010
0000
0000
3200
0000
0000
0001
0000
0000
,
0320
0000
0000
0100
0000
0000
0032
0000
0000
0000
0000
0000
0023
0000
0000
0000
,
0000
0230
0000
0000
0001
0000
0000
0010
,
0300
0000
0001
0010
0100
1000
0001
0010
,
0100
1000
0001
0220
0000
0000
0000
0000
,
0330
0220
0000
0000
0000
0000
0330
0202
,
0000
0000
0000
0000
0303
0220
0000
0000
,
0000
0000
0330
0202
0000
0000
0000
0000
,
0303
0022
0000
0000
0000
0000
0033
0220
,
0000
0000
0000
0000
0330
2002
0000
0000
,
0000
0000
0000
0000
3003
0000
0010
0000
0000
1000
0000
0000
0011
0000
0000
0000
,
0000
0000
0001
0000
0000
0010
0000
0000
0001
0000
0000
1000
0000
0000
0011
0000
,
0000
1000
0000
0000
0011
0000
0000
0100
0000
0000
0010
0000
0000
0001
0000
0000
,
0002
0000
0000
0113
0000
0000
0022
0000
,
0000
0033
0000
0000
0000
0000
0000
0101
,
0000
0000
0220
0000
0000
0330
0000
0000
,
0000
0000
0000
1010
0000
0000
0220
0000
,
0000
0330
0000
0000
0000
0000
0000
1100
,
0000
0000
2020
0000
0000
3030
0000
0000
,
0000
0000
0000
0000
0000
0000
0110
0000
0000
1000
0000
0000
0022
0000
0000
0000
,
0000
0033
0000
0000
0000
0000
0000
0110
,
0000
1000
0000
0000
0202
0000
0000
0000
0000
0000
0303
0000
0000
0000
0000
0000
,
0000
0000
0000
0000
0000
0000
1010
0000
0000
0001
0000
0000
0220
0000
0000
0000
,
0000
0330
0000
0000
0000
0000
0000
1100
,
0000
0001
0000
0000
2020
0000
0000
0000
0000
0000
3030
0000
0000
0000
0000
0000
,
0001
0000
0000
0000
0000
0000
0100
0000
0000
0100
0000
0000
0010
0000
0000
0010
,
0000
0000
0001
0000
0000
0001
0000
0000
0100
0000
0000
0100
0000
0000
0010
0000
,
0000
0010
0000
0000
0100
0000
0000
0100
0000
0000
1000
0000
0000
1000
0000
0000
,
0100
0000
0000
0100
0000
0000
0010
0000
0000
0010
0000
0000
0001
0000
0000
0001
,
0000
0000
0010
0000
0000
0100
0000
0000
1000
0000
0000
0100
0000
0000
0010
0000
,
0000
0001
0000
0000
1000
0000
0000
0001
0000
0000
1001
0000
0000
0000
0000
0000
,
0110
0000
0100
0011
0000
0000
0101
0000
,
0000
0010
0100
0000
1000
0100
0010
0101
,
0000
0110
0000
0000
,
0000
1000
0000
0100
0000
1000
0000
0200
0000
0000
0000
0000
0001
0000
0000
0000
,
0000
0010
0000
0000
1000
0000
0000
1000
,
0000
0300
0000
1000
0100
0000
0000
0000
0000
0100
0010
0000
0000
0000
0000
0010
,
0001
0000
0000
0000
0000
0000
0100
0000
0000
0100
0000
0000
1000
0000
0000
0100
,
0000
0000
0011
0000
0000
0110
0000
0000
0100
0000
0000
0110
0000
0000
0001
0000
,
0000
0110
0000
0000
0001
0000
0000
0110
0000
0000
0100
0000
0000
0110
0000
0000
,
1000
0000
0000
0110
0000
0000
0000
1000
0000
0000
0010
0000
0000
0002
0000
0000
,
0000
1003
0100
0010
0000
0000
0000
1000
0100
0010
0000
0000
0000
0000
0000
1000
,
0000
0000
0100
0000
0000
0020
0000
0000
0000
1030
0100
0001
0000
0000
0000
1000
,
0100
0001
0000
0000
0000
0000
0000
0001
0000
0000
0010
0000
0000
0002
0000
0000
,
0023
0000
0000
0230
0000
0000
0320
0000
0000
0230
0000
0000
0302
0000
0000
2003
,
0000
0000
0000
0000
3020
0000
0000
0000
0000
0000
0230
0000
0000
0000
0000
0000
0310
0000
0000
0000
0000
0000
0100
0000
0000
0010
0000
0000
1000
0000
0000
0100
,
0000
0000
0010
0000
0000
0001
0000
0000
0000
0000
0000
0000
1100
0000
0000
0000
0000
0000
0100
0000
0000
0000
0000
0000
1100
0000
0000
0000
0000
0000
0100
0000
,
0000
0000
0011
0000
0000
0010
0000
0000
0101
0000
0000
0010
0000
0000
0101
0000
,
0000
0000
0000
0000
0100
0000
0000
0000
0000
0000
0100
0000
0000
0010
0000
0000
,
0101
0000
0000
0010
0000
0000
0100
0000
0000
0010
0000
0000
0101
0000
0000
0010
,
0000
0100
0000
0000
0101
0000
0000
0010
,
0000
1100
0000
0000
0001
0000
0000
0110
0000
0000
0100
0000
0000
0110
0000
0000
,
1000
0000
0000
0110
0000
0000
0000
0000
0000
0000
1000
0000
0000
1000
0000
0000
,
0101
0000
0000
0110
,
0000
0000
0000
0000
0000
0000
0000
0000
0001
0000
0000
0010
0000
0000
0100
0000
,
0000
0010
0000
0000
0100
0000
0000
0001
0000
0000
2200
0000
0000
0000
0300
0000
,
0000
0000
0000
3220
0000
0030
0000
0000
,
0000
0000
0000
0000
0301
0000
0000
0010
0000
0000
0100
0000
0000
0000
0000
0000
0000
0000
0000
0000
0000
0000
0000
0000
0000
0000
0000
0000
0000
0000
0000
0000
,
0000
0000
0000
0000
0000
0000
0000
0000
2000
0000
0000
0000
0000
0000
0000
0000
0000
3100
0000
0000
0010
0000
0000
0000
0000
0000
0000
0000
0000
0000
0000
0000
,
0000
0000
0000
0000
0000
0000
0000
0000
0000
0000
0000
0000
0001
0000
0000
0020
0000
0000
0000
0000
0000
0000
0000
0000
0230
0000
0000
0000
0000
0000
0000
0000
,
0000
0000
0000
0000
2300
0000
0000
0000
0000
0000
0000
0000
0000
0000
0000
0000
0000
0000
0000
0000
0000
0000
0000
0000
0000
0000
0000
0000
3001
0000
0000
0010
,
0000
0000
0100
0000
0000
1000
0000
0000
0000
0000
0000
0000
0000
0000
0000
0000
0000
0000
0000
0000
0100
0000
0000
0000
0000
0000
0010
0000
0000
0000
0000
0000
,
0001
0000
0000
0000
0000
0000
0001
0000
0000
0100
0000
0000
0001
0000
0000
0000
,
0000
0000
0100
0000
0000
0010
0000
0000
0001
0000
0000
0000
0000
0000
0001
0000
,
0000
0100
0000
0000
0001
0000
0000
1000
0000
0000
0100
0000
0000
0010
0000
0000
,
0001
0000
0000
1000
0000
0000
0001
0000
0000
0100
0000
0000
0001
0000
0000
0000
,
0000
0000
0100
0000
0000
0010
0000
0000
0001
0000
0000
1000
0000
0000
0001
0000
,
0000
0100
0000
0000
0001
0000
0000
0001
0000
0000
0002
0000
0000
0000
0000
0000
,
0100
0000
0000
0000
0000
0000
0023
0000
0000
1000
0000
0000
0100
0000
0000
0000
,
0000
0230
0000
0000
0010
0000
0000
2300
,
0000
0010
0000
0000
0100
0000
0000
0000
0000
0000
3002
0000
0000
0000
0000
0000
,
1000
0000
0000
0100
0000
0000
0023
0000
0000
1000
0000
0000
0100
0000
0000
0000
,
0000
0000
0230
0000
0000
0001
0000
0000
0010
0000
0000
0001
0000
0000
2300
0000
,
0000
0010
0000
0000
0001
0000
0000
0010
0000
0000
3220
0000
0000
0000
0000
0000
,
0000
0000
0000
0000
,
0000
0000
0000
0000
,
0000
0000
0000
0000
0000
0000
0000
0300
0000
0000
0232
0000
0000
0000
0000
0000
,
0000
0000
0000
0000
,
0000
0000
0000
0000
,
0000
0303
0001
0010
0100
1000
0000
0000
,
0000
0000
0000
0200
0000
0000
0000
0000
,
0000
0000
0000
0000
,
0000
0000
0000
0000
,
0000
0000
0000
0000
,
0000
0000
0000
0000
0000
0000
0000
0300
;
