#TITLE:PROTECTERS;
#SUBTITLE:YS 1&2 eternal O.S.T;
#ARTIST:Falcom J.D.K Sound team;
#TITLETRANSLIT:;
#SUBTITLETRANSLIT:;
#ARTISTTRANSLIT:;
#CREDIT:;
#BANNER:PROTECTERS.png;
#BACKGROUND:PROTECTERS.jpg;
#LYRICSPATH:;
#CDTITLE:cdtitle.png;
#MUSIC:PROTECTERS.mp3;
#OFFSET:-0.550;
#SAMPLESTART:40.040;
#SAMPLELENGTH:12.000;
#SELECTABLE:YES;
#BPMS:0.000=171.000;
#STOPS:;
#BGCHANGES:;
// cache tags:
#FIRSTBEAT:0.000;
#LASTBEAT:500.000;
#SONGFILENAME:Songs/alice 4th complete step/PROTECTERS/PROTECTERS.sm;
#HASMUSIC:1;
#HASBANNER:1;
#MUSICLENGTH:181.028;
// end cache tags

//---------------dance-single - ----------------
#NOTES:
     dance-single:
     :
     Challenge:
     17:
     1.000,1.000,1.000,0.740,1.000,1645.000,500.000,134.000,0.000,8.000:
0100
1000
0100
1000
0100
1000
0100
1000
0010
0100
0010
0100
0010
0100
0010
0100
,
0001
0010
0001
0010
0001
0010
0001
0010
1000
0001
1000
0001
1000
0001
1000
0001
,
0100
1000
0100
1000
0100
1000
0100
1000
0010
0100
0010
0100
0010
0100
0010
0100
,
0001
0010
0001
0010
0001
0010
0001
0010
1000
0100
0010
0001
0100
0010
1001
0010
,
1000
0100
0010
0100
1001
0010
0100
0001
1000
0100
0010
0100
1001
0010
0100
1000
,
0001
0010
0100
0010
1001
0100
0010
0001
0100
1000
0100
0001
0110
1000
0100
0010
,
0001
0010
0100
0010
1001
0100
0010
1000
0001
0010
0100
0010
1001
0100
0010
0001
,
1000
0100
0010
0100
1001
0010
0100
0001
1000
0100
0010
0100
1001
0100
0010
0001
,
1000
0100
0010
0100
0011
1000
0100
1000
0001
0100
0010
0100
0011
1000
0100
1000
,
0001
0010
0100
0010
1100
0001
1000
0010
0100
0001
0010
0001
1100
0010
1000
0100
,
0001
0010
0100
0010
1100
0001
0100
0010
1000
0100
0010
0100
0011
1000
0010
0100
,
0001
0010
0100
0010
1100
0001
0100
0010
1001
0101
1000
0010
0100
0001
1000
0010
,
0202
0000
0000
0000
0000
0303
1010
0101
2020
0000
0000
0000
0000
3030
1001
0110
,
2002
0000
0000
0000
0000
3003
0101
1010
0202
0000
0000
0000
0000
0303
0110
1001
,
0220
0000
0000
0000
0000
0330
0011
1100
0022
0000
0000
0000
0000
0033
1100
0011
,
2200
0000
0000
0000
0000
3300
0110
1000
0011
1100
0011
0000
0110
1001
0110
0000
,
2020
0000
0000
0000
0000
3030
0101
1010
0202
0000
0000
0000
0000
0303
1001
0110
,
2002
0000
0000
0000
0000
3003
1010
0101
2020
0000
0000
0000
0000
3030
0110
1001
,
0220
0000
0000
0000
0000
0330
0011
0100
2020
0000
0000
0000
0000
3030
1100
0010
,
0202
0000
0000
0000
0000
0303
0110
1000
0011
1100
0010
0100
1001
0000
0100
0010
,
1001
0100
1000
0100
0011
1000
0010
0100
1001
0010
0001
0010
1100
0001
1000
0010
,
2200
0000
3000
0000
1301
0010
0001
0010
0101
1000
0100
0010
1001
0100
1000
0010
,
0101
1000
0010
0100
1001
0010
0001
0100
1010
0001
0100
0010
1001
0100
0001
0100
,
0022
0000
0003
0000
1130
0001
1010
0000
0101
1000
0110
0000
1001
0110
1001
0110
,
1001
0010
0100
1000
0011
0100
1000
0001
0010
0100
1000
0001
0110
0000
0000
0000
,
1001
0100
0010
0001
1100
0010
0001
1000
0100
0010
0001
1000
0110
0001
1000
0100
,
0010
0001
0010
1000
0110
0001
0010
1000
0010
0001
0010
1000
0110
0001
0010
1000
,
0100
0000
0000
0010
0000
0000
0001
0000
0000
0010
0000
0000
1100
0000
0000
0010
0000
0000
0001
0000
0000
0010
0000
0000
1000
0000
0100
0000
0001
0000
0100
0000
0000
0010
0000
0000
1100
0000
0000
0011
0000
0000
1100
0000
0000
0011
0000
0000
,
1000
0010
0100
0010
1001
0100
0010
1000
0001
0010
0100
0010
1001
0100
0010
0001
,
1000
0100
0010
0100
1001
0010
0100
1000
0010
0001
0010
1000
0110
0001
0010
0100
,
1000
0100
0010
0100
1001
0010
0100
0001
1000
0100
0010
0100
1001
0010
0100
1000
,
0001
0010
0100
0010
1001
0100
0010
1000
0001
0010
0100
0010
1001
0100
0010
0001
,
1000
0100
0010
0100
0011
1000
0100
1000
0001
0100
0010
0100
0011
1000
0100
1000
,
0001
0010
0100
0010
1100
0001
1000
0010
0100
0001
0010
0001
1100
0010
1000
0100
,
0001
0010
0100
0010
1100
0001
0100
0010
1000
0100
0010
0100
0011
1000
0010
0100
,
0001
0010
0100
0010
1100
0001
0100
0010
1001
0101
1000
0010
0100
0001
1000
0010
,
0202
0000
0000
0000
0000
0303
1010
0101
2020
0000
0000
0000
0000
3030
1001
0110
,
2002
0000
0000
0000
0000
3003
0101
1010
0202
0000
0000
0000
0000
0303
0110
1001
,
0220
0000
0000
0000
0000
0330
0011
1100
0022
0000
0000
0000
0000
0033
1100
0011
,
2200
0000
0000
0000
0000
3300
0110
1000
0011
1100
0011
0000
0110
1001
0110
0000
,
2020
0000
0000
0000
0000
3030
0101
1010
0202
0000
0000
0000
0000
0303
1001
0110
,
2002
0000
0000
0000
0000
3003
1010
0101
2020
0000
0000
0000
0000
3030
0110
1001
,
0220
0000
0000
0000
0000
0330
0011
0100
2020
0000
0000
0000
0000
3030
1100
0010
,
0202
0000
0000
0000
0000
0303
0110
1000
0011
1100
0010
0100
1001
0000
0100
0010
,
1001
0100
1000
0100
0011
1000
0010
0100
1001
0010
0001
0010
1100
0001
1000
0010
,
0202
0000
0003
0000
1301
0010
0001
0010
0101
1000
0100
0010
1001
0100
1000
0010
,
0101
1000
0010
0100
1001
0010
0001
0100
1010
0001
0100
0010
1001
0100
0001
0100
,
2020
0000
3000
0000
1130
0001
1010
0000
0101
1000
0011
0000
1001
0110
1001
0110
,
1001
0100
0010
0001
1100
0010
0001
1000
0100
0010
0001
1000
0110
0000
0000
0000
,
1001
0010
0100
1000
0011
0100
1000
0001
0010
0100
1000
0001
0110
1000
0001
0010
,
0100
1000
0100
0001
0110
1000
0100
0001
0010
1000
0010
0001
0110
1000
0010
0001
,
0100
0000
0000
1000
0000
0000
0010
0000
0000
1000
0000
0000
0101
0000
0000
1000
0000
0000
0010
0000
0000
1000
0000
0000
0001
0000
0100
0000
1000
0000
0010
0000
0000
0100
0000
0000
1001
0000
0000
0110
0000
0000
1001
0000
0000
0010
0000
0000
,
0101
1000
0010
0100
0011
0100
0001
1000
0010
0100
0011
0100
0001
1000
0010
0100
,
0011
0100
0001
1000
0010
0100
0011
0100
1001
0010
0001
1000
0110
1000
0010
0100
,
1000
0001
0100
0010
1100
0010
1000
0001
0100
0010
1100
0010
1000
0001
0100
0010
,
1100
0010
1000
0001
0100
0010
1100
0010
1001
0100
1000
0001
0110
0001
1100
0010
,
1001
0100
0010
1000
0101
1000
0010
0100
1001
0100
0010
1000
0101
1000
0010
0100
,
1001
0010
0100
0010
1001
0010
0100
0010
0101
1000
0010
0100
0011
1000
0001
0010
,
1100
0001
1000
0010
1100
0001
1000
0010
0101
1000
0100
0010
0101
1000
0100
0010
,
1100
0001
0010
0100
1010
0100
0011
1000
0100
0010
0101
0010
1001
0000
1001
0001
,
1010
0100
0001
0100
0011
1000
0010
0100
1001
0100
0011
1000
0110
1000
0010
0100
,
1001
0010
0100
0001
0110
1000
0010
0100
1001
0100
0011
1000
0110
1000
0001
0010
,
1100
0001
0010
1100
0010
0001
1100
0001
0010
1100
0010
0001
1100
0010
0101
0010
,
1000
0010
0100
0001
1100
0010
1000
0001
0110
1000
0001
0100
0011
1000
0010
0100
,
1001
0010
0001
0100
1010
0100
0001
0010
1100
0001
1100
0010
1001
0100
0011
1000
,
0101
0010
1000
0100
1001
0010
0001
0100
1010
0001
1100
0010
1001
0100
0011
1000
,
0101
0010
0001
0100
0011
1000
0100
1000
0011
0100
0010
1000
0101
0010
0100
0010
,
1001
0100
0010
0001
0110
1000
0100
0010
1001
0100
0011
1000
0011
0100
1001
0010
,
0001
0100
0010
1000
0011
1000
0001
0100
0010
1000
0011
1000
0001
0100
0010
1000
,
0011
1000
0001
0100
0010
1000
0011
1000
0001
0100
0010
1000
0202
0000
0000
0303
,
1000
0010
0100
0001
1100
0001
1000
0010
0100
0001
1100
0001
1000
0010
0100
0001
,
1100
0001
1000
0010
0100
0001
1100
0001
1000
0010
0100
0001
2020
0000
0000
3030
,
0101
1000
0100
1000
0110
1000
0100
1000
0011
0100
0010
0100
1010
0100
0010
0100
,
1001
0010
0001
0010
0101
0010
0001
0010
0101
1000
0100
1000
0110
1000
0100
1000
,
0110
0001
0010
0001
1010
0001
0010
0001
1100
0010
0100
0010
0101
0010
0100
0010
,
1001
0100
1000
0100
1010
0100
1000
0100
1001
0010
0100
1000
0011
0100
1010
0100
,
1001
0010
0100
0010
1001
0100
0010
1000
0001
0010
0100
0010
1001
0100
0010
0001
,
1000
0100
0010
0100
1001
0010
0100
1000
0110
0001
0010
1000
0110
0001
0010
0100
,
1001
0100
0010
0100
1001
0010
0100
0001
1000
0100
0010
0100
1001
0010
0100
1000
,
0001
0010
0100
0010
1001
0100
0010
1000
0001
0010
0100
0010
1001
0010
0100
1000
,
0001
0010
0100
0010
1100
0001
0010
0001
1000
0010
0100
0010
1100
0001
0010
0001
,
1000
0100
0001
0100
0011
1000
0010
0100
0011
1000
0100
1000
0011
0100
0001
0010
,
1000
0100
0010
0100
0011
1000
0010
0100
0001
0010
0100
0010
1100
0001
0100
0010
,
1000
0100
0010
0100
0011
1000
0010
0100
1001
1010
0001
0100
0010
1000
0001
0100
,
2020
0000
0000
0000
0000
3030
0101
1010
0202
0000
0000
0000
0000
0303
1001
0110
,
2002
0000
0000
0000
0000
3003
1010
0101
2020
0000
0000
0000
0000
3030
0110
1001
,
0220
0000
0000
0000
0000
0330
1100
0011
2200
0000
0000
0000
0000
3300
0011
1100
,
0022
0000
0000
0000
0000
0033
0110
0001
1100
0011
1100
0000
0110
1001
0110
0000
,
0202
0000
0000
0000
0000
0303
1010
0101
2020
0000
0000
0000
0000
3030
1001
0110
,
2002
0000
0000
0000
0000
3003
0101
1010
0202
0000
0000
0000
0000
0303
0110
1001
,
0220
0000
0000
0000
0000
0330
1100
0010
0202
0000
0000
0000
0000
0303
0011
0100
,
2020
0000
0000
0000
0000
3030
0110
0001
1100
0011
0100
0010
1001
0000
0110
0100
,
1001
0010
0001
0010
1100
0001
0100
0010
1001
0100
1000
0100
0011
1000
0001
0100
,
2020
0000
3000
0000
1031
0100
1000
0100
1010
0001
0010
0100
1001
0010
0001
0100
,
1010
0001
0100
0010
1001
0100
1000
0010
0101
1000
0010
0100
1001
0010
1000
0010
,
0202
0000
0003
0000
0311
1000
0101
0000
1010
0001
1100
0000
1001
0110
1001
0110
,
1001
0100
0010
0001
1100
0010
0001
1000
0100
0010
0001
1000
0110
0000
0000
0000
,
1001
0010
0100
1000
0011
0100
1000
0001
0010
0100
1000
0001
0110
1000
0001
0010
,
0100
1000
0100
0001
0110
1000
0100
0001
0100
1000
0100
0001
0110
1000
0100
0001
,
0010
0000
0000
0100
0000
0000
1000
0000
0000
0100
0000
0000
0011
0000
0000
0100
0000
0000
1000
0000
0000
0100
0000
0000
0001
0000
0010
0000
1000
0000
0010
0000
0000
0100
0000
0000
0011
0000
0000
1100
0000
0000
0011
0000
0000
1100
0000
0000
,
0001
0100
0010
0100
1001
0010
0100
0001
1000
0100
0010
0100
1001
0010
0100
1000
,
0001
0010
0100
0010
1001
0100
0010
0001
0110
1000
0100
0001
0110
1000
0100
0010
,
0001
0010
0100
0010
1001
0100
0010
1000
0001
0010
0100
0010
1001
0100
0010
0001
,
1000
0100
0010
0100
1001
0010
0100
0001
1010
0100
0010
0100
1001
0010
0100
1000
,
0001
0010
0100
0010
1100
0001
0010
0001
1000
0010
0100
0010
1100
0001
0010
0001
,
1000
0100
0010
0100
0011
1000
0001
0100
0011
1000
0100
1000
0011
0100
0001
0010
,
1000
0100
0010
0100
0011
1000
0010
0100
0001
0010
0100
0010
1100
0001
0100
0010
,
1000
0100
0010
0100
0011
1000
0010
0100
1001
1010
0001
0100
0010
1000
0001
0100
,
2020
0000
0000
0000
0000
3030
0101
1010
0202
0000
0000
0000
0000
0303
1001
0110
,
2002
0000
0000
0000
0000
3003
1010
0101
2020
0000
0000
0000
0000
3030
0110
1001
,
0220
0000
0000
0000
0000
0330
1100
0011
2200
0000
0000
0000
0000
3300
0011
1100
,
0022
0000
0000
0000
0000
0033
0110
0001
1100
0011
1100
0000
0110
1001
0110
0000
,
0202
0000
0000
0000
0000
0303
1010
0101
2020
0000
0000
0000
0000
3030
1001
0110
,
2002
0000
0000
0000
0000
3003
0101
1010
0202
0000
0000
0000
0000
0303
0110
1001
,
0220
0000
0000
0000
0000
0330
1100
0010
0202
0000
0000
0000
0000
0303
0011
0100
,
2020
0000
0000
0000
0000
3030
0110
0001
1100
0011
0100
0010
1001
0000
1010
0100
,
1001
0010
0001
0010
1100
0001
0100
0010
1001
0100
1000
0100
0011
1000
0001
0100
,
2020
0000
3000
0000
1031
0100
1000
0100
1010
0001
0010
0100
1001
0010
0001
0100
,
1010
0001
0100
0010
1001
0100
1000
0010
0101
1000
0010
0100
1001
0010
1000
0010
,
0202
0000
0003
0000
0311
1000
0101
0000
1010
0001
0110
0000
1001
0110
1001
0110
,
1001
0010
0100
1000
0011
0100
1000
0001
0010
0100
1000
0001
0110
0000
0000
0000
,
1001
0100
0010
0001
1100
0010
0001
1000
0100
0010
0001
1000
0110
0001
1000
0100
,
0010
0001
0010
1000
0110
0001
0010
1000
0100
0001
0100
1000
0110
0001
0100
1000
,
0010
0000
0000
0001
0000
0000
0100
0000
0000
0001
0000
0000
1010
0000
0000
0001
0000
0000
0100
0000
0000
0001
0000
0000
1000
0000
0010
0000
0001
0000
0100
0000
0000
0010
0000
0000
1001
0000
0000
0100
0000
0000
0011
0000
0000
2200
0000
0000
,
0000
0000
0000
0000
,
3300
0000
0000
0000
;

//---------------dance-single - Copied from----------------
#NOTES:
     dance-single:
     Copied from:
     Hard:
     15:
     1.000,1.000,0.994,0.784,1.000,1526.000,180.000,142.000,0.000,8.000:
1000
0001
1000
0001
1000
0001
1000
0001
0100
0001
0100
0001
0100
0001
0100
0001
,
1000
0010
1000
0010
1000
0010
1000
0010
0100
0010
0100
0010
0100
0010
0100
0010
,
1000
0001
1000
0001
1000
0001
1000
0001
0100
0001
0100
0001
0100
0001
0100
0001
,
1000
0010
1000
0010
1000
0010
1000
0010
0100
0010
0100
0010
1000
0001
0100
0010
,
1000
0100
0010
0001
0010
0100
1000
0100
0001
0010
0100
1000
0100
0010
0001
0010
,
1000
0100
0010
0001
0010
0100
1000
0100
0001
0010
0100
1000
0001
0010
0100
1000
,
0001
0010
0100
1000
0100
0010
0001
0010
1000
0100
0010
0001
0010
0100
1000
0100
,
0001
0010
0100
1000
0100
0010
0001
0010
1000
0100
0010
0001
1000
0100
0010
0001
,
1000
0100
0010
0001
0010
0100
1000
0100
0001
0010
0100
1000
0100
0010
0001
0010
,
1000
0100
0010
0001
0010
0100
1000
0100
0001
0010
0001
1000
0001
0010
0001
0100
,
0001
0010
0100
1000
0100
0010
0001
0010
1000
0100
0010
0001
0010
0100
1000
0100
,
0001
0010
0100
1000
0100
0010
0001
0010
1000
0100
1000
0001
1000
0100
1000
0010
,
0202
0000
0000
0000
0000
0303
1010
0101
2020
0000
0000
0000
0000
3030
1001
0110
,
2002
0000
0000
0000
0000
3003
0101
1010
0202
0000
0000
0000
0000
0303
0110
1001
,
0220
0000
0000
0000
0000
0330
0011
1100
0022
0000
0000
0000
0000
0033
1100
0011
,
2200
0000
0000
0000
0000
3300
0110
1000
0011
0100
0001
0000
1000
0010
1000
0000
,
2020
0000
0000
0000
0000
3030
0101
1010
0202
0000
0000
0000
0000
0303
1001
0110
,
2002
0000
0000
0000
0000
3003
1010
0101
2020
0000
0000
0000
0000
3030
0110
1001
,
0220
0000
0000
0000
0000
0330
0011
0100
2020
0000
0000
0000
0000
3030
1100
0010
,
0202
0000
0000
0000
0000
0303
0110
1000
0001
0010
0001
0100
0010
0000
1000
0100
,
1001
0010
0100
0001
1000
0010
0100
0001
1000
0010
0100
0001
1000
0010
0100
0001
,
2000
3012
0203
0320
,
0031
0100
0010
1000
0001
0100
0010
1000
0001
0100
0010
1000
0001
0100
0010
1000
,
0002
0000
0000
0000
1103
0000
0010
0000
0100
0001
0010
0000
0100
0001
1000
0010
,
0100
1000
0001
0010
0100
1000
0001
0010
0100
1000
0001
0010
0100
0000
0000
0000
,
0010
0001
1000
0100
0010
0001
1000
0100
0010
0001
1000
0100
0010
0001
1000
0100
,
0001
0010
1000
0010
0001
0010
1000
0010
0001
0010
1000
0010
0001
0010
1000
0010
,
0002
0000
0000
0000
0000
0000
0000
0000
1003
0010
0100
0001
1000
0100
0010
0001
,
1000
0100
1000
0010
0100
0001
0100
0010
1000
0100
1000
0010
0100
0001
0100
0010
,
1000
0100
1000
0010
0100
0001
0100
0010
1000
0001
0100
0010
0001
0010
0100
1000
,
0001
0010
0001
0100
0010
1000
0010
0100
0001
0010
0001
0100
0010
1000
0010
0100
,
0001
0010
0001
0100
0010
1000
0010
0100
0001
1000
0010
0100
1000
0100
0010
0001
,
1000
0010
0100
0001
0010
0001
0100
0010
1000
0010
0100
0001
0010
0001
0100
0010
,
1000
0010
0100
0001
0010
0001
0100
0010
1000
0001
0100
0010
1000
0001
0100
0010
,
0001
0100
0010
1000
0100
1000
0010
0100
0001
0100
0010
1000
0100
1000
0010
0100
,
0001
0100
0010
1000
0100
1000
0010
0100
0001
1000
0010
0100
0001
1000
0010
0100
,
2020
0000
0000
0000
0000
3030
0101
1010
0202
0000
0000
0000
0000
0303
1001
0110
,
2002
0000
0000
0000
0000
3003
1010
0101
2020
0000
0000
0000
0000
3030
0110
1001
,
0220
0000
0000
0000
0000
0330
1100
0011
2200
0000
0000
0000
0000
3300
0011
1100
,
0022
0000
0000
0000
0000
0033
0110
0001
1000
0100
1000
0000
0001
0010
0001
0000
,
0202
0000
0000
0000
0000
0303
1010
0101
2020
0000
0000
0000
0000
3030
1001
0110
,
2002
0000
0000
0000
0000
3003
0101
1010
0202
0000
0000
0000
0000
0303
0110
1001
,
0220
0000
0000
0000
0000
0330
1100
0010
0202
0000
0000
0000
0000
0303
0011
0100
,
2020
0000
0000
0000
0000
3030
0110
0001
1000
0010
0100
0010
1000
0000
0001
1000
,
0010
0100
0001
1000
0010
0100
0001
1000
0010
0100
0001
1000
0010
0100
0001
1000
,
0020
0000
0000
0000
2130
0000
0000
0000
3002
0000
0000
0000
0023
0000
0000
0030
,
1000
0001
0100
0010
1000
0001
0100
0010
1000
0001
0100
0010
1000
0001
0100
0010
,
2000
0000
0000
0000
3011
0000
0100
0000
0010
1000
0100
0000
0010
1000
0001
0100
,
0010
0001
1000
0100
0010
0001
1000
0100
0010
0001
1000
0100
0010
0000
0000
0000
,
0100
1000
0001
0010
0100
1000
0001
0010
0100
1000
0001
0010
0100
1000
0001
0010
,
1000
0100
0001
0100
1000
0100
0001
0100
1000
0100
0001
0100
1000
0100
0001
0100
,
0020
0000
0000
0000
0000
0000
0000
0000
0031
0100
0010
1000
0001
0010
0100
1000
,
0001
0010
0001
0010
0001
0000
0001
0100
0001
0100
0001
0000
0001
0010
0001
0010
,
0001
0000
0001
0100
0001
0100
0001
0000
1000
0100
0010
0001
0200
0000
0000
0300
,
1000
0010
1000
0010
1000
0000
1000
0100
1000
0100
1000
0000
1000
0010
1000
0010
,
1000
0000
1000
0100
1000
0100
1000
0000
0001
0010
0100
1000
0020
0000
0000
0030
,
0101
1000
0101
1000
0101
1000
0101
1000
,
0011
0100
0011
0100
1001
0010
1001
0000
,
1010
0001
1010
0001
1010
0001
1010
0001
,
1000
0010
0100
0001
0100
0001
1000
0010
0100
0001
0100
0001
1000
0000
0100
0001
,
0010
1000
0010
0100
0001
0010
0001
0100
0010
1000
0001
0100
0010
1000
0001
0100
,
0010
1000
0010
0100
0001
0010
0001
1000
0100
0010
1000
0001
0100
0010
1000
0001
,
0100
0010
0001
1000
0010
0001
0100
0010
0001
1000
0010
0001
0100
0010
1000
0001
,
0100
1000
0100
0010
1000
0100
1000
0010
0100
0001
0010
0001
0100
0010
1000
0100
,
0001
0010
0001
1000
0001
0100
0001
0010
0001
1000
0001
0100
0010
1000
0001
0100
,
1000
0100
1000
0001
1000
0010
1000
0100
1000
0001
1000
0010
0100
0001
1000
0010
,
0100
0001
0100
0001
1000
0010
1000
0010
0100
1000
0100
0010
1000
0001
0100
0010
,
0001
1000
0001
1000
0001
0100
0001
0010
1000
0001
0100
0010
1000
0001
1000
0001
,
0100
0010
0100
0010
1000
0000
0100
0001
0100
0001
1000
0000
0100
0010
0100
0010
,
1000
0000
0100
0001
0100
0001
1000
0000
0001
0010
0100
1000
0200
0000
0300
0000
,
0010
0100
0010
0100
0001
0000
0010
1000
0010
1000
0001
0000
0010
0100
0010
0100
,
0001
0000
0010
1000
0010
1000
0001
0000
1000
0100
0010
0001
0020
0000
0000
0030
,
0001
1000
0001
1000
0001
1000
0001
1000
0010
1000
0010
1000
0010
1000
0010
1000
,
0001
0100
0001
0100
0001
0100
0001
0100
0010
0100
0010
0100
0010
0100
0010
0100
,
0001
1000
0001
1000
0001
1000
0001
1000
0010
1000
0010
1000
0010
1000
0010
1000
,
0001
0100
0001
0100
0001
0100
0001
0100
0010
0100
0010
0100
0001
1000
0010
0100
,
0001
0010
0100
1000
0100
0010
0001
0010
1000
0100
0010
0001
0010
0100
1000
0100
,
0001
0010
0100
1000
0100
0010
0001
0010
1000
0100
0010
0001
1000
0100
0010
0001
,
1000
0100
0010
0001
0010
0100
1000
0100
0001
0010
0100
1000
0100
0010
0001
0010
,
1000
0100
0010
0001
0010
0100
1000
0100
0001
0010
0100
1000
0001
0010
0100
1000
,
0001
0010
0100
1000
0100
0010
0001
0010
1000
0100
0010
0001
0010
0100
1000
0100
,
0001
0010
0100
1000
0100
0010
0001
0010
1000
0100
1000
0001
0100
0010
1000
0001
,
1000
0100
0010
0001
0010
0100
1000
0100
0001
0010
0100
1000
0100
0010
0001
0010
,
1000
0100
0010
0001
0010
0100
1000
0100
0001
0010
0001
1000
0010
0100
0001
0010
,
0202
0000
0000
0000
0000
0303
1010
0101
2020
0000
0000
0000
0000
3030
1001
0110
,
2002
0000
0000
0000
0000
3003
0101
1010
0202
0000
0000
0000
0000
0303
0110
1001
,
0220
0000
0000
0000
0000
0330
0011
1100
0022
0000
0000
0000
0000
0033
1100
0011
,
2200
0000
0000
0000
0000
3300
0110
1000
0011
0100
0001
0000
1000
0010
1000
0000
,
2020
0000
0000
0000
0000
3030
0101
1010
0202
0000
0000
0000
0000
0303
1001
0110
,
2002
0000
0000
0000
0000
3003
1010
0101
2020
0000
0000
0000
0000
3030
0110
1001
,
0220
0000
0000
0000
0000
0330
0011
0100
2020
0000
0000
0000
0000
3030
1100
0010
,
0202
0000
0000
0000
0000
0303
0110
0001
1000
0100
1000
0010
0100
0000
0001
0010
,
1001
0100
0010
1000
0001
0100
0010
1000
0001
0100
0010
1000
0001
0100
0010
1000
,
0002
2103
3020
0230
,
1300
0010
0100
0001
1000
0010
0100
0001
1000
0010
0100
0001
1000
0010
0100
0001
,
2000
0000
0000
0000
3011
0000
0100
0000
0010
1000
0100
0000
0010
1000
0001
0100
,
0010
0001
1000
0100
0010
0001
1000
0100
0010
0001
1000
0100
0010
0000
0000
0000
,
0100
1000
0001
0010
0100
1000
0001
0010
0100
1000
0001
0010
0100
1000
0001
0010
,
1000
0100
0001
0100
1000
0100
0001
0100
1000
0010
0001
0010
1000
0010
0001
0010
,
2000
0000
0000
0000
0000
0000
0000
0000
3001
0100
0010
1000
0001
0010
0100
1000
,
0001
0010
0001
0100
0010
1000
0010
0100
0001
0010
0001
0100
0010
1000
0010
0100
,
0001
0010
0001
0100
0010
1000
0010
0100
0001
1000
0010
0100
1000
0100
0010
0001
,
1000
0100
1000
0010
0100
0001
0100
0010
1000
0100
1000
0010
0100
0001
0100
0010
,
1000
0100
1000
0010
0100
0001
0100
0010
1000
0001
0100
0010
0001
0010
0100
1000
,
0001
0100
0010
1000
0100
1000
0010
0100
0001
0100
0010
1000
0100
1000
0010
0100
,
0001
0100
0010
1000
0100
1000
0010
0100
0001
1000
0010
0100
0001
1000
0010
0100
,
1000
0010
0100
0001
0010
0001
0100
0010
1000
0010
0100
0001
0010
0001
0100
0010
,
1000
0010
0100
0001
0010
0001
0100
0010
1000
0001
0100
0010
1000
0001
0100
0010
,
0202
0000
0000
0000
0000
0303
1010
0101
2020
0000
0000
0000
0000
3030
1001
0110
,
2002
0000
0000
0000
0000
3003
0101
1010
0202
0000
0000
0000
0000
0303
0110
1001
,
0220
0000
0000
0000
0000
0330
0011
1100
0022
0000
0000
0000
0000
0033
1100
0011
,
2200
0000
0000
0000
0000
3300
0110
1000
0001
0010
0001
0000
1000
0100
1000
0000
,
2020
0000
0000
0000
0000
3030
0101
1010
0202
0000
0000
0000
0000
0303
1001
0110
,
2002
0000
0000
0000
0000
3003
1010
0101
2020
0000
0000
0000
0000
3030
0110
1001
,
0220
0000
0000
0000
0000
0330
0011
0100
2020
0000
0000
0000
0000
3030
1100
0010
,
0202
0000
0000
0000
0000
0303
0110
1000
0001
0100
0010
0100
0001
0000
1000
0001
,
0100
0010
1000
0001
0100
0010
1000
0001
0100
0010
1000
0001
0100
0010
1000
0001
,
0200
0000
0000
0000
0312
0000
0000
0000
2003
0000
0000
0000
3200
0000
0000
0300
,
0001
1000
0010
0100
0001
1000
0010
0100
0001
1000
0010
0100
0001
1000
0010
0100
,
0002
0000
0000
0000
1103
0000
0010
0000
0100
0001
0010
0000
0100
0001
1000
0010
,
0100
1000
0001
0010
0100
1000
0001
0010
0100
1000
0001
0010
0100
0000
0000
0000
,
0010
0001
1000
0100
0010
0001
1000
0100
0010
0001
1000
0100
0010
0001
1000
0100
,
0001
0010
1000
0010
0001
0010
1000
0010
0001
0100
1000
0100
0001
0100
1000
0100
,
0020
0000
0000
0000
0000
0000
0000
0030
1000
0100
0010
0001
1100
0011
1100
0022
,
0000
0000
0000
0000
,
0033
0000
0000
0000
;
