#TITLE:Extratone Pirates;
#SUBTITLE:;
#ARTIST:Annoying Ringtone;
#TITLETRANSLIT:;
#SUBTITLETRANSLIT:;
#ARTISTTRANSLIT:;
#CREDIT:Mad Matt;
#BANNER:../Tachyon Spectrum-bn.png;
#BACKGROUND:../Tachyon Spectrum-bg.png;
#LYRICSPATH:;
#CDTITLE:;
#MUSIC:Extratone Pirates.ogg;
#OFFSET:0.003;
#SAMPLESTART:62.638;
#SAMPLELENGTH:12.000;
#SELECTABLE:YES;
#DISPLAYBPM:250.000;
#BPMS:0.000=250.000;
#STOPS:;
#BGCHANGES:;
// cache tags:
#FIRSTBEAT:0.000;
#LASTBEAT:580.000;
#SONGFILENAME:Songs/Tachyon Spectrum/Extratone Pirates - [Mad Matt]/Extratone Pirates.sm;
#HASMUSIC:1;
#HASBANNER:1;
#MUSICLENGTH:142.054;
// end cache tags

//---------------dance-single - Tachyon Gamma----------------
#NOTES:
     dance-single:
     Tachyon Gamma:
     Easy:
     19:
     1.000,1.000,0.387,0.183,1.000,1410.000,55.000,26.000,4.000,2.000:





















1000
0000
0001
0000
0100
0000
0010
1000
,
0010
0000
1000
0000
0001
0000
0010
0100
,
0010
0000
0100
0000
1000
0000
0001
0100
,
0001
0100
0010
2000
,
3001
0000
0100
0000
0010
0000
1000
0100
,
0010
0000
0001
0000
0010
0000
0100
1000
,
0100
0000
1000
0000
0010
0000
0100
0001
,
1000
0000
0100
0000
1000
0000
0010
0000
0100
0000
0000
0000
0001
1000
0001
1000
,
0001
1000
0001
0010
0100
1000
0010
0100
,
0001
0000
1000
0000
0001
0000
0010
0000
0100
0000
1000
0000
0100
0000
1000
0001
,
1000
0010
0100
0010
1000
0001
1000
0100
,
1000
0000
0010
0000
1000
0000
0002
0003
0020
0030
0200
0300
2000
3000
0002
0003
,
0100
0010
1000
0010
0100
0001
1000
0100
,
0010
0000
0100
0000
1000
0000
0001
0000
0100
0000
0010
0000
1000
0001
1000
0001
,
1000
0100
0010
0100
1000
0001
1000
0010
,
0100
0000
0010
0000
0100
0000
0001
0000
0100
0000
0010
0000
1000
0001
1000
0001
,
1000
0000
0101
0000
0110
0000
0010
1000
,
0100
0000
1100
0000
1100
0000
0100
0010
,
0001
0000
0011
0000
0101
0000
0100
0010
,
1000
0000
0000
0000
1100
0000
0000
0000
1001
0000
0000
0000
0001
0100
0001
0100
,
0001
0000
0101
0000
0110
0000
0010
1000
,
0100
0000
1100
0000
1001
0000
0001
0010
,
0100
0000
0110
0000
1100
0000
0001
0100
,
0040
0030
4000
3000
0400
0300
0040
0030
0004
0003
0000
0000
1000
0001
1000
0001
,
1000
0010
0100
0001
0100
0010
1000
0001
0100
0001
1000
0010
0100
0001
1000
0010
,
1000
0001
0010
0001
1000
0100
0010
0001
1000
0100
1000
0001
0010
0100
1000
0001
,
0010
0001
1000
0010
1000
0001
0010
0100
1000
0001
0010
0001
1000
0100
1000
0001
,
0010
0100
1000
0001
0100
0001
1000
0010
1000
0001
0100
0010
1000
0010
0100
0001
,
1000
0010
0100
0001
1000
0010
1000
0001
1000
0100
0010
0001
1000
0001
0010
0100
,
1000
0001
1000
0100
0010
0001
1000
0001
0100
0010
1000
0001
0100
0010
1000
0010
,
0100
0001
1000
0010
0100
0001
1000
0010
1000
0001
0010
0001
1000
0100
1000
0001
,
0010
0001
1000
0100
0010
0001
1000
0001
4000
0000
0000
0000
3004
0000
0000
0000
,
1003
0010
0100
0001
1000
0010
1000
0001
0100
0001
1000
0010
0100
0001
1000
0010
,
0100
0001
1000
0001
1000
0100
0010
0001
1000
0001
0010
0100
1000
0100
0010
0001
,
1000
0001
0100
0010
1000
0010
0100
0001
1000
0001
1000
0010
0100
0001
1000
0001
,
1000
0100
0010
0001
0010
0100
1000
0001
1000
0100
0010
0001
1000
0001
1000
0010
,
0100
0001
1000
0001
1000
0010
0100
0001
0100
0010
1000
0001
1000
0001
0100
0010
,
1000
0001
0100
0001
1000
0100
0010
0001
1000
0100
0010
0001
1000
0001
1000
0001
,
2000
0000
0000
0000
0000
0000
0000
0000
3200
0000
0000
0000
0000
0000
0000
0000
0320
0000
0000
0000
0000
0000
0000
0030
0002
0000
0000
0000
0000
0000
0003
0000
2000
0000
0000
0000
0000
3000
0000
0000
0020
0000
0000
0000
0030
0000
0000
0000
0200
0000
0000
0300
0000
0000
0000
0000
0002
0000
0003
0000
0000
0000
0000
0000
,
0200
0000
0000
0300
0000
0000
0000
0000
0000
0000
0000
0000
0000
0000
0000
0000
0000
0000
0000
0000
0000
0000
0000
0000
0010
0000
0000
0000
0000
0000
0000
0000
0000
0000
0000
0000
0000
0000
0000
0000
0000
0000
0000
0000
0000
0000
0000
0000
1000
0000
0000
0000
0000
0000
0000
0000
0000
0000
0000
0000
0000
0000
0000
0000
0000
0000
0000
0000
0000
0000
0000
0000
0001
0000
0000
0000
0000
0000
0000
0000
0000
0000
0000
0000
0000
0000
0000
0000
0000
0000
0000
0000
0000
0000
0000
0000
4000
0000
0000
0000
0000
0000
0000
0000
0000
0000
0000
0000
0000
0000
0000
0000
0000
0000
0000
0000
0000
0000
0000
0000
0000
0000
0000
0000
0000
0000
0000
0000
3000
0000
0000
0000
0000
0000
0000
0000
0000
0000
0000
0000
0000
0000
0000
0000
0004
0000
0000
0000
0000
0000
0000
0000
0000
0000
0000
0000
0000
0000
0000
0000
0000
0000
0000
0000
0000
0000
0000
0000
0000
0000
0000
0000
0000
0000
0000
0000
0003
0000
0000
0000
0000
0000
0000
0000
0000
0000
0000
0000
0000
0000
0000
0000
,
1111
0000
0000
0000
,
0000
0000
0000
0000
,
1111
0000
0000
0000
,
0000
0000
0000
0000
,
1000
0001
1000
0001
1000
0001
2000
0000
0000
0000
3000
0000
0000
0000
0000
0000
,
0001
0100
0001
0100
0001
0100
0002
0000
0000
0000
0003
0000
0000
0000
0000
0000
,
1000
0001
1000
0000
0000
0000
0000
0000
0010
1000
0010
0000
0000
0000
0000
0000
,
2000
3040
0230
0304
,
1003
0010
0100
0001
1000
0010
1000
0001
0100
0001
1000
0010
0100
0001
1000
0001
,
0100
0010
1000
0001
1000
0001
0010
0100
1000
0001
0010
0100
0010
0100
1000
0100
,
0010
0001
1000
0001
1000
0100
0010
0100
1000
0001
1000
0010
0100
0001
0100
0010
,
1000
0001
1000
0001
0100
0010
1000
0001
1000
0001
0010
0100
1000
0001
0010
0100
,
1000
0001
0100
0010
1000
0100
0010
0001
,
0010
0000
0100
0000
1000
0000
0001
0000
1000
0000
0010
0100
0010
0000
0100
0001
,
0100
0001
0100
0010
1000
0100
0010
0001
,
1000
0000
0001
0000
1000
0000
0001
0000
0200
0000
0000
0000
0304
0000
0000
0003
,
1000
0010
0100
0010
1000
0001
0100
0001
1000
0010
0100
0001
1000
0001
1000
0010
,
0100
0001
1000
0001
1000
0100
0010
0001
0010
0100
0010
0001
1000
0001
1000
0100
,
0010
0001
1000
0100
1000
0001
0010
0001
1000
0010
1000
0001
0100
0010
1000
0010
,
0100
0001
1000
0010
1000
0001
0100
0001
1000
0010
0100
0001
0100
0010
1000
0001
,
1000
0001
0010
0100
1000
0001
0010
0001
1000
0100
0010
0100
1000
0001
0010
0100
,
1000
0001
0010
0001
1000
0100
0010
0001
1000
0100
1000
0001
0010
0100
1000
0001
,
1000
1010
0101
0110
,
1001
0011
0110
1100
,
1001
0001
0100
0010
1000
0000
1001
0000
,
0001
0100
0001
0100
0001
0100
0001
0100
0001
0000
0000
0000
1000
0000
0001
0000
,
1000
0100
0010
0001
1000
0100
1000
0001
0010
0001
1000
0100
0010
0001
1000
0001
,
1000
0010
0100
0001
1000
0010
1000
0001
0100
0001
1000
0010
0100
0001
1000
0010
,
1000
0001
0100
0010
1000
0001
1000
0001
0010
0100
1000
0100
0010
0100
1000
0001
,
1000
0001
0010
0100
1000
0001
1000
0001
0010
0100
0010
0001
1000
0100
1000
0001
,
0010
0100
0010
0100
1000
0100
0010
0001
1000
0100
1000
0001
0100
0001
1000
0010
,
0100
0001
0100
0010
1000
0001
1000
0001
0100
0010
1000
0001
0100
0001
1000
0010
,
1000
0001
0100
0010
1000
0010
0100
0001
1000
0001
1000
0100
0010
0100
1000
0100
,
0010
0001
0010
0100
0010
0001
1000
0100
0010
0001
1000
0001
1000
0100
0010
0001
,
1000
0001
0010
0100
1000
0100
1000
0001
,
1000
0000
0001
0000
0010
0000
0100
0000
1000
0000
0001
0000
0010
0000
0100
1000
,
0100
1000
0001
0100
0001
1000
0010
0100
,
0001
0000
1000
0000
0010
0000
0100
0000
0001
0000
1000
0000
0001
0000
0010
0001
,
0010
0100
1000
0001
0010
0100
1000
0001
,
0100
0001
1000
0001
0010
0100
1000
0001
,
1000
0001
1000
0001
1000
0001
1000
0001
1000
0001
1000
0001
1000
0001
1000
0001
,
1000
0001
1000
0001
0020
0430
0320
0430
,
1300
0001
1000
0001
0010
0100
1000
0100
0010
0001
1000
0100
1000
0100
0010
0001
,
0010
0001
1000
0100
1000
0001
0010
0100
1000
0001
0100
0001
1000
0010
1000
0001
,
0100
0010
1000
0001
0100
0001
1000
0010
1000
0001
0100
0010
1000
0001
0100
0010
,
1000
0010
0100
0001
1000
0010
1000
0001
0100
0001
1000
0100
1000
0001
0010
0100
,
1000
0001
0010
0100
1000
0100
1000
0001
0010
0001
0010
0100
1000
0001
1000
0001
,
0010
0100
1000
0001
0010
0001
1000
0100
1000
0001
0100
0001
1000
0010
1000
0001
,
0100
0001
1000
0010
0100
0010
1000
0010
0100
0001
0100
0010
1000
0001
0100
0001
,
1000
0010
1000
0001
1000
0001
0100
0010
4000
0000
0000
0000
3004
0000
0000
0000
,
1003
0010
1000
0001
0100
0001
1000
0010
0100
0001
1000
0010
0100
0001
1000
0010
,
1000
0001
0100
0001
1000
0100
1000
0001
0010
0100
1000
0001
0010
0100
1000
0100
,
1000
0001
0010
0001
0010
0100
1000
0001
0010
0001
1000
0100
1000
0001
0010
0100
,
1000
0001
0010
0001
1000
0100
0010
0001
1000
0100
1000
0001
0100
0001
1000
0010
,
0100
0001
1000
0010
0100
0001
0100
0010
1000
0001
0100
0001
1000
0010
1000
0001
,
0010
0001
1000
0100
0010
0001
1000
0001
0010
0100
1000
0001
1000
0100
0010
0001
,
1000
0001
1000
0001
0100
0010
1000
0010
0100
0001
1000
0010
0100
0001
0100
0010
,
1000
0000
0001
0000
1000
0000
0001
0000
0100
0000
0010
0000
0100
0000
0010
0000
1000
0000
0001
0000
2000
0000
0000
0000
3020
0000
0000
0030
0200
0000
0300
0000
,
0002
0003
0000
0000
1000
0000
0000
0000
0100
0000
0000
0000
0010
0000
0000
0000
0001
0000
0000
0000
0100
0000
0000
0000
0010
0000
0000
0000
1000
0000
0000
0000
,
0010
0000
1000
0000
0001
0000
0010
0000
0100
0000
1000
0000
0100
0000
0010
0001
,
0010
0001
0100
0010
1000
0010
0100
0001
,
0100
0000
0010
0000
1000
0000
0001
0000
0010
0000
0100
0000
0010
0000
0001
1000
,
0001
1000
0010
0100
0001
1000
0100
0010
,
0001
0000
1000
0000
0010
0000
0100
0000
0001
0000
0010
0100
0010
0000
0100
1000
,
0100
1000
0010
0100
0001
1000
0001
0010
,
0100
0000
1000
0000
0100
0000
0010
0000
0001
0000
0010
0000
0001
0000
1000
0010
,
1000
0001
0100
0010
1000
0010
0100
0001
,
0010
0000
0100
0000
1000
0000
0010
0000
1000
0000
0001
0000
0010
0000
0100
0010
,
0001
0010
0001
0100
0010
1000
0100
0010
,
0001
0000
1000
0000
0010
0000
0100
0000
0001
0000
1000
0000
0010
0000
1000
0100
,
0010
0001
0010
0001
1000
0010
0100
0010
,
1000
0000
0010
0000
1000
0000
0001
0000
0010
0000
0001
0100
0001
0000
0100
0010
,
0100
0010
1000
0100
0010
0001
1000
0010
,
0100
0000
0100
0000
0001
0000
0001
0000
1000
0000
0000
0000
0001
1000
0001
1000
,
0001
0000
1001
0000
0101
0000
0010
0100
,
0001
0000
0101
0000
1001
0000
1000
0100
,
0010
0010
0001
0001
0100
0000
0110
0000
,
0010
1000
0010
1000
0001
1000
0001
1000
0100
0000
0000
0000
1000
0000
0100
0000
,
0010
0000
0011
0000
1001
0000
1000
0010
,
1000
0000
0010
0100
0001
0000
1000
0001
,
0010
0010
0100
0100
1000
0000
1001
0000
,
0001
1000
0001
1000
0001
0010
0100
1000
0001
0000
0000
0000
1000
0001
1000
0001
,
1000
0000
1010
0000
0101
0000
1000
0100
,
0010
0000
0001
1000
0010
0010
0100
0100
,
0001
0000
0000
0000
1001
0000
0000
0000
1000
0010
1000
0010
0100
0010
0100
0001
,
1000
0000
0001
1000
0010
0000
0110
0000
,
0101
1001
1100
0110
,
0011
0000
1001
0000
1000
1000
0100
0100
,
0010
0000
0000
0000
0011
0000
0000
0000
0001
0100
0001
0100
0010
1000
0010
1000
,
0001
0000
0000
0000
1000
0100
1000
0100
1000
0000
0000
0000
1000
0000
0010
0000
,
1000
1000
0100
0100
0010
0000
0001
0010
,
0100
0000
1100
0000
1001
0000
1000
0010
,
0100
0000
0100
0000
0001
0000
0001
0000
0100
0010
0100
0010
1000
0001
1000
0001
,
1000
0000
0010
0100
0001
0000
1000
0001
,
0100
0100
0010
0010
1000
0000
1001
0000
,
1000
0100
0010
0100
1000
1000
0010
0010
,
0100
0000
0000
0000
0101
0000
0000
0000
1000
0001
1000
0001
0010
0001
0010
0100
,
1000
0000
0000
0000
0001
0100
0001
0100
0001
0000
0000
0000
1001
0000
0000
0000
,
0001
1000
0010
1000
0001
0010
0100
1000
,
0001
0010
0001
0100
0010
1000
0001
1000
,
0001
1000
0010
0100
0001
1000
0100
0010
,
0001
1000
0001
1000
0001
1000
0001
1000
0001
0000
0000
0000
0000
0000
0000
0000
,
0000
0000
0000
0000
,
0000
0000
0000
0000
,
0000
0000
0000
0000
,
MMMM
0000
0000
0000
;

//---------------dance-single - Mad Matt----------------
#NOTES:
     dance-single:
     Mad Matt:
     Challenge:
     20:
     1.000,1.000,0.373,0.120,1.000,1438.000,53.000,17.000,4.000,2.000:


1000
0000
0001
0000
0100
0000
0010
1000
,
0010
0000
1000
0000
0001
0000
0010
0100
,
0010
0000
0100
0000
1000
0000
0001
0100
,
0001
0100
0010
2000
,
3001
0000
0100
0000
0010
0000
1000
0100
,
0010
0000
0001
0000
0010
0000
0100
1000
,
0100
0000
1000
0000
0010
0000
0100
0001
,
1000
0000
0100
0000
1000
0000
0010
0000
0100
0000
0000
0000
0001
1000
0001
1000
,
0001
1000
0001
0010
0100
1000
0010
0100
,
0001
0000
1000
0000
0001
0000
0010
0000
0100
0000
1000
0000
0100
0000
1000
0001
,
1000
0010
0100
0010
1000
0001
1000
0100
,
1000
0000
0010
0000
1000
0000
0002
0003
0020
0030
0200
0300
2000
3000
0002
0003
,
0100
0010
1000
0010
0100
0001
1000
0100
,
0010
0000
0100
0000
1000
0000
0001
0000
0100
0000
0010
0000
1000
0001
1000
0001
,
1000
0100
0010
0100
1000
0001
1000
0010
,
0100
0000
0010
0000
0100
0000
0001
0000
0100
0000
0010
0000
1000
0001
1000
0001
,
1000
0000
0101
0000
0110
0000
0010
1000
,
0100
0000
1100
0000
1100
0000
0100
0010
,
0001
0000
0011
0000
0101
0000
0100
0010
,
1000
0000
0000
0000
1100
0000
0000
0000
1001
0000
0000
0000
0001
0100
0001
0100
,
0001
0000
0101
0000
0110
0000
0010
1000
,
0100
0000
1100
0000
1001
0000
0001
0010
,
0100
0000
0110
0000
1100
0000
0001
0100
,
0040
0030
4000
3000
0400
0300
0040
0030
0004
0003
0000
0000
1000
0001
1000
0001
,
1000
0100
0010
0100
1000
0001
1000
0010
0100
0001
0010
0100
1000
0001
1000
0100
,
0010
0100
1000
0010
0100
0001
1000
0001
0010
0100
0010
0001
1000
0001
0100
0010
,
1000
0100
0010
0100
1000
0001
0010
0001
0100
0010
1000
0001
1000
0100
0010
0100
,
1000
0010
0100
0001
1000
0001
0010
0001
0100
0010
1000
0001
1000
0100
0010
0001
,
0100
0010
0100
0001
1000
0001
0010
0100
1000
0010
0100
0001
1000
0001
0100
0010
,
0100
0001
0010
0100
1000
0001
1000
0010
0100
0010
1000
0001
1000
0100
0010
0001
,
0100
0010
0100
0001
1000
0010
1000
0100
0010
0001
1000
0001
0100
0010
0100
0001
,
0010
0100
1000
0001
1000
0010
1000
0100
0010
0001
0100
0010
1000
0100
1000
0001
,
0100
0010
1000
0001
1000
0100
1000
0001
0100
0010
0100
0001
1000
0010
1000
0001
,
0010
0100
0010
0001
1000
0100
1000
0001
0100
0010
0100
0001
1000
0010
1000
0001
,
0010
0001
1000
0010
0100
0010
1000
0001
0010
0100
0010
0001
1000
0010
0100
0001
,
1000
0100
1000
0001
0010
0001
1000
0010
0100
0010
1000
0001
0100
0001
1000
0100
,
0010
0100
1000
0001
0010
0001
1000
0010
0100
0010
1000
0001
0100
0001
1000
0100
,
0010
0100
1000
0001
0100
0010
0100
0001
1000
0100
0010
0001
0100
0010
1000
0100
,
1000
0001
0100
0010
1000
0001
1000
0100
0010
0100
1000
0001
1000
0010
0100
0010
,
1000
0000
0000
0001
0000
0000
1000
0000
0000
0100
0000
0000
0010
0000
0000
0001
0000
0000
0100
0000
0000
0010
0000
0000
4000
0000
0000
0000
0000
0000
0000
0000
3000
0000
0000
0000
0004
0000
0000
0000
0000
0000
0000
0000
0003
0000
0000
0000
,
1111
0000
0000
0000
,
0000
0000
0000
0000
,
1111
0000
0000
0000
,
0000
0000
0000
0000
,
1000
0001
1000
0001
1000
0001
2000
0000
0000
0000
3000
0000
0000
0000
0000
0000
,
0001
0100
0001
0100
0001
0100
0002
0000
0000
0000
0003
0000
0000
0000
0000
0000
,
1000
0001
1000
0000
0000
0000
0000
0000
0010
1000
0010
0000
0000
0000
0000
0000
,
2000
3040
0230
0304
,
1003
0010
0100
0010
1000
0100
1000
0001
0100
0010
0100
0001
1000
0100
0010
0001
,
1000
0001
0100
0010
1000
0100
1000
0001
0100
0010
0100
0001
1000
0100
0010
0001
,
1000
0001
0100
0010
0100
0001
0010
0001
1000
0010
0100
0010
1000
0001
0010
0100
,
1000
0001
1000
0010
0100
0001
0010
0001
1000
0010
0100
0010
1000
0001
0010
0100
,
1000
0001
0100
0010
1000
0100
0010
0001
,
0010
0000
0100
0000
1000
0000
0001
0000
1000
0000
0010
0100
0010
0000
0100
0001
,
0100
0001
0100
0010
1000
0100
0010
0001
,
1000
0000
0001
0000
1000
0000
0001
0000
0200
0000
0000
0000
0304
0000
0000
0003
,
1000
0100
0010
0001
1000
0001
0100
0010
0100
0001
1000
0001
0010
0100
1000
0001
,
1000
0010
0100
0001
1000
0001
0010
0100
0010
0001
1000
0001
0100
0010
1000
0001
,
1000
0100
0010
0001
1000
0001
0100
0010
0100
0001
1000
0001
0010
0100
1000
0001
,
1000
0010
0100
0001
1000
0001
0010
0100
0010
0001
1000
0001
0100
0010
1000
0001
,
1000
0100
0010
0001
1000
0001
0100
0010
0100
0001
1000
0001
0010
0100
1000
0001
,
1000
0010
0100
0001
1000
0001
0010
0100
0010
0001
1000
0001
0100
0010
1000
0001
,
1000
1010
0101
0110
,
1001
0011
0110
1100
,
1001
0001
0100
0010
1000
0000
1001
0000
,
0001
0100
0001
0100
0001
0100
0001
0100
0001
0000
0000
0000
1000
0000
0001
0000
,
1000
0100
0010
0001
0100
0001
1000
0001
1000
0100
0010
0001
0100
0010
1000
0001
,
1000
0100
0010
0100
1000
0001
0100
0010
0100
0001
1000
0100
0010
0001
0100
0010
,
1000
0001
0100
0010
1000
0100
1000
0001
1000
0001
0100
0010
1000
0100
0010
0001
,
1000
0001
0100
0010
0100
0001
1000
0100
0010
0100
1000
0001
0100
0010
1000
0100
,
1000
0001
0010
0100
1000
0010
1000
0001
1000
0001
0010
0100
1000
0010
0100
0001
,
1000
0001
0010
0100
0010
0001
1000
0010
0100
0010
1000
0001
0010
0100
1000
0010
,
0100
0001
1000
0010
0100
0001
0010
0001
1000
0001
1000
0010
0100
0001
0010
0100
,
1000
0010
0100
0001
1000
0001
0010
0100
1000
0010
0100
0010
1000
0100
0010
0001
,
1000
0001
0010
0100
1000
0100
1000
0001
,
1000
0000
0001
0000
0010
0000
0100
0000
1000
0000
0001
0000
0010
0000
0100
1000
,
0100
1000
0001
0100
0001
1000
0010
0100
,
0001
0000
1000
0000
0010
0000
0100
0000
0001
0000
1000
0000
0001
0000
0010
0001
,
0010
0100
1000
0001
0010
0100
1000
0001
,
0100
0001
1000
0001
0010
0100
1000
0001
,
1000
0001
1000
0001
1000
0001
1000
0001
1000
0001
1000
0001
1000
0001
1000
0001
,
1000
0001
1000
0001
0020
0430
0320
0430
,
1300
0001
0010
0100
1000
0001
1000
0010
0100
0001
0010
0100
1000
0001
1000
0100
,
0010
0100
1000
0010
0100
0001
1000
0001
0010
0100
0010
0001
1000
0001
0100
0010
,
1000
0100
0010
0100
1000
0001
0010
0001
0100
0010
1000
0001
1000
0100
0010
0100
,
1000
0010
0100
0001
1000
0001
0010
0001
0100
0010
1000
0001
1000
0100
0010
0001
,
0100
0010
0100
0001
1000
0001
0010
0100
1000
0010
0100
0001
1000
0001
0100
0010
,
0100
0001
0010
0100
1000
0001
1000
0010
0100
0010
1000
0001
1000
0100
0010
0001
,
0100
0010
0100
0001
1000
0010
1000
0100
0010
0001
1000
0001
0100
0010
0100
0001
,
0010
0100
1000
0001
1000
0010
1000
0100
0010
0001
0100
0010
1000
0100
1000
0001
,
1000
0010
0100
0010
1000
0001
1000
0100
0010
0001
0100
0010
1000
0001
1000
0010
,
0100
0010
1000
0100
0010
0001
1000
0001
0100
0010
0100
0001
1000
0001
0010
0100
,
1000
0010
0100
0010
1000
0001
0100
0001
0010
0100
1000
0001
1000
0010
0100
0010
,
1000
0100
0010
0001
1000
0001
0100
0001
0010
0100
1000
0001
1000
0010
0100
0001
,
0010
0100
0010
0001
1000
0001
0100
0010
1000
0100
0010
0001
1000
0001
0010
0100
,
0010
0001
0100
0010
1000
0001
1000
0100
0010
0100
1000
0001
1000
0010
0100
0001
,
0010
0100
0010
0001
1000
0100
1000
0010
0100
0001
1000
0001
0010
0100
0010
0001
,
0100
0000
0010
0000
1000
0000
0001
0000
1000
0000
0100
0000
1000
0000
0010
0000
0100
0000
0001
0000
2000
0000
0000
0000
3020
0000
0000
0030
0200
0000
0300
0000
,
0002
0003
0000
0000
1000
0000
0000
0000
0100
0000
0000
0000
0010
0000
0000
0000
0001
0000
0000
0000
0100
0000
0000
0000
0010
0000
0000
0000
1000
0000
0000
0000
,
0010
0000
1000
0000
0001
0000
0010
0000
0100
0000
1000
0000
0100
0000
0010
0001
,
0010
0001
0100
0010
1000
0010
0100
0001
,
0100
0000
0010
0000
1000
0000
0001
0000
0010
0000
0100
0000
0010
0000
0001
1000
,
0001
1000
0010
0100
0001
1000
0100
0010
,
0001
0000
1000
0000
0010
0000
0100
0000
0001
0000
0010
0100
0010
0000
0100
1000
,
0100
1000
0010
0100
0001
1000
0001
0010
,
0100
0000
1000
0000
0100
0000
0010
0000
0001
0000
0010
0000
0001
0000
1000
0010
,
1000
0001
0100
0010
1000
0010
0100
0001
,
0010
0000
0100
0000
1000
0000
0010
0000
1000
0000
0001
0000
0010
0000
0100
0010
,
0001
0010
0001
0100
0010
1000
0100
0010
,
0001
0000
1000
0000
0010
0000
0100
0000
0001
0000
1000
0000
0010
0000
1000
0100
,
0010
0001
0010
0001
1000
0010
0100
0010
,
1000
0000
0010
0000
1000
0000
0001
0000
0010
0000
0001
0100
0001
0000
0100
0010
,
0100
0010
1000
0100
0010
0001
1000
0010
,
0100
0000
0100
0000
0001
0000
0001
0000
1000
0000
0000
0000
0001
1000
0001
1000
,
0001
0000
1001
0000
0101
0000
0010
0100
,
0001
0000
0101
0000
1001
0000
1000
0100
,
0010
0010
0001
0001
0100
0000
0110
0000
,
0001
1000
0001
0010
0001
1000
0100
1000
0001
0000
0000
0000
1000
0000
0100
0000
,
0010
0000
0011
0000
1001
0000
1000
0010
,
1000
0000
0010
0100
0001
0000
1000
0001
,
0010
0010
0100
0100
1000
0000
1001
0000
,
0001
0100
0001
1000
0001
0010
0100
1000
0001
0000
0000
0000
1000
0001
1000
0001
,
1000
0000
1010
0000
0101
0000
1000
0100
,
0010
0000
0001
1000
0010
0010
0100
0100
,
0001
0000
0000
0000
1001
0000
0000
0000
1000
0010
0100
0010
1000
0010
0100
0001
,
1000
0000
0001
1000
0010
0000
0110
0000
,
0101
1001
1100
0110
,
0011
0000
1001
0000
1000
1000
0100
0100
,
0010
0000
0000
0000
0011
0000
0000
0000
0001
0100
0010
0100
0001
1000
0100
1000
,
0001
0000
0000
0000
1000
0100
1000
0100
1000
0000
0000
0000
1000
0000
0010
0000
,
1000
1000
0100
0100
0010
0000
0001
0010
,
0100
0000
1100
0000
1001
0000
1000
0010
,
0100
0000
0100
0000
0001
0000
0001
0000
0100
0010
1000
0010
0100
0010
1000
0001
,
1000
0000
0010
0100
0001
0000
1000
0001
,
0100
0100
0010
0010
1000
0000
1001
0000
,
1000
0100
0010
0100
1000
1000
0010
0010
,
0100
0000
0000
0000
0101
0000
0000
0000
1000
0100
0010
0100
1000
0100
0010
0001
,
1000
0000
0000
0000
0001
0100
0001
0100
0001
0000
0000
0000
1001
0000
0000
0000
,
0001
1000
0010
1000
0001
0010
0100
1000
,
0001
0010
0001
0100
0010
1000
0001
1000
,
0001
1000
0010
0100
0001
1000
0100
0010
,
0001
1000
0001
1000
0001
1000
0001
1000
0001
0000
0000
0000
0000
0000
0000
0000
,
0000
0000
0000
0000
,
0000
0000
0000
0000
,
0000
0000
0000
0000
,
MMMM
0000
0000
0000
;

//---------------dance-single - Mad Matt----------------
#NOTES:
     dance-single:
     Mad Matt:
     Medium:
     19:
     1.000,1.000,0.373,0.120,1.000,1438.000,53.000,17.000,4.000,2.000:




1000
0000
0001
0000
0100
0000
0010
1000
,
0010
0000
1000
0000
0001
0000
0010
0100
,
0010
0000
0100
0000
1000
0000
0001
0100
,
0001
0100
0010
2000
,
3001
0000
0100
0000
0010
0000
1000
0100
,
0010
0000
0001
0000
0010
0000
0100
1000
,
0100
0000
1000
0000
0010
0000
0100
0001
,
1000
0000
0100
0000
1000
0000
0010
0000
0100
0000
0000
0000
0001
1000
0001
1000
,
0001
1000
0001
0010
0100
1000
0010
0100
,
0001
0000
1000
0000
0001
0000
0010
0000
0100
0000
1000
0000
0100
0000
1000
0001
,
1000
0010
0100
0010
1000
0001
1000
0100
,
1000
0000
0010
0000
1000
0000
0002
0003
0020
0030
0200
0300
2000
3000
0002
0003
,
0100
0010
1000
0010
0100
0001
1000
0100
,
0010
0000
0100
0000
1000
0000
0001
0000
0100
0000
0010
0000
1000
0001
1000
0001
,
1000
0100
0010
0100
1000
0001
1000
0010
,
0100
0000
0010
0000
0100
0000
0001
0000
0100
0000
0010
0000
1000
0001
1000
0001
,
1000
0000
0101
0000
0110
0000
0010
1000
,
0100
0000
1100
0000
1100
0000
0100
0010
,
0001
0000
0011
0000
0101
0000
0100
0010
,
1000
0000
0000
0000
1100
0000
0000
0000
1001
0000
0000
0000
0001
0100
0001
0100
,
0001
0000
0101
0000
0110
0000
0010
1000
,
0100
0000
1100
0000
1001
0000
0001
0010
,
0100
0000
0110
0000
1100
0000
0001
0100
,
0040
0030
4000
3000
0400
0300
0040
0030
0004
0003
0000
0000
1000
0001
1000
0001
,
0100
0001
0100
0010
1000
0010
1000
0001
1000
0001
0010
0001
0010
0100
0010
0100
,
1000
0100
1000
0001
1000
0001
0100
0001
0100
0010
0100
0010
1000
0001
0010
0100
,
1000
0100
1000
0001
1000
0001
0100
0001
0100
0010
0100
0010
1000
0010
1000
0001
,
1000
0001
0010
0001
0010
0100
0010
0100
1000
0100
1000
0001
1000
0001
0010
0100
,
1000
0001
0100
0001
0100
0010
0100
0010
1000
0010
1000
0001
1000
0001
0010
0001
,
0010
0100
0010
0100
1000
0100
1000
0001
1000
0001
0100
0010
1000
0001
1000
0100
,
0010
0001
0010
0001
1000
0001
1000
0010
1000
0010
0100
0010
0100
0001
0100
0001
,
1000
0001
1000
0100
1000
0100
0010
0100
0010
0001
0010
0001
1000
0001
0100
0010
,
1000
0001
0100
0001
1000
0100
1000
0010
1000
0001
0100
0001
1000
0100
1000
0010
,
1000
0001
0100
0001
1000
0100
1000
0010
1000
0001
0010
0100
1000
0001
0010
0100
,
1000
0001
0010
0001
0100
0001
1000
0100
1000
0001
0010
0001
0100
0001
1000
0100
,
1000
0001
0010
0001
0100
0001
1000
0100
1000
0001
0010
0100
1000
0001
0010
0100
,
1000
0001
0100
0001
1000
0010
1000
0100
1000
0001
0100
0001
1000
0010
1000
0100
,
1000
0001
0100
0001
1000
0010
1000
0100
1000
0001
0010
0100
1000
0001
0010
0100
,
1000
0001
1000
0010
0100
0001
1000
0001
0010
0001
1000
0010
0100
0001
1000
0001
,
0010
0000
0000
0001
0000
0000
1000
0000
0000
0010
0000
0000
0100
0000
0000
0001
0000
0000
1000
0000
0000
0001
0000
0000
4000
0000
0000
0000
0000
0000
0000
0000
3000
0000
0000
0000
0004
0000
0000
0000
0000
0000
0000
0000
0003
0000
0000
0000
,
1111
0000
0000
0000
,
0000
0000
0000
0000
,
1111
0000
0000
0000
,
0000
0000
0000
0000
,
1000
0001
1000
0001
1000
0001
2000
0000
0000
0000
3000
0000
0000
0000
0000
0000
,
0001
0100
0001
0100
0001
0100
0002
0000
0000
0000
0003
0000
0000
0000
0000
0000
,
1000
0001
1000
0000
0000
0000
0000
0000
0010
1000
0010
0000
0000
0000
0000
0000
,
2000
3040
0230
0304
,
1003
0010
1000
0010
0100
0010
0100
0001
0100
0001
1000
0001
1000
0100
1000
0100
,
0010
0100
0010
0001
0010
0001
1000
0001
1000
0010
1000
0010
0100
0010
0100
0001
,
1000
0100
0010
0001
0010
0001
1000
0001
1000
0010
1000
0010
0100
0010
0100
0001
,
0100
0001
1000
0001
1000
0100
1000
0100
0010
0100
0010
0001
0010
0001
1000
0010
,
0100
0001
0100
0010
1000
0100
0010
0001
,
0010
0000
0100
0000
1000
0000
0001
0000
1000
0000
0010
0100
0010
0000
0100
0001
,
0100
0001
0100
0010
1000
0100
0010
0001
,
1000
0000
0001
0000
1000
0000
0001
0000
0200
0000
0000
0000
0304
0000
0000
0003
,
1000
0100
1000
0100
0010
0100
0010
0001
0010
0001
1000
0001
1000
0010
1000
0010
,
0100
0010
0100
0001
0100
0001
1000
0001
1000
0100
1000
0100
0010
0001
0100
0010
,
1000
0010
1000
0001
1000
0001
0010
0001
0010
0100
0010
0100
1000
0100
1000
0001
,
1000
0001
0100
0001
0100
0010
0100
0010
1000
0010
1000
0001
1000
0001
0100
0010
,
1000
0001
0010
0001
0010
0100
0010
0100
1000
0100
1000
0001
1000
0001
0100
0001
,
0100
0010
0100
0010
1000
0010
1000
0001
1000
0001
0010
0100
1000
0001
1000
0010
,
0100
1010
0101
0110
,
1001
0011
0110
1100
,
1001
0001
0100
0010
1000
0000
1001
0000
,
0001
0100
0001
0100
0001
0100
0001
0100
0001
0000
0000
0000
1000
0000
0001
0000
,
1000
0100
1000
0001
0010
0001
0100
0001
1000
0100
1000
0001
0010
0001
0100
0001
,
1000
0100
1000
0001
0010
0001
0100
0001
1000
0010
0100
0001
1000
0010
0100
0001
,
1000
0010
1000
0100
1000
0001
0100
0001
1000
0010
1000
0100
1000
0001
0100
0001
,
1000
0010
1000
0100
1000
0001
0100
0001
1000
0010
0100
0001
1000
0010
0100
0001
,
1000
0100
1000
0010
1000
0001
0010
0001
1000
0100
1000
0010
1000
0001
0010
0001
,
1000
0100
1000
0010
1000
0001
0100
0001
1000
0001
0010
0100
1000
0001
0010
0100
,
1000
0001
1000
0010
0100
0001
0100
0010
1000
0001
1000
0100
0010
0100
1000
0100
,
0010
0001
1000
0001
0100
0010
0100
0001
0100
0010
1000
0001
1000
0100
1000
0001
,
1000
0001
0010
0100
1000
0100
1000
0001
,
1000
0000
0001
0000
0010
0000
0100
0000
1000
0000
0001
0000
0010
0000
0100
1000
,
0100
1000
0001
0100
0001
1000
0010
0100
,
0001
0000
1000
0000
0010
0000
0100
0000
0001
0000
1000
0000
0001
0000
0010
0001
,
0010
0100
1000
0001
0010
0100
1000
0001
,
0100
0001
1000
0001
0010
0100
1000
0001
,
1000
0001
1000
0001
1000
0001
1000
0001
1000
0001
1000
0001
1000
0001
1000
0001
,
1000
0001
1000
0001
0020
0430
0320
0430
,
1300
0001
1000
0001
0010
0001
0010
0100
0010
0100
1000
0100
1000
0001
1000
0001
,
0100
0001
0100
0010
0100
0010
1000
0010
1000
0001
1000
0001
0100
0001
1000
0100
,
0010
0100
0010
0001
0010
0001
1000
0001
1000
0010
1000
0010
0100
0010
0100
0001
,
0100
0001
1000
0001
1000
0100
1000
0100
0010
0100
0010
0001
0010
0001
1000
0010
,
0100
0001
1000
0001
1000
0010
1000
0010
0100
0010
0100
0001
0100
0001
1000
0001
,
1000
0100
1000
0100
0010
0100
0010
0001
0010
0001
1000
0010
0100
0001
1000
0100
,
0010
0001
0010
0001
1000
0001
1000
0010
1000
0010
0100
0010
0100
0001
0100
0001
,
1000
0001
1000
0100
1000
0100
0010
0100
0010
0001
0010
0001
1000
0001
0100
0010
,
1000
0100
1000
0100
0010
0100
0010
0001
0010
0001
1000
0001
1000
0010
1000
0010
,
0100
0010
0100
0001
0100
0001
1000
0001
1000
0100
1000
0100
0010
0001
1000
0010
,
0100
0010
0100
0001
0100
0001
1000
0001
1000
0100
1000
0100
0010
0100
0010
0001
,
0010
0001
1000
0001
1000
0010
1000
0010
0100
0010
0100
0001
0100
0001
1000
0100
,
0010
0001
1000
0001
1000
0010
1000
0010
0100
0010
0100
0001
0100
0001
1000
0001
,
1000
0100
1000
0100
0010
0100
0010
0001
0010
0001
1000
0010
0100
0001
1000
0100
,
0010
0001
0010
0001
1000
0001
1000
0010
1000
0010
0100
0010
0100
0001
0100
0001
,
1000
0000
0001
0000
1000
0000
0100
0000
1000
0000
0100
0000
0010
0000
0100
0000
0010
0000
0001
0000
2000
0000
0000
0000
3020
0000
0000
0030
0200
0000
0300
0000
,
0002
0003
0000
0000
1000
0000
0000
0000
0100
0000
0000
0000
0010
0000
0000
0000
0001
0000
0000
0000
0100
0000
0000
0000
0010
0000
0000
0000
1000
0000
0000
0000
,
0010
0000
1000
0000
0001
0000
0010
0000
0100
0000
1000
0000
0100
0000
0010
0001
,
0010
0001
0100
0010
1000
0010
0100
0001
,
0100
0000
0010
0000
1000
0000
0001
0000
0010
0000
0100
0000
0010
0000
0001
1000
,
0001
1000
0010
0100
0001
1000
0100
0010
,
0001
0000
1000
0000
0010
0000
0100
0000
0001
0000
0010
0100
0010
0000
0100
1000
,
0100
1000
0010
0100
0001
1000
0001
0010
,
0100
0000
1000
0000
0100
0000
0010
0000
0001
0000
0010
0000
0001
0000
1000
0010
,
1000
0001
0100
0010
1000
0010
0100
0001
,
0010
0000
0100
0000
1000
0000
0010
0000
1000
0000
0001
0000
0010
0000
0100
0010
,
0001
0010
0001
0100
0010
1000
0100
0010
,
0001
0000
1000
0000
0010
0000
0100
0000
0001
0000
1000
0000
0010
0000
1000
0100
,
0010
0001
0010
0001
1000
0010
0100
0010
,
1000
0000
0010
0000
1000
0000
0001
0000
0010
0000
0001
0100
0001
0000
0100
0010
,
0100
0010
1000
0100
0010
0001
1000
0010
,
0100
0000
0100
0000
0001
0000
0001
0000
1000
0000
0000
0000
0001
1000
0001
1000
,
0001
0000
1001
0000
0101
0000
0010
0100
,
0001
0000
0101
0000
1001
0000
1000
0100
,
0010
0010
0001
0001
0100
0000
0110
0000
,
0001
0100
0001
0100
0010
0100
0010
1000
0010
0000
0000
0000
1000
0000
0100
0000
,
0010
0000
0011
0000
1001
0000
1000
0010
,
1000
0000
0010
0100
0001
0000
1000
0001
,
0010
0010
0100
0100
1000
0000
1001
0000
,
0001
0010
0001
0010
0100
0010
0100
1000
0100
0000
0000
0000
1000
0001
1000
0001
,
1000
0000
1010
0000
0101
0000
1000
0100
,
0010
0000
0001
1000
0010
0010
0100
0100
,
0001
0000
0000
0000
1001
0000
0000
0000
1000
0010
1000
0010
0100
0010
0100
0001
,
0100
0000
0001
1000
0010
0000
0110
0000
,
0101
1001
1100
0110
,
0011
0000
1001
0000
1000
1000
0100
0100
,
0010
0000
0000
0000
0011
0000
0000
0000
0001
0010
0001
0010
0100
0010
0100
1000
,
0100
0000
0000
0000
1000
0100
1000
0100
1000
0000
0000
0000
1000
0000
0010
0000
,
1000
1000
0100
0100
0010
0000
0001
0010
,
0100
0000
1100
0000
1001
0000
1000
0010
,
0100
0000
0100
0000
0001
0000
0001
0000
0100
0010
0100
0010
1000
0010
1000
0001
,
1000
0000
0010
0100
0001
0000
1000
0001
,
0100
0100
0010
0010
1000
0000
1001
0000
,
1000
0100
0010
0100
1000
1000
0010
0010
,
0100
0000
0000
0000
0101
0000
0000
0000
0100
0001
0100
0001
1000
0001
1000
0010
,
1000
0000
0000
0000
0001
0100
0001
0100
0001
0000
0000
0000
1001
0000
0000
0000
,
0001
1000
0010
1000
0001
0010
0100
1000
,
0001
0010
0001
0100
0010
1000
0001
1000
,
0001
1000
0010
0100
0001
1000
0100
0010
,
0001
1000
0001
1000
0001
1000
0001
1000
0001
0000
0000
0000
0000
0000
0000
0000
,
0000
0000
0000
0000
,
0000
0000
0000
0000
,
0000
0000
0000
0000
,
MMMM
0000
0000
0000
;

//---------------dance-single - Mad Matt----------------
#NOTES:
     dance-single:
     Mad Matt:
     Hard:
     19:
     1.000,1.000,0.373,0.120,1.000,1438.000,53.000,17.000,4.000,2.000:

1000
0000
0001
0000
0100
0000
0010
1000
,
0010
0000
1000
0000
0001
0000
0010
0100
,
0010
0000
0100
0000
1000
0000
0001
0100
,
0001
0100
0010
2000
,
3001
0000
0100
0000
0010
0000
1000
0100
,
0010
0000
0001
0000
0010
0000
0100
1000
,
0100
0000
1000
0000
0010
0000
0100
0001
,
1000
0000
0100
0000
1000
0000
0010
0000
0100
0000
0000
0000
0001
1000
0001
1000
,
0001
1000
0001
0010
0100
1000
0010
0100
,
0001
0000
1000
0000
0001
0000
0010
0000
0100
0000
1000
0000
0100
0000
1000
0001
,
1000
0010
0100
0010
1000
0001
1000
0100
,
1000
0000
0010
0000
1000
0000
0002
0003
0020
0030
0200
0300
2000
3000
0002
0003
,
0100
0010
1000
0010
0100
0001
1000
0100
,
0010
0000
0100
0000
1000
0000
0001
0000
0100
0000
0010
0000
1000
0001
1000
0001
,
1000
0100
0010
0100
1000
0001
1000
0010
,
0100
0000
0010
0000
0100
0000
0001
0000
0100
0000
0010
0000
1000
0001
1000
0001
,
1000
0000
0101
0000
0110
0000
0010
1000
,
0100
0000
1100
0000
1100
0000
0100
0010
,
0001
0000
0011
0000
0101
0000
0100
0010
,
1000
0000
0000
0000
1100
0000
0000
0000
1001
0000
0000
0000
0001
0100
0001
0100
,
0001
0000
0101
0000
0110
0000
0010
1000
,
0100
0000
1100
0000
1001
0000
0001
0010
,
0100
0000
0110
0000
1100
0000
0001
0100
,
0040
0030
4000
3000
0400
0300
0040
0030
0004
0003
0000
0000
1000
0001
1000
0001
,
1000
0010
0100
0010
1000
0010
0100
0001
1000
0100
1000
0001
1000
0010
0100
0001
,
1000
0010
0100
0001
0100
0010
0100
0001
1000
0100
1000
0001
1000
0010
0100
0001
,
1000
0010
0100
0010
1000
0010
0100
0001
1000
0100
1000
0001
1000
0010
0100
0001
,
1000
0010
0100
0001
0100
0010
0100
0001
1000
0100
1000
0001
1000
0010
0100
0001
,
1000
0001
0010
0100
1000
0100
0010
0100
1000
0001
0100
0001
1000
0001
0010
0100
,
1000
0001
0010
0100
0010
0001
0010
0100
1000
0001
0100
0001
1000
0001
0010
0100
,
1000
0001
0010
0100
1000
0100
0010
0100
1000
0001
0100
0001
1000
0001
0010
0100
,
1000
0001
0010
0100
0010
0001
0010
0100
1000
0001
0100
0001
1000
0001
0010
0100
,
1000
0001
0100
0001
1000
0100
1000
0010
1000
0001
0010
0001
1000
0100
1000
0010
,
1000
0001
0010
0001
1000
0100
1000
0010
1000
0001
0010
0100
1000
0001
0010
0100
,
1000
0001
0010
0001
0100
0001
1000
0100
1000
0001
0010
0001
0100
0001
1000
0100
,
1000
0001
0010
0001
0100
0001
1000
0100
1000
0001
0010
0100
1000
0001
0010
0100
,
1000
0001
0100
0001
1000
0010
1000
0100
1000
0001
0100
0001
1000
0010
1000
0100
,
1000
0001
0100
0001
1000
0010
1000
0100
1000
0001
0010
0100
1000
0001
0010
0100
,
1000
0001
1000
0010
0100
0010
1000
0001
1000
0100
0010
0100
1000
0001
1000
0010
,
0100
0000
0000
0010
0000
0000
1000
0000
0000
0001
0000
0000
1000
0000
0000
0100
0000
0000
0010
0000
0000
0100
0000
0000
4000
0000
0000
0000
0000
0000
0000
0000
3000
0000
0000
0000
0004
0000
0000
0000
0000
0000
0000
0000
0003
0000
0000
0000
,
1111
0000
0000
0000
,
0000
0000
0000
0000
,
1111
0000
0000
0000
,
0000
0000
0000
0000
,
1000
0001
1000
0001
1000
0001
2000
0000
0000
0000
3000
0000
0000
0000
0000
0000
,
0001
0100
0001
0100
0001
0100
0002
0000
0000
0000
0003
0000
0000
0000
0000
0000
,
1000
0001
1000
0000
0000
0000
0000
0000
0010
1000
0010
0000
0000
0000
0000
0000
,
2000
3040
0230
0304
,
1003
0010
0100
0001
1000
0100
1000
0001
1000
0010
0100
0001
1000
0100
1000
0001
,
1000
0010
0100
0001
1000
0100
1000
0001
1000
0010
0100
0001
0100
0010
0100
0001
,
1000
0001
0010
0100
1000
0001
0100
0001
1000
0001
0010
0100
1000
0001
0100
0001
,
1000
0001
0010
0100
1000
0001
0100
0001
1000
0001
0010
0100
1000
0100
0010
0100
,
1000
0001
0100
0010
1000
0100
0010
0001
,
0010
0000
0100
0000
1000
0000
0001
0000
1000
0000
0010
0100
0010
0000
0100
0001
,
0100
0001
0100
0010
1000
0100
0010
0001
,
1000
0000
0001
0000
1000
0000
0001
0000
0200
0000
0000
0000
0304
0000
0000
0003
,
1000
0010
0100
0001
0100
0010
0100
0001
1000
0100
1000
0001
0100
0010
0100
0001
,
1000
0010
0100
0001
0100
0010
0100
0001
1000
0100
1000
0001
0100
0010
0100
0001
,
1000
0100
0010
0001
0010
0100
0010
0001
1000
0010
1000
0100
1000
0001
0100
0001
,
1000
0100
0010
0001
0010
0100
0010
0001
1000
0010
1000
0100
1000
0001
0100
0001
,
1000
0100
0010
0001
1000
0100
1000
0010
1000
0001
0010
0001
1000
0100
1000
0010
,
1000
0001
0010
0001
1000
0100
1000
0010
1000
0001
0010
0100
1000
0001
0010
0100
,
1000
1100
0011
0110
,
1001
0011
0110
1100
,
1001
0001
0100
0010
1000
0000
1001
0000
,
0001
0100
0001
0100
0001
0100
0001
0100
0001
0000
0000
0000
1000
0000
0001
0000
,
1000
0100
1000
0001
0010
0001
0100
0001
1000
0100
1000
0001
0010
0001
0100
0001
,
1000
0100
1000
0001
0010
0001
0100
0001
1000
0010
0100
0001
1000
0010
0100
0001
,
1000
0010
1000
0100
1000
0001
0100
0001
1000
0010
1000
0100
1000
0001
0100
0001
,
1000
0010
1000
0100
1000
0001
0100
0001
1000
0010
0100
0001
1000
0010
0100
0001
,
1000
0010
1000
0001
0100
0001
0010
0001
1000
0010
1000
0001
0100
0001
0010
0001
,
1000
0010
1000
0001
0100
0001
0010
0001
1000
0001
0010
0100
1000
0001
0010
0100
,
1000
0001
1000
0010
0100
0001
0100
0010
1000
0001
1000
0100
0010
0100
1000
0100
,
0010
0001
1000
0001
0100
0010
0100
0001
0100
0010
1000
0001
1000
0100
1000
0001
,
1000
0001
0010
0100
1000
0100
1000
0001
,
1000
0000
0001
0000
0010
0000
0100
0000
1000
0000
0001
0000
0010
0000
0100
1000
,
0100
1000
0001
0100
0001
1000
0010
0100
,
0001
0000
1000
0000
0010
0000
0100
0000
0001
0000
1000
0000
0001
0000
0010
0001
,
0010
0100
1000
0001
0010
0100
1000
0001
,
0100
0001
1000
0001
0010
0100
1000
0001
,
1000
0001
1000
0001
1000
0001
1000
0001
1000
0001
1000
0001
1000
0001
1000
0001
,
1000
0001
1000
0001
0020
0430
0320
0430
,
1300
0010
0100
0010
1000
0001
0100
0001
1000
0100
1000
0001
1000
0010
0100
0001
,
1000
0010
1000
0001
0100
0010
0100
0001
1000
0100
1000
0001
1000
0010
0100
0001
,
1000
0010
0100
0010
1000
0001
0100
0001
1000
0100
1000
0001
1000
0010
0100
0001
,
1000
0010
1000
0001
0100
0010
0100
0001
1000
0100
1000
0001
1000
0010
0100
0001
,
1000
0001
0010
0001
1000
0100
0010
0100
1000
0001
0100
0001
1000
0001
0010
0100
,
1000
0001
0010
0100
0010
0001
1000
0100
1000
0001
0100
0001
1000
0001
0010
0100
,
1000
0001
0010
0001
1000
0100
0010
0100
1000
0001
0100
0001
1000
0001
0010
0100
,
1000
0001
0010
0100
0010
0001
1000
0100
1000
0001
0100
0001
1000
0001
0010
0100
,
1000
0001
0100
0010
0100
0001
1000
0100
1000
0010
1000
0001
0100
0010
0100
0001
,
1000
0010
1000
0001
0100
0010
0100
0001
1000
0100
1000
0010
1000
0001
0100
0001
,
1000
0001
0100
0010
0100
0001
1000
0100
1000
0010
1000
0001
0100
0010
0100
0001
,
1000
0010
1000
0001
0100
0010
0100
0001
1000
0100
1000
0010
1000
0001
0100
0010
,
1000
0001
0010
0100
0010
0001
1000
0010
1000
0100
1000
0001
0010
0100
0010
0001
,
1000
0100
1000
0001
0010
0100
0010
0001
1000
0010
1000
0100
1000
0001
0010
0001
,
1000
0100
1000
0010
1000
0001
0100
0001
1000
0010
1000
0100
1000
0001
0010
0001
,
1000
0000
0100
0000
1000
0000
0010
0000
1000
0000
0001
0000
0100
0000
0010
0000
1000
0000
0001
0000
2000
0000
0000
0000
3020
0000
0000
0030
0200
0000
0300
0000
,
0002
0003
0000
0000
1000
0000
0000
0000
0100
0000
0000
0000
0010
0000
0000
0000
0001
0000
0000
0000
0100
0000
0000
0000
0010
0000
0000
0000
1000
0000
0000
0000
,
0010
0000
1000
0000
0001
0000
0010
0000
0100
0000
1000
0000
0100
0000
0010
0001
,
0010
0001
0100
0010
1000
0010
0100
0001
,
0100
0000
0010
0000
1000
0000
0001
0000
0010
0000
0100
0000
0010
0000
0001
1000
,
0001
1000
0010
0100
0001
1000
0100
0010
,
0001
0000
1000
0000
0010
0000
0100
0000
0001
0000
0010
0100
0010
0000
0100
1000
,
0100
1000
0010
0100
0001
1000
0001
0010
,
0100
0000
1000
0000
0100
0000
0010
0000
0001
0000
0010
0000
0001
0000
1000
0010
,
1000
0001
0100
0010
1000
0010
0100
0001
,
0010
0000
0100
0000
1000
0000
0010
0000
1000
0000
0001
0000
0010
0000
0100
0010
,
0001
0010
0001
0100
0010
1000
0100
0010
,
0001
0000
1000
0000
0010
0000
0100
0000
0001
0000
1000
0000
0010
0000
1000
0100
,
0010
0001
0010
0001
1000
0010
0100
0010
,
1000
0000
0010
0000
1000
0000
0001
0000
0010
0000
0001
0100
0001
0000
0100
0010
,
0100
0010
1000
0100
0010
0001
1000
0010
,
0100
0000
0100
0000
0001
0000
0001
0000
1000
0000
0000
0000
0001
1000
0001
1000
,
0001
0000
1001
0000
0101
0000
0010
0100
,
0001
0000
0101
0000
1001
0000
1000
0100
,
0010
0010
0001
0001
0100
0000
0110
0000
,
0001
1000
0001
0010
0001
1000
0100
1000
0001
0000
0000
0000
1000
0000
0100
0000
,
0010
0000
0011
0000
1001
0000
1000
0010
,
1000
0000
0010
0100
0001
0000
1000
0001
,
0010
0010
0100
0100
1000
0000
1001
0000
,
0001
0100
0001
1000
0001
0010
0100
1000
0001
0000
0000
0000
1000
0001
1000
0001
,
1000
0000
1010
0000
0101
0000
1000
0100
,
0010
0000
0001
1000
0010
0010
0100
0100
,
0001
0000
0000
0000
1001
0000
0000
0000
1000
0010
0100
0010
1000
0010
0100
0001
,
1000
0000
0001
1000
0010
0000
0110
0000
,
0101
1001
1100
0110
,
0011
0000
1001
0000
1000
1000
0100
0100
,
0010
0000
0000
0000
0011
0000
0000
0000
0001
0100
0010
0100
0001
1000
0100
1000
,
0001
0000
0000
0000
1000
0100
1000
0100
1000
0000
0000
0000
1000
0000
0010
0000
,
1000
1000
0100
0100
0010
0000
0001
0010
,
0100
0000
1100
0000
1001
0000
1000
0010
,
0100
0000
0100
0000
0001
0000
0001
0000
0100
0010
1000
0010
0100
0010
1000
0001
,
1000
0000
0010
0100
0001
0000
1000
0001
,
0100
0100
0010
0010
1000
0000
1001
0000
,
1000
0100
0010
0100
1000
1000
0010
0010
,
0100
0000
0000
0000
0101
0000
0000
0000
1000
0100
0010
0100
1000
0100
0010
0001
,
1000
0000
0000
0000
0001
0100
0001
0100
0001
0000
0000
0000
1001
0000
0000
0000
,
0001
1000
0010
1000
0001
0010
0100
1000
,
0001
0010
0001
0100
0010
1000
0001
1000
,
0001
1000
0010
0100
0001
1000
0100
0010
,
0001
1000
0001
1000
0001
1000
0001
1000
0001
0000
0000
0000
0000
0000
0000
0000
,
0000
0000
0000
0000
,
0000
0000
0000
0000
,
0000
0000
0000
0000
,
MMMM
0000
0000
0000
;
