#TITLE:TANK (PARA PARA MIX);
#SUBTITLE:;
#ARTIST:KONAMI;
#TITLETRANSLIT:;
#SUBTITLETRANSLIT:;
#ARTISTTRANSLIT:;
#CREDIT:;
#BANNER:bn.JPG;
#BACKGROUND:bg.JPG;
#LYRICSPATH:;
#CDTITLE:kevcdms4.png;
#MUSIC:Cowboy Bebop - Tank [Para Para Mix].mp3;
#OFFSET:-7.127;
#SAMPLESTART:27.340;
#SAMPLELENGTH:12.400;
#SELECTABLE:YES;
#BPMS:0.000=307.970;
#STOPS:94.000=1.520
;
#BGCHANGES:535.000=Cowboy Bebop - Tank [Para Para Mix] bg.png=1.000=0=0=1,
99999=-nosongbg-=1.000=0=0=0 // don't automatically add -songbackground-
;
// cache tags:
#FIRSTBEAT:0.000;
#LASTBEAT:544.000;
#SONGFILENAME:Songs/cedric step/Cowboy Bebop - Tank [Para Para Mix]/Cowboy Bebop - Tank [Para Para Mix].sm;
#HASMUSIC:1;
#HASBANNER:1;
#MUSICLENGTH:116.566;
// end cache tags

//---------------dance-single - ----------------
#NOTES:
     dance-single:
     :
     Hard:
     13:
     1.000,1.000,0.755,0.669,0.605,713.000,88.000,78.000,0.000,3.000:
1000
0100
0010
0001
0000
0000
0000
0000
1000
0100
0001
0000
0010
0000
0000
0000
,
1000
0010
0100
0000
0010
0000
0000
0000
1000
0000
0000
0000
0001
0000
0000
0000
,
1000
0000
1001
1001
,
0000
0110
0110
0000
,
0010
0001
0100
0000
0000
0000
0000
0000
0010
0100
1000
0100
0010
0000
0000
0000
,
0001
0010
0100
0001
0010
0000
0000
0000
1000
0000
0000
0000
0001
0000
0000
0000
,
0001
0000
0100
0001
,
0000
0100
0010
0000
,
0001
0010
0100
0010
0001
0000
0000
0000
0001
0010
0001
0010
0100
0000
0000
0000
,
1000
0001
0010
0000
1000
0000
0001
0000
,
0011
0000
1010
0000
,
0000
0100
0010
0000
,
1000
0100
0010
0001
0010
0000
0000
0000
0001
1000
0010
0001
0100
0000
0000
0000
,
1000
0001
0100
0000
1000
0000
0001
0000
,
0001
0000
0001
0010
,
0000
0001
1000
0000
,
1000
0000
0000
0000
0100
1000
0100
0010
0100
0010
0001
0000
0010
0000
0100
0000
,
2000
0000
0000
0000
0000
0000
0000
0000
0000
0000
0000
0000
0000
0000
0000
0000
0000
0000
0000
0000
0000
0000
0000
0000
0010
0000
0000
0000
0000
0000
0000
0000
0000
0000
0000
0000
0000
0000
0000
0000
0000
3000
0000
0000
0000
0000
0000
0000
,
0001
0000
0000
0000
1000
0100
0010
0100
0001
0100
0010
0000
1000
0000
0001
0000
,
0002
0000
0000
0000
0000
0000
0000
0000
0000
0000
0000
0000
0000
0000
0000
0000
0000
0000
0000
0000
0000
0000
0000
0000
1000
0000
0000
0000
0000
0000
0000
0000
0000
0000
0000
0000
0000
0000
0000
0000
0000
0003
0000
0000
0000
0000
0000
0000
,
1000
0100
0000
0000
0010
0001
1000
0000
,
1000
0100
0010
0000
0001
0000
0100
0000
,
1010
0010
0101
0001
,
1001
0000
0000
0000
0000
0000
1010
0110
2002
0000
3003
0000
0000
0000
0000
0000
,
1000
0010
0001
0000
0000
0000
0010
0100
1000
0000
0000
0000
0001
0010
0100
0000
,
1000
0001
1000
0000
0110
0000
1001
0000
,
1100
1001
0110
0101
,
1001
1001
0011
1100
,
0011
1100
0000
0001
0100
0000
1000
0001
,
1000
0100
0010
0100
0001
0000
0000
0000
1000
0000
0000
0000
0100
0000
0000
0000
,
1000
0010
0001
0100
,
1000
0001
0010
0100
,
0001
1000
0010
1000
0000
0000
0010
0000
0100
0000
0000
0000
0100
0000
1000
0000
,
0110
0001
0000
0000
1000
0000
0001
0000
,
0001
1100
0011
1100
,
0011
0110
1100
1001
,
0001
0010
0100
0000
0000
0000
1000
0100
0010
0000
0000
0000
0001
0010
0100
0000
,
1000
0010
0001
0000
1000
0000
1000
0000
,
0010
0100
1000
0001
,
0100
0010
1000
0100
,
1000
0000
0000
0000
0001
0010
0001
1000
0100
0010
1000
0000
0010
0000
0100
0000
,
2000
0000
0000
0000
0000
0000
0000
0000
0000
0000
0000
0000
0000
0000
0000
0000
0000
0000
0000
0000
0000
0000
0000
0000
0001
0000
0000
0000
0000
0000
0000
0000
0000
0000
0000
0000
0000
0000
0000
0000
0000
3000
0000
0000
0000
0000
0000
0000
,
0010
1001
0000
0110
,
0010
1000
0100
0000
0000
0000
0000
0000
1001
0000
0000
0000
0110
0000
0000
0000
,
0001
1000
0010
0000
0000
0000
1000
0001
0100
0000
0000
0000
0001
0000
1000
0000
,
0001
1000
0000
1000
0001
0000
2002
3003
,
0000
0000
0220
0330
2002
0000
0000
0000
,
0010
0000
0000
0000
0010
0000
0000
0000
0100
0000
0000
3003
0100
0000
0000
0000
,
0011
1000
0000
0100
0011
0000
1100
0010
,
1001
0000
0000
0000
0000
0000
0100
0000
0000
0000
0000
0000
2000
0000
0000
0000
0000
0000
0000
0000
0000
3000
0000
0000
0002
0000
0000
0000
0000
0000
0000
0000
0000
0000
0000
0000
0000
0000
0003
0000
0000
0000
0000
0000
0000
0000
0000
0000
,
0010
0000
0000
0000
0100
0000
0000
0000
0001
0000
0010
0000
1000
0001
0100
1000
,
0010
0000
0000
0000
0000
0000
1010
0000
0000
0000
0000
0000
0202
0000
0000
0000
0000
0000
0000
0303
0000
0000
0000
0000
,
0010
0000
0100
0000
0000
0000
1000
0000
0010
0000
0000
0000
0001
0000
0010
0100
,
1001
0000
0000
0010
0000
0000
0100
0000
0000
0001
0000
0000
1000
0000
0000
0000
0000
0000
0000
0000
0000
0000
0000
0000
0020
0000
0000
0000
0000
0000
0000
0000
0000
0000
0000
0000
0000
0000
0000
0000
0000
0030
0000
0000
0000
0000
0000
0000
,
0010
0000
0100
0000
0010
1000
0010
0100
,
0010
0100
1001
0000
,
0001
1000
0010
0000
0000
0000
0010
0001
0100
0000
0000
0000
0100
0001
1000
0000
,
0010
0000
0000
0000
0000
0000
0100
0000
0000
0000
0000
0000
0001
0000
0000
0000
0000
0000
0000
0000
0000
0000
0000
0000
0200
0000
0000
0000
0000
0000
0000
0000
0000
0000
0000
0000
0000
0000
0000
0000
0000
0300
0000
0000
0000
0000
0000
0000
,
0010
0100
0101
1001
,
1100
0011
1001
0110
,
0010
0001
0100
0000
0000
0000
1000
0100
0001
0000
0000
0000
0010
0001
0100
0000
,
1000
0000
0100
0000
0001
0000
0000
0000
2000
0000
0000
0000
0000
3000
0000
0000
,
0010
1000
0001
0100
,
0010
0100
1000
0001
,
0010
0000
0000
0000
0100
0000
0000
0000
1000
0100
0001
1000
0010
1000
0100
0000
,
0001
1000
0110
0010
,
1000
0001
0000
1000
0001
0000
0100
0000
,
0010
0001
0100
0001
1010
0000
0000
0000
0101
0000
0000
0000
0000
0000
0000
0000
,
1000
0010
0000
0001
0100
0000
1000
0010
,
0101
0000
0000
0000
0000
0000
0100
0000
0000
0000
0000
0000
1000
0000
0000
0000
0000
0000
0000
0000
0000
0000
0000
0000
0200
0000
0000
0000
0000
0000
0000
0000
0000
0000
0000
0000
0000
0000
0000
0000
0000
0300
0000
0000
0000
0000
0000
0000
,
0010
0000
0110
2002
,
0000
0000
0000
0000
0000
3003
0100
0000
,
2010
0000
0000
0000
0000
0000
0000
0000
0000
0000
0000
0000
0001
0000
0000
0000
0000
0000
0000
0000
0000
0000
0000
0000
0100
0000
0000
0000
0000
0000
0000
0000
0000
0000
0000
0000
0001
0000
0000
0000
0000
3000
0000
0000
0000
0000
0000
0000
,
0010
0100
0001
1000
,
0002
0000
0000
0000
0000
0000
0000
0000
0000
0000
0000
0000
0000
0000
0000
2000
0003
0000
0000
0000
0000
0000
0000
0000
0000
0000
0000
0000
0000
0000
3020
0000
0000
0000
0000
0000
0000
0000
0000
0000
0000
0000
0000
0000
0000
0000
0000
0000
,
0032
0000
0000
0000
0000
0000
0000
0000
0000
0000
0000
0000
0000
0000
0000
2000
0003
0000
0000
0000
0000
0000
0000
0000
0000
0000
0000
0000
0000
0000
3020
0000
0000
0000
0000
0000
0000
0000
0000
0000
0000
0000
0000
0000
0000
0000
0000
0000
,
0032
0000
0000
0000
0000
0000
0000
0000
0000
0000
0000
0000
0000
0000
0000
0020
0003
0000
0000
0000
0000
0000
0000
0000
0000
0000
0000
0000
0000
0000
0230
0000
0000
0000
0000
0000
0000
0000
0000
0000
0000
0000
0000
0000
0000
0000
0000
0000
,
2300
0000
0000
0000
0000
0000
0000
0000
0000
0000
0000
0000
0000
0000
0000
0020
3000
0000
0000
0000
0000
0000
0000
0000
0000
0000
0000
0000
0000
0000
2030
0000
0000
0000
0000
0000
0000
0000
0000
0000
0000
0000
0000
0000
0000
0000
0000
0000
,
3200
0000
0000
0000
0010
0000
0002
0300
,
0000
0000
0000
0000
0000
0000
0000
0000
0000
0000
0000
0000
0000
0000
0000
0000
0000
0000
0000
0000
0000
0000
0000
0000
1000
0000
0000
0000
0000
0000
0000
0000
0000
0000
0000
0000
0000
0000
0000
0000
0000
0003
0000
0000
0000
0000
0000
0000
,
0000
0000
1010
0101
,
1000
0000
0000
0000
0000
0000
0000
0000
0000
0000
0000
0000
0002
0000
0000
0000
0000
0000
0000
0000
0003
0000
0000
0000
2000
0000
0000
0000
0000
0000
0000
0000
0000
3000
0000
0000
0200
0000
0000
0000
0000
0000
0000
0000
0000
0300
0000
0000
,
0000
0000
0220
0330
0000
0220
0330
0000
,
2020
3030
0000
0020
0030
0000
2000
3000
,
0020
0000
0000
0000
0000
0000
0000
0000
0000
0000
0000
0000
0000
0000
0000
0000
0000
0000
0000
0000
0000
0000
0000
0000
2000
0000
0000
3000
0000
0000
0000
0000
0000
0000
0000
0000
0000
0000
0000
0000
0000
0030
0000
0000
0000
0000
0000
0000
,
2000
0000
0000
0000
0000
0000
0000
0000
0020
0030
0000
0000
0000
0000
3000
0000
,
0020
0000
0000
0000
0000
0000
0000
0000
2000
3000
0000
0000
0000
0000
0030
0000
,
2000
0000
0000
0000
0000
0000
0000
0000
0200
0300
0000
0000
0000
0000
3000
0000
,
0010
0000
0000
0000
1000
0001
0010
0000
0000
0000
0001
0010
0100
0000
0000
0000
,
1000
0010
0100
0000
0001
0000
0000
0000
0010
0000
0000
0000
2000
0000
0000
0000
,
0000
0000
0000
0000
0000
0000
3000
0000
0010
0001
0100
0000
0001
0010
1000
0000
,
0010
0100
1100
0110
0110
0011
0110
0110
,
1100
0000
0000
0000
0001
1000
0010
0000
0000
0000
1010
0000
0100
0000
0000
0000
,
0010
0100
0010
0000
0001
0000
2000
0000
,
0000
0000
3000
0200
2300
3000
0020
0230
,
0300
0000
0020
0030
2000
3000
0002
0203
,
0300
0000
0000
0000
1000
0000
0010
0000
0000
0000
0001
0100
0010
0000
0000
0000
,
0100
0010
1000
0000
0010
0000
0000
0000
0001
0000
0000
0000
2000
0000
0000
0000
,
0000
3000
1000
0000
0001
0000
0010
0000
,
0100
1000
0001
1000
,
0001
0000
0000
0000
0000
0000
0000
0000
0000
0000
0000
0000
1000
0000
0000
0000
0000
0000
0000
0000
0000
0000
0000
0000
0001
0000
0000
1000
0000
0000
0010
0000
0000
1000
0000
0000
0200
0000
0000
0000
0000
0000
0000
0000
0300
0000
0000
0000
,
1000
0000
0000
0000
0001
0000
0000
0000
0010
1000
0100
1000
0001
0000
0000
0000
,
1000
0000
0000
0000
0001
0000
0000
0000
1000
0100
0001
0100
1000
0000
0000
0000
,
0001
0000
0000
0000
0010
0000
0000
0000
1000
0010
0100
0001
1000
0000
0000
0000
,
0001
0000
0000
0000
1000
0000
0000
0000
0001
0000
0010
0000
1000
0010
0100
0001
,
0020
0000
0000
0030
1100
0000
0000
0000
,
0001
0000
0000
0000
1010
0000
0000
0000
0000
0000
1000
0100
0010
0000
0000
0000
,
0100
0001
1000
0010
,
1000
0100
0001
0000
0000
0000
0001
0100
0010
0000
0000
0000
0100
0001
1000
0000
,
0000
0000
0000
0000
0010
0000
0000
0000
0001
0000
0000
0000
2000
0000
0000
3000
,
1000
0001
1000
0001
2002
0000
0000
0000
,
0000
0000
0000
0000
0000
3003
0000
0000
0000
0000
0000
0000
0001
0000
0000
0000
0000
0000
0000
0000
0000
0000
0000
0000
0100
0000
0000
0000
0000
0000
0000
0000
0000
0000
0000
0000
1000
0000
0000
0000
0000
0000
0000
0000
0000
0000
0000
0000
,
0001
0100
0010
0001
0010
0001
0100
0010
1000
0001
0010
0100
1000
0010
0101
0010
,
1000
0100
0001
0100
0010
0001
0100
0010
1000
0100
0001
0100
0020
0000
0000
0000
,
0000
0000
0030
0000
0010
0100
0010
0001
0010
0100
1000
0010
0001
0010
0001
0010
,
0100
0010
1000
0100
0001
0100
1000
0100
0010
0100
0010
0001
1000
0010
0001
0100
,
0010
0000
0100
0010
0100
1000
0001
0100
0010
1000
0100
0001
1000
0010
0100
0001
,
0010
0100
0001
0010
0100
0001
0010
0000
0001
0010
0000
0200
0000
0000
0000
0000
,
0000
0300
0110
0000
1100
0000
1001
0000
,
0110
0011
1001
0110
,
1000
0010
0100
0000
0000
0000
0001
0100
0010
0000
0000
0000
0100
0010
1000
0000
,
0010
0010
1000
0200
,
0000
0300
0001
0000
0010
0000
1000
0000
,
0100
1000
0010
1000
,
0001
0000
0010
0000
0000
0100
0010
0001
1000
0000
0000
0000
0100
1000
0001
0010
,
0100
1000
0001
0020
,
0000
0030
0100
0000
0001
0000
1000
0000
,
0010
0010
1000
0001
,
1000
0000
0000
0000
0001
0000
0000
0000
1000
0010
0100
0010
0001
0000
0010
0000
,
0020
0000
0000
0000
0000
0000
0000
0000
0000
0000
0000
0000
0000
0000
0000
0000
0000
0000
0000
0000
0000
0000
0000
0000
1000
0000
0000
0000
0000
0000
0000
0000
0000
0000
0000
0000
0000
0000
0000
0000
0000
0000
0000
0000
0000
0000
0000
0030
,
0000
0000
0000
0000
0110
0000
0000
0000
0000
0000
0010
0100
1001
0000
0000
0000
,
0110
0010
1000
0001
,
0010
0100
1000
0000
0000
0000
0100
0010
0001
0000
0000
0000
0010
0000
0100
0010
,
1000
0010
0100
0000
0001
0100
0010
0001
0100
0010
1000
0000
0010
0100
0010
0100
,
2002
0000
0000
0000
,
0000
0000
0000
0000
,
3003
0000
0000
0000
;
