#TITLE:星空の観覧車;
#SUBTITLE:;
#ARTIST:ああああ;
#TITLETRANSLIT:Hoshizora no kanran-sha;
#SUBTITLETRANSLIT:;
#ARTISTTRANSLIT:;
#CREDIT:;
#BANNER:../BN.png;
#BACKGROUND:../BG.png;
#LYRICSPATH:;
#CDTITLE:../CDTitleJoseNEW.png;
#MUSIC:Hoshizora no kanran-sha.ogg;
#OFFSET:-0.083;
#SAMPLESTART:58.620;
#SAMPLELENGTH:9.366;
#SELECTABLE:YES;
#BPMS:0.000=205.000;
#STOPS:;
#BGCHANGES:;
// cache tags:
#FIRSTBEAT:62.500;
#LASTBEAT:452.000;
#SONGFILENAME:Songs/Index Gradation/Hoshizora no kanran-sha - [Jose_Varela]/Hoshizora no kanran-sha.sm;
#HASMUSIC:1;
#HASBANNER:1;
#MUSICLENGTH:135.906;
// end cache tags

//---------------dance-single - Jose_Varela----------------
#NOTES:
     dance-single:
     Jose_Varela:
     Challenge:
     15:
     0.878,1.000,0.147,0.250,0.942,781.000,20.000,34.000,67.000,0.000:
0000
0000
0000
0000
,
0000
0000
0000
0000
,
0000
0000
0000
0000
,
0000
0000
0000
0000
,
0000
0000
0000
0000
,
0000
0000
0000
0000
,
0000
0000
0000
0000
,
0000
0000
0000
0000
,
0000
0000
0000
0000
,
0000
0000
0000
0000
,
0000
0000
0000
0000
,
0000
0000
0000
0000
,
0000
0000
0000
0000
,
0000
0000
0000
0000
,
0000
0000
0000
0000
,
0000
0000
0000
0000
0000
1000
0100
0010
,
0001
0000
1000
0010
0000
0200
0300
0002
,
0000
0003
0010
0000
0002
0003
0020
0030
,
0200
0300
1000
0100
0000
1000
0000
0002
,
0000
0000
0003
1000
1000
0000
0010
0100
,
0000
0000
0000
0001
0001
0000
0100
0010
,
0000
0000
0000
1000
0100
0010
0001
1000
,
0010
0000
0100
0002
0000
0000
0000
0000
,
0003
0000
0000
1000
0010
1000
0010
0100
,
0001
0000
0010
0001
0000
0200
0300
0020
,
0000
0030
2000
3000
0020
0030
0200
0300
,
0001
0000
0010
0100
0000
1000
0000
0020
,
0000
0000
0030
1000
1000
0000
0100
0010
,
0000
0000
0000
0001
0001
0000
0010
0100
,
0000
0000
0000
1000
0010
0100
0001
0010
,
0100
0000
1000
0010
0000
1000
0000
0001
,
0000
M000
MM00
MMM0
,
0001
0000
0010
0000
0100
0000
1000
0010
0100
0001
1000
0000
0010
1000
0010
0000
,
0100
0000
0001
0000
1000
0000
0010
0100
0001
0100
0010
0000
1000
0100
1000
0000
,
0001
0010
0100
1000
0010
1000
0100
0010
0001
0000
1000
0000
0010
1000
0100
0000
,
0010
0000
0001
0000
1000
0000
0010
0100
0001
0010
0100
0000
1000
0010
1000
0000
,
0100
0000
0010
0000
0001
0000
1000
0010
0100
0001
1000
0000
0010
0100
0001
0000
,
0010
0000
0100
0000
1000
0000
0010
0100
0001
1000
0010
0000
0100
0001
0100
0000
,
0010
0000
1000
0000
0100
0000
0010
0100
1000
0010
1000
0000
0100
0010
0001
0000
,
1000
0000
0010
0000
0100
0000
0000
0000
0002
0000
0000
0003
2000
0000
0000
3000
,
0010
1000
0100
1000
0010
0100
0001
0010
0001
0010
0100
1000
0001
0010
0001
1000
,
0010
0100
0010
1000
0100
0010
0100
1000
0001
0100
0010
0100
0010
1000
0001
0010
,
0100
0010
0100
1000
0001
1000
0001
0010
0100
1000
0100
0010
0001
1000
0100
0010
,
0001
0010
0100
1000
0010
0100
0001
1000
0001
0100
0010
0100
0001
1000
0010
1000
,
0001
0100
0001
0100
0010
1000
0010
0100
0001
1000
0010
0100
0001
0100
0010
1000
,
0100
1000
0100
0010
0001
1000
0010
1000
0100
0010
0001
0010
0100
1000
0001
0100
,
0010
0000
0010
0000
0100
1000
0010
0000
0010
0000
0100
0001
0010
0000
0010
0000
,
0100
1000
0010
0000
0010
0000
M000
0M00
00M0
000M
0M00
00M0
M000
000M
M000
0000
,
0100
0000
0100
0000
1000
0010
0100
0000
0100
0000
0010
1000
0100
0000
0100
0000
,
1000
0010
0100
0000
0100
0010
1000
0100
0010
0000
0000
0000
0000
0000
0000
0000
,
0010
1000
0010
0100
0001
0100
0001
1000
0010
1000
0100
0010
0100
1000
0001
0010
,
0100
0010
0100
1000
0001
0100
0001
0100
0010
1000
0001
1000
0100
0010
0100
1000
,
0001
0100
0001
0100
0010
1000
0100
0010
0100
0010
0001
0100
0010
0100
0001
1000
,
0100
1000
0100
0010
0001
1000
0010
0100
0001
0010
0001
0100
0010
1000
0100
0010
,
0001
0010
0011
0010
0100
1000
1010
0100
,
0001
0000
0010
0000
0110
0000
0100
1000
0010
0000
0100
0000
0001
0000
0100
0000
,
0010
0000
1000
0000
0100
0000
0010
0001
1000
0000
0010
0000
0100
0000
0002
0000
,
0003
0010
0000
0100
0000
1000
0100
0000
,
0100
1000
0100
1000
0010
0100
0010
1000
0001
0010
0100
1000
0010
0100
0010
1000
,
0100
0010
0001
0100
0010
0100
0001
0010
0001
0100
0010
1000
0100
1000
0100
0010
,
0001
1000
0010
1000
0010
0100
0001
1000
0010
0100
0001
0100
0001
0010
0100
1000
,
0010
1000
0100
0010
0001
1000
0100
0010
0001
1000
0010
1000
0001
0100
0010
1000
,
0010
0110
0101
0011
,
0110
0000
0000
0000
1100
0000
0100
1000
0100
0000
0010
0000
0001
0000
0100
0000
,
0010
0000
1000
0000
0001
0010
0100
1000
0001
0010
0100
1000
0010
0000
0200
0000
,
0300
0000
0010
0000
1000
0000
0020
0000
0030
0000
1000
0100
1000
0010
0100
0010
,
2000
0000
0000
0000
,
0000
0000
0000
0000
,
3000
0000
0000
0000
,
0000
0000
0000
0000
,
M000
0000
0000
0000
00M0
0000
0000
0000
0M00
0000
0000
0000
000M
0000
M000
000M
,
M000
00M0
M000
0000
00M0
0000
0000
0000
,
0M00
0000
0000
0000
000M
0000
0000
0000
M000
0000
0000
0000
0M00
0000
00M0
000M
,
M000
00M0
00M0
0000
000M
1000
0100
0010
,
0001
0000
1000
0010
0000
0100
0000
0200
,
0000
0300
0002
0003
0020
0030
0200
0300
,
2000
3000
0010
0100
0000
0001
0000
0020
,
0000
0030
0000
0100
0100
0000
1000
0010
,
0000
0000
0000
0100
0100
0000
0010
1000
,
0000
0000
0000
0001
0010
0001
0100
0010
,
1000
0000
0100
0010
0000
0000
0000
0000
,
0000
0000
0000
0001
0010
0100
1000
0010
,
0100
0001
0010
0100
1000
0100
0010
0001
,
0100
0000
0010
0000
1000
0000
0100
0000
1000
0010
0100
0001
1000
0010
0100
0001
,
1000
0000
0010
0100
0000
0001
0000
2000
,
0000
0000
0000
0000
,
3000
0000
0000
0000
,
0000
0000
0000
0000
M000
0M00
00M0
000M
,
0100
1000
0100
1000
0010
0100
0001
0100
0010
1000
0100
0010
0001
0100
0010
1000
,
0001
0100
0001
0100
0010
1000
0100
1000
0010
0100
0010
1000
0001
0100
0001
0100
,
0010
0000
0010
0000
0100
1000
0010
0000
0010
0000
0100
0001
0010
0000
0010
0000
,
0100
1000
0010
0000
0010
0000
M000
0M00
00M0
000M
0M00
00M0
M000
000M
M000
0000
,
0100
0000
0100
0000
1000
0010
0100
0000
0100
0000
0010
1000
0100
0000
0100
0000
,
1000
0010
0100
0000
0100
0010
1000
0100
0010
0000
0000
0000
0000
0000
0000
0000
,
1001
00M0
0M00
000M
0000
M000
0M00
1010
,
0000
0000
0000
0000
0000
0000
0000
0000
0101
0000
0000
0000
0000
0000
0000
0000
0000
0000
0000
0000
0000
0000
0000
0000
0110
0000
0000
0000
0000
0000
0000
0000
0000
0000
0000
0000
0000
0000
0000
0000
MMMM
0M00
MMMM
00M0
MMMM
0000
0000
0000
0000
0000
0000
0000
0000
0000
0000
0000
0000
0000
0000
0000
0000
0000
0000
0000
,
0001
0100
0001
0100
0010
1000
0100
0010
0100
0010
0001
0100
0010
0100
0001
1000
,
0100
1000
0100
0010
0001
1000
0010
0100
0001
0010
0001
0100
0010
1000
0100
0010
,
0001
0010
0011
0010
0100
1000
1010
0100
,
0001
0000
0010
0000
0110
0000
0100
1000
0010
0000
0100
0000
0001
0000
0100
0000
,
0010
0000
1000
0000
0100
0000
0010
0001
1000
0000
0010
0000
0100
0000
0002
0000
,
0003
0010
0000
0100
0000
1000
0100
0000
,
0100
1000
0100
1000
0010
0100
0010
1000
0001
0010
0100
1000
0010
0100
0010
1000
,
0100
0010
0001
0100
0010
0100
0001
0010
0001
0100
0010
1000
0100
1000
0100
0010
,
0001
1000
0010
1000
0010
0100
0001
1000
0010
0100
0001
0100
0001
0010
0100
1000
,
0010
1000
0100
0010
0001
1000
0100
0010
0001
1000
0010
1000
0001
0100
0010
1000
,
0010
0110
0101
0011
,
0110
0000
0000
0000
1100
0000
0100
1000
0100
0000
0010
0000
0001
0000
0100
0000
,
0010
0000
1000
0000
0001
0010
0100
1000
0001
0010
0100
1000
0010
0000
0200
0000
,
0300
0010
1000
0020
0030
0100
0000
0002
,
0003
0000
1000
0000
0010
0000
1000
0000
0000
0000
0001
0010
0100
1000
0100
0010
,
0001
0010
0100
0000
0100
0000
1000
0010
1000
0000
0100
0000
0010
0001
0010
0000
,
0200
0300
0020
0030
0002
0000
2003
0000
0000
0000
0000
0000
0000
0000
0000
0000
,
3000
0000
0000
0000
;
