#TITLE:Cyber Beasts!;
#SUBTITLE:;
#ARTIST:MegaMan Battle Network 6;
#TITLETRANSLIT:;
#SUBTITLETRANSLIT:;
#ARTISTTRANSLIT:;
#CREDIT:;
#BANNER:Cyber Beasts!-bn.png;
#BACKGROUND:Cyber Beasts!-bg.png;
#LYRICSPATH:;
#CDTITLE:;
#MUSIC:Cyber Beasts!.ogg;
#OFFSET:-0.238;
#SAMPLESTART:17.080;
#SAMPLELENGTH:12.000;
#SELECTABLE:YES;
#BPMS:0.000=171.001,64.000=85.500,72.000=171.001,188.000=85.501,196.000=171.001;
#STOPS:;
#BGCHANGES:;
// cache tags:
#FIRSTBEAT:4.000;
#LASTBEAT:272.000;
#SONGFILENAME:Songs/SSSC Pack 2/Cyber Beasts! - [Kytsune]/Cyber Beasts!.sm;
#HASMUSIC:1;
#HASBANNER:1;
#MUSICLENGTH:101.826;
// end cache tags

//---------------dance-single - Blank----------------
#NOTES:
     dance-single:
     Blank:
     Challenge:
     13:
     1.000,1.000,0.707,0.471,1.000,676.000,72.000,48.000,38.000,3.000:

0000
0000
0000
0000
,
2002
0000
0000
0000
,
3013
0000
0000
0000
0001
0010
0001
0100
0010
0100
0010
1000
0100
1000
0100
0010
,
0001
1000
0100
1000
0001
0010
0100
1000
0001
0010
0001
0100
0010
1000
0100
0010
,
0002
0000
0103
0110
0000
2002
0000
3003
,
1000
0100
0010
0100
1000
0001
0010
0100
0010
0001
1000
0100
0010
0100
1000
0001
,
0020
0000
0130
1100
0000
0202
0000
0303
,
0010
1000
0010
0100
0001
0100
0010
1000
0001
0010
0100
1000
0100
0010
0001
0010
,
0200
0000
1300
1010
0000
0202
0000
0303
,
0100
0010
0100
0001
1000
0001
0100
0010
0100
0010
1000
0001
1000
0001
0010
0100
,
0020
0000
0031
1100
0000
2020
0000
3030
,
0010
0100
0001
0100
0001
1000
0100
1000
0010
1000
0001
0010
0001
0100
0001
1000
,
0100
0010
0100
1000
0001
0100
0010
1000
0001
0010
0001
0100
0010
1000
0100
0010
,
0100
1000
0001
0010
0001
0100
0010
1000
0001
1000
0100
1000
0001
0100
0010
1000
,
0100
0000
1100
0011
MM00
0100
0110
1000
,
1001
0000
0010
1010
0000
0202
0000
0303
,
1000
0100
0010
0000
0001
0000
0100
0000
0010
0000
1000
0000
0100
0000
0010
0000
0001
1000
0010
0000
0100
0000
0001
0000
0010
0000
0100
0000
1000
0000
0000
0000
,
0101
0000
0010
0000
1000
0000
1001
0000
0000
0000
0010
0000
0100
0000
0220
0000
0000
0000
0000
0000
0330
0000
1100
0000
0000
0000
0000
0000
0001
0010
0001
0100
,
0202
0000
0000
0000
0000
0000
1010
0000
0000
0000
0000
0000
0303
0000
0001
1000
,
0010
0000
0100
0000
0001
0000
1000
0000
1100
0000
0000
0011
0000
0000
0110
0000
,
2200
0000
0300
0000
0020
0000
3030
1000
,
0001
0000
0100
0020
0000
0000
0030
0000
,
1200
0000
0000
0000
0001
0000
0000
0000
0310
0001
0100
0010
1000
0001
0010
0100
,
2000
0000
0000
0000
0001
0000
0000
0000
3010
0100
0010
1000
0100
0010
0100
1000
,
0020
0000
0000
0000
0100
0000
0000
0000
1030
0001
0010
0001
0100
0010
1000
0001
,
0020
0001
0230
1000
,
0310
0000
0001
1000
0001
0000
0100
0010
1000
0001
1000
0001
1000
0001
1000
0001
,
1000
0100
0010
0100
1000
0001
0100
0010
0100
0001
0010
0001
0100
0010
1000
0001
,
0010
0100
0010
0100
1000
0001
1000
0010
0100
0001
0010
0100
1000
0100
0010
0001
,
0100
0010
1000
0001
M010
010M
M010
0M01
1M00
001M
M100
0001
1000
0100
1000
0001
,
0100
0010
1000
0001
0010
0100
0010
0001
0100
0010
1000
0001
0010
0100
1000
0010
,
2010
0001
3100
0012
1000
0103
1001
0100
,
1010
0101
0011
1100
0000
1000
0100
0010
,
0011
0000
0000
0000
MMM0
00M0
110M
00M0
MM00
0MM0
000M
0MM0
1001
0000
0000
0000
,
1000
0100
0010
0001
1000
0010
0100
0001
,
1100
0000
0001
0010
0001
0000
1000
0010
0100
0000
0010
1000
0001
0000
1000
0000
,
0001
0100
0010
1000
0100
0010
0100
1000
0001
0100
0010
0100
0001
1000
0100
0010
,
0001
0000
0100
0010
1000
0000
0010
1000
0100
0000
0010
0001
0100
0000
0001
0000
,
0100
0010
1000
0010
0100
0001
0010
0100
1000
0100
0010
0001
0100
0010
1000
0001
,
0100
0000
0010
1000
0001
0000
0010
0001
0010
0000
0100
1000
0010
0000
1000
0001
,
0010
0100
1000
0001
0100
0010
0100
0001
1000
0100
1000
0001
0100
0010
1000
0001
,
0010
0000
0100
1000
0010
0000
0100
0001
0100
0000
0010
1000
0100
0000
0010
0001
,
1000
0100
0010
0001
0010
0100
1000
0001
0100
0010
0100
0001
0010
0001
1000
0010
,
0100
0001
1000
0100
0010
0001
0010
0100
1000
0001
0100
0010
1000
0001
0010
0001
,
0100
0010
1000
0001
0010
0001
1000
0100
1000
0001
0100
0010
1000
0001
0010
0100
,
1000
0000
1100
0101
0000
0110
1001
0011
,
1100
0000
0110
0110
0000
2002
0000
3003
,
0001
0010
0100
0000
1000
0000
0001
0000
0100
0010
1000
0000
0100
0000
0010
0000
0001
0010
0100
0000
1000
0000
0010
0000
0100
0001
1000
0000
0100
0000
0010
0000
,
0011
0000
0100
0000
1000
0000
1001
0000
0000
0000
0100
0000
0010
0000
2020
0000
0000
0000
0000
0000
3030
0000
0101
0000
0000
0000
0000
0000
1000
0100
0010
0100
,
2200
0000
0000
0000
0000
0000
0011
0000
0000
0000
0000
0000
3300
0000
0100
0010
,
0001
0000
0100
0000
0010
0000
1000
0000
1001
0000
0000
0110
0000
0000
1010
0000
,
0202
0000
0300
0000
2000
0000
3003
0100
,
0110
0000
0011
2200
0000
0000
3300
0000
,
2100
0000
0000
0000
0010
0000
0000
0000
3001
0010
0001
0100
0010
1000
0100
0010
,
0002
0000
0000
0000
0100
0000
0000
0000
1003
0100
0010
0100
1000
0001
0100
0010
,
2000
0000
0000
0000
0100
0000
0000
0000
3010
0100
0001
0010
0100
1000
0010
1000
,
0200
0001
2300
0010
,
3001
0000
0100
0010
1000
0000
0100
0010
0001
0100
0001
0100
0001
0100
0001
0100
,
0010
1000
0100
0010
0001
0010
0100
1000
0001
0100
0010
1000
0100
1000
0001
0010
,
0001
0100
0010
1000
0100
1000
0001
0100
0001
0010
0100
1000
0010
1000
0001
0100
,
0010
0100
0001
0010
010M
10M0
010M
M010
010M
10M0
0001
0100
0010
1000
0001
0010
,
0100
1000
0100
0010
0001
0100
0010
1000
0100
1000
0001
0010
0001
0100
0010
1000
,
0100
0110
0011
1000
1010
0101
0010
0110
,
1001
0011
1100
1001
0000
1000
0100
0010
,
0110
0000
0000
0000
MMM0
00M0
1M01
00M0
M0MM
0M00
0000
0000
1010
0000
0000
0000
,
0010
0100
0001
1000
0100
0010
0001
1000
,
0200
0000
0000
0000
,
0000
0000
0000
0000
,
0300
0000
0000
0000
;

//---------------dance-single - Blank----------------
#NOTES:
     dance-single:
     Blank:
     Hard:
     9:
     0.664,0.701,0.098,0.412,0.108,421.000,10.000,42.000,8.000,2.000:



0000
0000
0000
0000
,
0000
0000
0000
0000
,
0000
0000
0001
0010
0001
0100
0010
1000
,
0100
1000
0010
0100
0001
0010
0100
1000
,
0020
0000
0130
0002
0000
2003
0000
0000
,
3100
0000
0010
0000
0100
0000
1000
0000
0001
0000
0100
0000
0010
0000
1000
0001
,
0020
0000
0000
0130
0000
2000
0000
0000
,
3010
0100
0001
0010
0001
0100
0010
1000
,
0002
0000
0013
0001
0000
0200
0000
0000
,
0310
0000
1000
0000
0001
0000
0010
0000
0001
0000
0100
0000
0010
0000
1000
0100
,
0020
0000
0000
0031
0000
0200
0000
0000
,
0310
1000
0001
0010
0001
0100
0010
1000
,
0200
0000
0000
0300
0022
0000
0M00
0033
0200
0000
0000
0300
2020
0000
0M00
3030
,
1000
0010
0100
0001
0010
0100
1000
0100
,
0010
0000
0001
0100
0000
0010
0100
0001
,
1000
0000
0100
0010
0000
0002
0000
0000
,
1003
0000
0100
0000
0010
0001
1000
0000
,
0010
0100
0001
1000
0000
0100
0010
0002
0000
0000
0000
0200
0000
0000
0303
0000
,
2002
0000
0000
0000
0000
0000
0010
0000
0000
0000
3003
0000
0000
0000
1000
0100
,
0010
0000
0001
0000
0100
0000
0010
0000
1000
0000
0000
0100
0000
0000
0010
0000
,
0002
0000
0010
0000
2003
0000
0000
3100
,
0010
0000
0001
0200
0000
0000
0000
0000
,
0310
1000
0001
0000
0010
0100
1000
0100
,
0010
0001
0100
0000
0010
1000
0001
0010
,
0100
1000
0001
0000
0100
0010
1000
0001
,
0010
0001
0100
0000
0010
1000
0100
0000
,
0010
0000
0001
0000
0100
0000
0000
0000
0010
0000
1000
0000
0001
1000
0001
1000
,
0001
0100
0010
0100
0001
0010
0100
1000
,
0100
0001
0100
0010
0001
0100
1000
0100
,
0010
1000
010M
M010
010M
1000
0001
0100
,
0010
1000
0001
0100
0010
1000
0100
0010
,
0001
2000
0200
3300
0020
0002
0033
0001
,
0100
0010
1000
0100
0000
0010
0001
0100
,
0110
0000
0000
1001
0000
0000
0101
0000
,
0001
0100
0010
1000
0100
0010
0001
0010
,
0100
1000
0100
0010
0001
0100
0010
1000
,
0001
0010
0001
0100
0010
1000
0100
0000
,
0010
0100
1000
0001
0100
0010
0100
0001
,
0010
0001
0100
0010
1000
0100
0010
0000
,
0001
0010
0001
0100
0010
1000
0100
0010
,
0100
1000
0001
0100
0010
1000
0001
0000
,
1000
0100
0010
0100
1000
0001
0100
0010
,
0100
0001
0010
0001
0100
0010
1000
0000
,
0001
1000
0001
0000
1000
0000
0100
0000
0010
0000
0001
0000
0100
0000
0010
0000
,
1000
0100
1000
0000
0100
0000
0010
0000
0001
0000
0100
0000
0010
0000
1000
0000
,
0001
0000
0100
0010
0000
0100
0001
1000
,
0100
0000
0010
0001
0000
0200
0000
0000
,
0310
1000
0001
0000
0010
0100
1000
0000
,
0100
0010
0001
0010
0000
0100
1000
0002
0000
0000
0000
0200
0000
0000
0303
0000
,
2200
0000
0000
0000
0000
0000
0001
0000
0000
0000
3300
0000
0000
0000
0100
1000
,
0001
0000
0010
0000
0001
0000
0100
0000
0010
0000
0000
1000
0000
0000
0001
0000
,
0020
0000
0100
0000
0032
0000
0000
0103
,
0001
0000
1000
0020
0000
0000
0000
0000
,
0130
0001
0010
0001
0100
0010
1000
0100
,
0010
0001
0010
0100
1000
0001
0100
0010
,
1000
0001
0010
0001
0100
0010
1000
0001
,
0020
0100
0200
0330
,
0100
0000
1000
0000
0001
0000
0100
0000
0010
0000
1000
0000
0001
0010
0001
0010
,
0001
0100
0010
1000
0100
0010
1000
0010
,
0001
0100
0010
1000
0100
1000
0001
0100
,
0010
1000
010M
M010
0M01
0100
1000
0100
,
0001
1000
0100
0010
0100
1000
0001
0100
,
0010
0200
0002
0303
2000
0200
3300
0010
,
0001
0100
0010
1000
0000
0100
0010
0001
,
0011
0000
0000
1100
0000
0000
1001
0000
,
0001
0010
0100
1000
0010
0100
0001
1000
,
0002
0000
0000
0000
,
0000
0000
0000
0000
,
0003
0000
0000
0000
;

//---------------dance-single - Blank----------------
#NOTES:
     dance-single:
     Blank:
     Medium:
     6:
     0.464,0.486,0.255,0.334,0.000,271.000,26.000,34.000,0.000,0.000:



0000
0000
0000
0000
,
0000
0000
0000
0000
,
0000
0000
0000
0000
,
0000
0000
0000
0000
,
0001
0000
1000
0200
0000
2000
0000
3300
,
1000
0001
0100
0010
,
2000
0000
0000
0010
0000
0002
0000
3003
,
0001
0100
0010
1000
,
0100
0000
0010
0002
0000
2000
0000
3003
,
0001
0010
0100
0010
,
0200
0000
0000
0010
0000
2000
0000
3300
,
1000
0001
0100
0010
,
1000
0100
1000
0100
1000
0100
1000
0000
,
0001
0100
0001
0100
0001
0100
0001
0000
,
1000
0000
0001
1000
0000
1000
0001
0000
,
0010
0000
0100
1000
0000
0002
0000
0000
,
0103
0110
0010
1010
,
1000
1001
0001
0011
,
1001
0000
0000
2002
0000
0000
3003
0000
,
0001
1000
0010
1000
0001
0000
0010
0000
,
0200
0000
0000
0000
2000
0000
0000
3300
,
0110
0000
0000
0022
0000
0000
0000
0033
,
0020
0000
0000
0130
,
1000
0001
0100
0010
,
2000
0000
0000
3100
,
0110
0000
1001
0000
,
1000
1000
0001
0001
,
0100
0010
0100
0010
0100
0010
0100
0000
,
0010
1000
0010
1000
0010
1000
0010
0000
,
1000
0001
1000
0001
1000
0001
1000
0000
,
0001
0010
0001
0010
0001
0010
0001
0000
,
0000
1000
0100
0000
0010
0001
0000
1000
,
0001
1000
0001
1000
0000
0010
1000
0000
,
1010
0000
0000
0101
0000
0000
1001
0000
,
0001
0010
0100
1000
,
0010
0000
0100
0002
0000
2000
0000
3003
,
0001
0000
0010
0000
0001
1000
0001
0000
,
2000
0000
0000
0010
0000
0002
0000
3003
,
0001
0000
0010
0000
0100
1000
0100
0000
,
0010
0000
0001
2000
0000
0020
0000
3030
,
1000
0000
0010
0000
0100
0001
0100
0000
,
0020
0000
0000
0100
0000
2000
0000
3030
,
1000
0000
0001
0000
0010
0100
0010
0000
,
0100
1000
0100
1000
0001
1000
0001
0000
,
0010
0001
0010
0001
1000
0001
1000
0000
,
0010
0000
1000
0001
0000
0001
1000
0000
,
0010
0000
0100
0001
0000
2000
0000
0000
,
3100
0011
0001
1001
,
1000
1010
0010
0110
,
0101
0000
0000
2020
0000
0000
3030
0000
,
1000
0001
0100
0001
1000
0000
0100
0000
,
0020
0000
0000
0000
0002
0000
0000
0033
,
1001
0000
0000
2200
0000
0000
0000
3300
,
0200
0000
0000
0310
,
0001
1000
0010
0100
,
0002
0000
0000
0013
,
0011
0000
1001
0000
,
1000
1000
0010
0010
,
0100
0001
0100
0001
1000
0001
1000
0000
,
0001
0010
0001
0010
0100
1000
0100
0000
,
1000
0001
1000
0001
1000
0010
1000
0000
,
0010
0100
0010
0100
0001
0100
0001
0000
,
0000
1000
0001
0000
1000
0100
0000
0010
,
0001
0010
0001
1000
0000
0010
0100
0000
,
0110
0000
0000
1001
0000
0000
0011
0000
,
0010
0001
1000
0010
,
0100
0000
0000
0000
;
