#TITLE:Artemis;
#SUBTITLE:;
#ARTIST:Sun3;
#TITLETRANSLIT:;
#SUBTITLETRANSLIT:;
#ARTISTTRANSLIT:;
#CREDIT:;
#BANNER:../banner.png;
#BACKGROUND:../bg.png;
#LYRICSPATH:;
#CDTITLE:;
#MUSIC:Artemis.ogg;
#OFFSET:-0.041;
#SAMPLESTART:124.880;
#SAMPLELENGTH:19.380;
#SELECTABLE:YES;
#DISPLAYBPM:200.000;
#BPMS:0.000=199.951;
#STOPS:;
#BGCHANGES:;
// cache tags:
#FIRSTBEAT:4.000;
#LASTBEAT:950.000;
#SONGFILENAME:Songs/Cirque du Lykan/Artemis - [Zaia]/Artemis.sm;
#HASMUSIC:1;
#HASBANNER:1;
#MUSICLENGTH:289.201;
// end cache tags

//---------------dance-single - Zaia - 17(mid)----------------
#NOTES:
     dance-single:
     Zaia - 17(mid):
     Challenge:
     17:
     1.000,1.000,0.014,0.031,1.000,3299.000,4.000,9.000,0.000,0.000:
0000
0000
0000
0000
,
0002
0000
0000
0000
,
1003
0100
1000
0001
0100
0010
0100
0001
1000
0001
0010
0100
0010
0001
1000
0001
,
0100
0010
1000
0001
1000
0100
0010
0100
1000
0001
0100
0001
1000
0100
0010
0001
,
1000
0010
0100
0001
1000
0100
0010
0001
1000
0001
1000
0010
0100
0001
1000
0001
,
0010
0100
1000
0001
1000
0010
0100
0010
1000
0001
0010
0100
1000
0001
0100
0001
,
1000
0100
0010
0001
1000
0010
0100
0001
1000
0001
0010
0100
1000
0001
0010
0001
,
1000
0010
0100
0001
1000
0100
0010
0100
1000
0001
0100
0001
1000
0001
0010
0100
,
1000
0001
1000
0010
0100
0010
1000
0001
0010
0001
1000
0010
0100
0001
1000
0001
,
1000
0100
0010
0001
1000
0010
0100
0010
1000
0001
0010
0001
0100
0001
1000
0001
,
1000
0100
1000
0001
0100
0010
0100
0001
1000
0001
0010
0100
0010
0001
1000
0001
,
0100
0010
1000
0001
1000
0100
0010
0100
1000
0001
0100
0001
1000
0100
0010
0001
,
1000
0010
0100
0001
1000
0100
0010
0001
1000
0001
1000
0010
0100
0001
1000
0001
,
0010
0100
1000
0001
1000
0010
0100
0010
1000
0001
0010
0100
1000
0001
0100
0001
,
1000
0100
0010
0001
1000
0010
0100
0010
1000
0001
0010
0100
1000
0001
0010
0001
,
1000
0010
0100
0001
1000
0100
0010
0100
1000
0001
0100
0001
1000
0001
0010
0100
,
1000
0001
1000
0010
0100
0010
1000
0001
0010
0001
1000
0010
0100
0001
1000
0001
,
1000
0100
0010
0001
1000
0010
0100
0010
1000
0001
0010
0001
1000
0001
0100
0010
,
1000
0001
0010
0100
0010
0001
1000
0010
1000
0001
0100
0001
1000
0001
1000
0100
,
0010
0100
1000
0001
0100
0001
1000
0100
0010
0001
0010
0100
1000
0001
0100
0001
,
1000
0010
1000
0001
0010
0100
0010
0001
1000
0100
0010
0001
1000
0001
1000
0010
,
0100
0001
1000
0100
0010
0100
1000
0001
1000
0010
0100
0010
1000
0001
0100
0001
,
1000
0100
1000
0001
0010
0001
1000
0010
0100
0001
1000
0001
0010
0100
0010
0001
,
1000
0010
1000
0001
0100
0010
1000
0001
1000
0100
0010
0100
0010
0001
1000
0010
,
0100
0001
1000
0001
0010
0100
1000
0100
0010
0001
1000
0001
0100
0010
0100
0001
,
1000
0100
0010
0001
1000
0010
1000
0010
0100
0001
0100
0010
1000
0001
1000
0001
,
0010
0100
1000
0001
1000
0010
0100
0001
,
1000
0100
1000
0010
1000
0001
0100
0004
,
0013
0100
1000
0010
1000
0001
0010
0001
,
0100
0010
1000
0001
0010
0100
1000
0040
,
0130
0001
1000
0001
0010
0100
1000
0001
1000
0010
0100
0010
1000
0001
1000
0100
,
0010
0001
1000
0010
1000
0001
1000
0001
0010
0001
1000
0010
0100
0001
0010
0100
,
2000
0000
0000
0000
0000
0000
0000
0000
0000
0000
0000
0000
0000
0000
0000
3000
,
0001
0100
0000
0000
0001
0000
0000
1000
0000
0000
0100
0000
0010
0000
0001
0000
,
1000
0100
1000
0001
0100
0010
1000
0001
0010
0100
0010
0001
1000
0001
0100
0010
,
1000
0100
1000
0001
0100
0010
1000
0001
0010
0100
0010
0001
1000
0001
0100
0010
,
1000
0100
1000
0001
0100
0010
1000
0001
0010
0100
0010
0001
1000
0001
0100
0010
,
1000
0100
1000
0001
0100
0010
1000
0001
0010
0100
0010
0001
1000
0001
0100
0001
,
0010
0100
0010
0001
1000
0010
0100
0001
1000
0100
1000
0001
1000
0010
0100
0001
,
0010
0100
0010
0001
1000
0010
0100
0001
1000
0100
1000
0001
1000
0010
0100
0001
,
0010
0100
0010
0001
1000
0010
0100
0001
1000
0100
1000
0001
1000
0010
0100
0001
,
0010
0100
0010
0001
1000
0010
0100
0001
1000
0100
1000
0001
1000
0001
0010
0001
,
0100
0010
0100
0001
1000
0100
0010
0100
1000
0001
1000
0010
1000
0001
0010
0001
,
0100
0010
0100
0001
1000
0100
0010
0100
1000
0001
1000
0010
1000
0001
0010
0001
,
0100
0010
0100
0001
1000
0100
0010
0100
1000
0001
1000
0010
1000
0001
0010
0001
,
0100
0010
0100
0001
1000
0100
0010
0100
1000
0001
1000
0010
1000
0001
0010
0001
,
0100
0010
0100
0001
1000
0001
0010
0100
1000
0001
0100
0010
1000
0001
0010
0001
,
0100
0010
0100
0001
1000
0001
0010
0100
1000
0001
0100
0010
1000
0001
0010
0001
,
0100
0010
0100
0001
1000
0001
0010
0100
1000
0001
0100
0010
1000
0001
0010
0001
,
0100
0010
0100
0001
1000
0001
0010
0100
1000
0001
0100
0010
1000
0001
0010
0001
,
1000
0010
1000
0001
0010
0100
1000
0001
0100
0010
0100
0001
1000
0001
0010
0100
,
1000
0010
1000
0001
0010
0100
1000
0001
0100
0010
0100
0001
1000
0001
0010
0100
,
1000
0010
1000
0001
0010
0100
1000
0001
0100
0010
0100
0001
1000
0001
0010
0100
,
1000
0010
1000
0001
0010
0100
1000
0001
0100
0010
0100
0001
1000
0001
0010
0001
,
0100
0010
0100
0001
1000
0100
0010
0001
1000
0010
1000
0001
1000
0100
0010
0001
,
0100
0010
0100
0001
1000
0100
0010
0001
1000
0010
1000
0001
1000
0100
0010
0001
,
0100
0010
0100
0001
1000
0100
0010
0001
1000
0010
1000
0001
1000
0100
0010
0001
,
0100
0010
0100
0001
1000
0100
0010
0001
1000
0010
1000
0001
1000
0010
0100
0001
,
0010
0100
0010
0001
1000
0010
0100
0010
1000
0001
1000
0100
1000
0001
0100
0001
,
0010
0100
0010
0001
1000
0010
0100
0010
1000
0001
1000
0100
1000
0001
0100
0001
,
0010
0100
0010
0001
1000
0010
0100
0010
1000
0001
1000
0100
1000
0001
0100
0001
,
0010
0100
0010
0001
1000
0010
0100
0010
1000
0001
1000
0100
1000
0001
0100
0001
,
0010
0000
0100
0000
0010
0000
0001
0000
1000
0000
0010
0000
0100
0000
0010
1000
,
0001
0000
1000
0000
0100
0000
1000
0000
0001
0000
0100
0000
0001
0000
0010
0100
,
1000
0010
0100
0001
1000
0001
0010
0100
1000
0001
0100
0010
1000
0001
0010
0001
,
1000
0100
0000
0000
0010
0000
0000
0001
0010
0001
1000
0000
0010
0000
0100
0000
,
0001
0000
0000
0000
,
0000
0000
0000
0000
,
0000
0000
0000
0000
,
0000
0000
0000
0000
,
2000
0000
0000
0000
,
0000
0000
0000
0000
,
0000
3002
0000
0000
0000
0000
0000
0000
,
0000
0000
0000
0000
,
0000
0023
0000
0000
0000
0000
0000
0000
,
0000
0000
0000
0000
,
0000
0230
0000
0000
0000
0000
0000
0000
,
0000
0000
0000
0000
,
1300
0001
0010
0001
1000
0010
0100
0001
1000
0100
1000
0001
0100
0010
1000
0001
,
1000
0100
0010
0001
1000
0001
0010
0100
1000
0001
1000
0010
0100
0010
1000
0001
,
0100
0010
1000
0001
0010
0100
1000
0001
1000
0010
0100
0010
1000
0001
1000
0100
,
0010
0001
1000
0010
1000
0001
0100
0001
1000
0100
0010
0100
1000
0001
1000
0010
,
0100
0001
0100
0010
1000
0001
1000
0100
0010
0100
1000
0001
0100
0001
1000
0100
,
0010
0001
0010
0100
1000
0001
1000
0010
0100
0001
1000
0100
1000
0001
0100
0010
,
1000
0001
1000
0100
1000
0001
0100
0010
1000
0010
0100
0001
1000
0001
0010
0100
,
1000
0001
0000
0000
0100
0000
0000
0010
0000
0000
1000
0000
0001
0000
0010
0000
,
0000
0000
0000
0000
,
0000
0000
0000
0000
,
0001
0100
0010
1000
0001
0010
0001
1000
0100
1000
0001
1000
0010
0100
0001
0010
,
0100
1000
0001
0100
0010
1000
0001
0010
0100
0010
0001
1000
0001
0100
0010
1000
,
0100
1000
0001
0100
0001
0010
0001
1000
0100
1000
0001
1000
0010
0100
0001
0010
,
0100
1000
0001
0100
0010
1000
0001
0010
0100
0010
0001
1000
0001
0100
0010
1000
,
0100
0010
0100
1000
0001
0100
0001
1000
0010
1000
0001
1000
0100
0010
0001
0100
,
0010
1000
0001
0010
0100
1000
0001
0100
0010
0100
0001
1000
0001
0010
0100
1000
,
0010
1000
0001
1000
0001
0100
0001
1000
0010
1000
0001
1000
0100
0010
0001
0100
,
0010
1000
0001
0010
0100
1000
0001
0100
0010
0100
0001
1000
0001
0010
0100
1000
,
0010
0100
0001
1000
0001
0010
0001
1000
0100
1000
0001
1000
0010
0100
0001
0010
,
0100
1000
0001
0100
0010
1000
0001
0010
0100
0010
0001
1000
0001
0100
0010
1000
,
0100
1000
0001
0100
0001
0010
0001
1000
0100
1000
0001
1000
0010
0100
0001
0010
,
0100
1000
0001
0100
0010
1000
0001
0010
0100
0010
0001
1000
0001
0100
0010
1000
,
0100
0010
0100
1000
0001
0100
0001
1000
0010
1000
0001
1000
0100
0010
0001
0100
,
0010
1000
0001
0010
0100
1000
0001
0100
0010
0100
0001
1000
0001
0010
0100
1000
,
0010
1000
0001
1000
0001
0100
0001
1000
0010
1000
0001
1000
0100
0010
0001
0100
,
0010
1000
0001
0010
0100
1000
0001
0100
0010
0100
0001
1000
0001
0010
0100
1000
,
0001
0100
0001
0100
0010
1000
0001
0010
0001
1000
0100
0010
0100
1000
0001
1000
,
0010
0100
0001
1000
0001
0100
0010
1000
0001
0010
0100
0010
0001
1000
0001
0010
,
0100
1000
0100
1000
0001
0100
0010
1000
0001
1000
0100
0010
0100
1000
0010
1000
,
0001
0100
0001
1000
0100
0010
0100
1000
0001
0100
0010
1000
0010
0100
0001
1000
,
0100
0010
0100
0010
0001
1000
0010
0100
0001
1000
0001
0010
0100
1000
0001
1000
,
0010
0100
0001
1000
0001
0010
0100
0010
0001
1000
0001
0100
0001
1000
0010
0100
,
0001
1000
0001
1000
0100
0010
0001
1000
0100
1000
0001
0100
0001
0010
0001
1000
,
0001
0100
0010
1000
0001
1000
0001
0010
0001
1000
0100
0010
0100
1000
0001
0100
,
0001
0010
0001
0010
0100
1000
0001
0100
0001
1000
0010
0100
0010
1000
0001
1000
,
0100
0010
0001
1000
0001
0010
0100
1000
0001
0100
0010
0100
0001
1000
0001
0100
,
0010
1000
0010
1000
0001
0010
0100
1000
0001
1000
0010
0100
0010
1000
0100
1000
,
0001
0010
0001
1000
0010
0100
0010
1000
0001
0010
0100
1000
0100
0010
0001
1000
,
0010
0100
0010
0100
0001
1000
0100
0010
0001
1000
0001
0100
0010
1000
0001
1000
,
0100
0010
0001
1000
0001
0100
0010
0100
0001
1000
0001
0010
0001
1000
0100
0010
,
0001
1000
0001
1000
0010
0100
0001
1000
0010
1000
0001
0010
0001
0100
0001
1000
,
0002
0000
0000
0000
0000
0000
0000
0003
,
1000
0010
0100
0001
1000
0100
1000
0001
0100
0010
0100
0001
1000
0100
0010
0100
,
1000
0001
1000
0010
0100
0001
1000
0001
0010
0100
1000
0001
1000
0010
0100
0010
,
1000
0100
0010
0001
1000
0010
1000
0001
0100
0010
1000
0010
0100
0001
1000
0001
,
1000
0100
0010
0100
1000
0001
1000
0010
0100
0001
1000
0100
1000
0001
0010
0100
,
1000
0010
0100
0001
1000
0100
1000
0001
0100
0010
1000
0001
0010
0100
0010
0001
,
1000
0010
0100
0001
1000
0100
0010
0001
1000
0010
1000
0001
0010
0100
0010
0001
,
0100
0010
1000
0001
1000
0100
1000
0001
0100
0010
0100
0001
1000
0100
1000
0001
,
0010
0100
0010
0100
1000
0001
1000
0010
0100
0001
1000
0010
1000
0001
0100
0001
,
0010
0100
0010
0001
1000
0010
1000
0001
0010
0100
0010
0001
1000
0010
0100
0010
,
1000
0001
1000
0100
0010
0001
1000
0001
0100
0010
1000
0001
1000
0100
0010
0100
,
1000
0010
0100
0001
1000
0100
1000
0001
0010
0100
1000
0100
0010
0001
1000
0001
,
1000
0010
0100
0010
1000
0001
1000
0100
0010
0001
1000
0010
1000
0001
0100
0010
,
1000
0100
0010
0001
1000
0010
1000
0001
0010
0100
1000
0001
1000
0001
0100
0010
,
1000
0100
0010
0001
1000
0010
1000
0001
0010
0100
1000
0001
1000
0001
0100
0010
,
1000
0100
0010
0001
1000
0010
1000
0001
0100
0001
0010
0100
1000
0001
0100
0001
,
1000
0010
0100
0010
1000
0001
1000
0100
0010
0001
1000
0100
1000
0001
0010
0001
,
1000
0000
0000
0000
,
0002
0000
0000
0000
0000
0000
0000
0003
,
1000
0100
1000
0001
0100
0010
0100
0001
1000
0001
0010
0100
0010
0001
1000
0001
,
0100
0010
1000
0001
1000
0100
0010
0100
1000
0001
0100
0001
1000
0100
0010
0001
,
1000
0010
0100
0001
1000
0100
0010
0001
1000
0001
1000
0010
0100
0001
1000
0001
,
0010
0100
1000
0001
1000
0010
0100
0010
1000
0001
0010
0100
1000
0001
0100
0001
,
1000
0100
0010
0001
1000
0010
0100
0001
1000
0001
0010
0100
1000
0001
0010
0001
,
1000
0010
0100
0001
1000
0100
0010
0100
1000
0001
0100
0001
1000
0001
0010
0100
,
1000
0001
1000
0010
0100
0010
1000
0001
0010
0001
1000
0010
0100
0001
1000
0001
,
1000
0100
0010
0001
1000
0010
0100
0010
1000
0001
0010
0001
0100
0001
1000
0010
,
0100
0001
1000
0001
0010
0100
0010
0001
1000
0001
0100
0010
0100
0001
1000
0001
,
0100
0010
0000
0100
0000
0000
0001
0000
0000
0000
0010
0000
0100
0000
4000
0000
,
3001
0010
0001
1000
0001
0100
0010
0100
0001
1000
0100
1000
0001
0100
0010
0100
,
0001
1000
0001
1000
0040
0000
0430
0300
0001
0100
0001
0100
0040
0000
1030
0000
,
0001
0010
0100
1000
0001
0100
0010
1000
0001
1000
0001
0010
0100
1000
0001
1000
,
0010
0100
0001
1000
0001
0010
0100
0010
0001
1000
0010
0100
0001
1000
0100
1000
,
0001
0100
0010
1000
0001
0010
0100
0010
0001
1000
0010
0100
0001
1000
0010
1000
,
0001
0010
0100
1000
0001
0100
0010
0100
0001
1000
0100
1000
0001
1000
0010
0100
,
0001
0000
0000
0000
,
1000
0010
0100
0001
1000
0100
1000
0001
0100
0010
0100
0001
1000
0100
0010
0001
,
0100
0010
0100
0001
1000
0100
1000
0001
0010
0001
1000
0001
0100
0010
1000
0100
,
0010
0001
1000
0010
0100
0001
1000
0100
0010
0100
1000
0001
1000
0010
0100
0001
,
0010
0001
1000
0010
1000
0100
1000
0001
0010
0001
1000
0001
0100
0010
1000
0100
,
0010
0001
1000
0010
0100
0001
1000
0100
0010
0100
1000
0001
1000
0010
0100
0001
,
0010
0100
0010
0001
1000
0010
1000
0001
0100
0001
1000
0001
0010
0100
1000
0010
,
0100
0001
1000
0100
0010
0001
1000
0010
0100
0010
1000
0001
1000
0100
0010
0001
,
0100
0001
1000
0001
1000
0010
1000
0001
0100
0001
1000
0001
0010
0100
1000
0010
,
0100
0001
1000
0100
0010
0001
1000
0010
0100
0010
1000
0001
1000
0100
0010
0001
,
0100
0010
1000
0001
1000
0100
1000
0001
0010
0001
1000
0001
0100
0010
1000
0100
,
0010
0001
1000
0010
0100
0001
1000
0100
0010
0100
1000
0001
1000
0010
0100
0001
,
0010
0001
1000
0010
1000
0100
1000
0001
0010
0001
1000
0001
0100
0010
1000
0100
,
0010
0001
1000
0010
0100
0001
1000
0100
0010
0100
1000
0001
1000
0010
0100
0001
,
0010
0100
0010
0001
1000
0010
1000
0001
0100
0001
1000
0001
0010
0100
1000
0010
,
0100
0001
1000
0100
0010
0001
1000
0010
0100
0010
1000
0001
1000
0100
0010
0001
,
0100
0001
1000
0001
1000
0010
1000
0001
0100
0001
1000
0001
0010
0100
1000
0010
,
0100
0001
1000
0100
0010
0001
1000
0010
0100
0010
1000
0001
1000
0100
0010
0001
,
1000
0010
1000
0010
0100
0001
1000
0100
1000
0001
0010
0100
0010
0001
1000
0001
,
0100
0010
1000
0001
1000
0010
0100
0001
1000
0100
0010
0100
1000
0001
1000
0100
,
0010
0001
0010
0001
1000
0010
0100
0001
1000
0001
0010
0100
0010
0001
0100
0001
,
1000
0010
1000
0001
0010
0100
0010
0001
1000
0010
0100
0001
0100
0010
1000
0001
,
0010
0100
0010
0100
1000
0001
0100
0010
1000
0001
1000
0100
0010
0001
1000
0001
,
0100
0010
1000
0001
1000
0100
0010
0100
1000
0001
1000
0010
1000
0001
0100
0010
,
1000
0001
1000
0001
0010
0100
1000
0001
0010
0001
1000
0010
1000
0100
1000
0001
,
1000
0010
0100
0001
1000
0001
1000
0100
1000
0001
0010
0100
0010
0001
1000
0010
,
1000
0100
1000
0100
0010
0001
1000
0010
1000
0001
0100
0010
0100
0001
1000
0001
,
0010
0100
1000
0001
1000
0100
0010
0001
1000
0010
0100
0010
1000
0001
1000
0010
,
0100
0001
0100
0001
1000
0100
0010
0001
1000
0001
0100
0010
0100
0001
0010
0001
,
1000
0100
1000
0001
0100
0010
0100
0001
1000
0100
0010
0001
0010
0100
1000
0001
,
0100
0010
0100
0010
1000
0001
0010
0100
1000
0001
1000
0010
0100
0001
1000
0001
,
0010
0100
1000
0001
1000
0010
0100
0010
1000
0001
1000
0100
1000
0001
0010
0100
,
1000
0001
1000
0001
0100
0010
1000
0001
0100
0001
1000
0100
1000
0010
1000
0001
,
0100
0010
0100
0001
1000
0100
1000
0001
0100
0010
0100
0001
1000
0100
0010
0100
,
1000
0001
1000
0010
0100
0001
1000
0001
0010
0100
1000
0001
1000
0010
0100
0010
,
1000
0100
0010
0001
1000
0010
1000
0001
0100
0010
1000
0010
0100
0001
1000
0001
,
1000
0100
0010
0100
1000
0001
1000
0010
0100
0001
1000
0100
1000
0001
0010
0100
,
1000
0010
0100
0001
1000
0100
1000
0001
0100
0010
1000
0001
0010
0100
0010
0001
,
1000
0010
0100
0001
1000
0100
0010
0001
1000
0010
1000
0001
0010
0100
0010
0001
,
0100
0010
1000
0001
1000
0100
1000
0001
0100
0010
0100
0001
1000
0100
1000
0001
,
0010
0100
0010
0100
1000
0001
1000
0010
0100
0001
1000
0010
1000
0001
0100
0001
,
0010
0100
0010
0001
1000
0010
1000
0001
0010
0100
0010
0001
1000
0010
0100
0010
,
1000
0001
1000
0100
0010
0001
1000
0001
0100
0010
1000
0001
1000
0100
0010
0100
,
1000
0010
0100
0001
1000
0100
1000
0001
0010
0100
1000
0100
0010
0001
1000
0001
,
1000
0010
0100
0010
1000
0001
1000
0100
0010
0001
1000
0010
1000
0001
0100
0010
,
1000
0100
0010
0001
1000
0010
1000
0001
0010
0100
1000
0001
1000
0001
0100
0010
,
1000
0001
0010
0100
1000
0001
1000
0100
0010
0100
1000
0001
1000
0010
0100
0010
,
1000
0100
0010
0001
1000
0010
1000
0001
0100
0001
0010
0100
1000
0001
0100
0001
,
1000
0010
0100
0010
1000
0001
1000
0100
0010
0001
1000
0100
1000
0001
0010
0001
,
1000
0010
0100
0001
1000
0100
1000
0001
0010
0001
0010
0100
1000
0001
1000
0001
,
0100
0010
1000
0001
0010
0100
0010
0001
1000
0001
0100
0010
0100
0001
1000
0001
,
0010
0100
1000
0001
1000
0010
0100
0010
1000
0001
0010
0001
1000
0010
0100
0001
,
1000
0100
0010
0001
1000
0010
0100
0001
1000
0001
1000
0100
0010
0001
1000
0001
,
0100
0010
1000
0001
1000
0100
0010
0100
1000
0001
0100
0010
1000
0001
0010
0001
,
1000
0010
0100
0001
1000
0100
0010
0001
1000
0001
0100
0010
1000
0001
0100
0001
,
1000
0100
0010
0001
1000
0010
0100
0010
1000
0001
0010
0001
1000
0001
0100
0010
,
1000
0001
1000
0100
0010
0100
1000
0001
0100
0001
1000
0100
0010
0001
1000
0001
,
1000
0010
0100
0001
1000
0100
0010
0100
1000
0001
0100
0001
0010
0001
1000
0100
,
1000
0010
0100
0001
1000
0010
0100
0001
1000
0001
0010
0100
1000
0001
1000
0001
,
0100
0010
1000
0001
0010
0100
0010
0001
1000
0001
0100
0010
0100
0001
1000
0001
,
0010
0100
1000
0001
1000
0010
0100
0010
1000
0001
0100
0001
1000
0100
0010
0001
,
1000
0010
0100
0001
1000
0100
0010
0001
1000
0001
1000
0010
0100
0001
1000
0001
,
0010
0100
1000
0001
1000
0010
0100
0010
1000
0001
0010
0100
1000
0001
0100
0001
,
1000
0100
0010
0001
1000
0010
0100
0001
1000
0001
0010
0100
1000
0001
0010
0001
,
1000
0010
0100
0001
1000
0100
0010
0100
1000
0001
0100
0001
1000
0001
0010
0100
,
1000
0001
1000
0010
0100
0010
1000
0001
0010
0001
1000
0010
0100
0001
1000
0001
,
0100
0000
0010
0000
1000
0000
0000
0010
0100
0001
1000
0000
0100
0000
0010
0000
,
0001
0000
0100
0000
0010
0000
0000
0100
0001
1000
0100
0000
0010
0000
0100
0000
,
1000
0000
0001
0000
0100
0000
0000
0010
1000
0001
1000
0000
0100
0000
0010
0000
,
0100
0000
1000
0000
0001
0000
0000
1000
0100
0010
0001
0000
1000
0000
0010
0000
,
0100
0000
0001
0000
0010
0000
0000
0100
1000
0001
1000
0000
0010
0000
0100
0000
,
0001
0000
0100
0000
0010
0000
0000
1000
0001
0010
0100
0000
0010
0000
0001
0000
,
0100
0000
0010
0000
1000
0000
0000
0010
0100
0001
1000
0000
0100
0000
1000
0000
,
0010
0000
0100
0000
0001
0000
0000
0010
0100
1000
0001
0000
0100
0000
0010
0000
,
1000
0000
0001
0000
0010
0000
0000
0100
0010
0001
1000
0000
0010
0000
0100
0000
,
0001
0010
0100
1000
0001
0010
0001
0010
0100
1000
0001
0100
0010
0100
0001
0100
,
0001
1000
0010
1000
0001
0010
0100
1000
0001
0100
0001
1000
0100
0010
0001
1000
,
0001
0100
0010
1000
0001
1000
0010
0100
0001
1000
0001
0010
0100
0010
0001
1000
,
0100
0010
0001
1000
0010
0100
0001
1000
0001
0010
0100
0010
0001
1000
0001
0100
,
0010
1000
0001
0010
0001
1000
0100
1000
0001
0100
0010
0100
0001
1000
0001
0010
,
0100
1000
0100
0010
0001
1000
0001
0100
0010
0100
0001
1000
0100
1000
0001
0100
,
0010
1000
0010
0100
0001
1000
0001
0010
0100
1000
0001
0100
0001
1000
0100
0010
,
0002
0000
0000
0000
,
0000
0000
0003
0000
;
