#TITLE:Twilight;
#SUBTITLE:;
#ARTIST:KaW;
#TITLETRANSLIT:;
#SUBTITLETRANSLIT:;
#ARTISTTRANSLIT:;
#CREDIT:;
#BANNER:Twilight-banner.png;
#BACKGROUND:Twilight-bg.png;
#LYRICSPATH:;
#CDTITLE:;
#MUSIC:Twilight.ogg;
#OFFSET:0.016;
#SAMPLESTART:21.120;
#SAMPLELENGTH:11.960;
#SELECTABLE:YES;
#BPMS:0.000=136.000;
#STOPS:;
#BGCHANGES:-10000.000=songbackground=1.000=0=0=1,
0.000=Twilight-bg.png=1.000=0=0=1,
16.000=In The Groove 2/972_JumpBack.mpg=1.000=0=0=1,
48.000=In The Groove 2/750_JumpBack.mpg=1.000=0=0=1,
80.000=In The Groove 2/865_JumpBack.mpg=1.000=0=0=1,
108.250=In The Groove 2/865_JumpBack.mpg=1.000=0=0=1,
109.500=In The Groove 2/865_JumpBack.mpg=1.000=0=0=1,
112.000=In The Groove 2/909_JumpBack.mpg=1.000=0=0=1,
144.000=In The Groove 2/963_JumpBack.mpg=1.000=0=0=1,
176.000=In The Groove 2/592_JumpBack.mpg=1.000=0=0=1,
208.000=In The Groove 2/592_JumpBack.mpg=1.000=0=0=1,
240.000=Twilight-bg.png=1.000=0=0=1,
99999=-nosongbg-=1.000=0=0=0 // don't automatically add -songbackground-
;
// cache tags:
#FIRSTBEAT:16.000;
#LASTBEAT:240.000;
#SONGFILENAME:Songs/In The Groove 2 (Official)/Twilight/Twilight.sm;
#HASMUSIC:0;
#HASBANNER:1;
#MUSICLENGTH:100.000;
// end cache tags

//---------------dance-single - C. Foy----------------
#NOTES:
     dance-single:
     C. Foy:
     Easy:
     6:
     0.270,0.300,0.280,0.160,0.000,139.000,28.000,16.000,0.000,13.000:









0000
0000
0000
0000
,
0000
0000
0000
0000
,
0000
0000
0000
0000
,
0000
0000
0000
0000
,
1001
0000
0000
0000
,
0110
0000
0000
0000
,
1100
0000
0000
0000
,
0011
0000
0000
0000
,
1010
0000
0000
0000
,
0101
0000
0000
0000
,
0110
0000
0000
0000
,
1110
0000
0000
0000
,
1000
0001
1000
0001
,
1000
0010
1000
0010
,
1000
0100
1000
0100
,
1000
0001
1000
0001
,
0100
0001
0100
0001
,
0100
0010
0100
0010
,
0100
0001
0100
0001
,
1000
0001
1000
0001
,
1000
0000
1100
0000
,
0011
0000
1010
0000
,
1001
0000
0101
0000
,
0110
0000
1001
0000
,
1001
0000
0000
0000
,
0111
0000
0000
0000
,
1110
0000
0000
0000
,
1011
0000
0000
0000
,
1001
1000
0001
1000
,
0001
0100
0001
0100
,
0001
0100
0010
0100
,
0010
1000
0100
1000
,
0100
0010
0001
0010
,
0001
1000
0100
1000
,
0100
0010
0100
0010
,
0100
2000
0002
0000
,
0010
3003
0000
0000
0000
0000
0000
0200
,
0000
0000
0020
0000
,
1000
0330
0000
0000
0000
0000
0000
0020
,
0000
0200
0000
0000
0000
0000
0000
0000
,
0001
0330
0000
0000
0000
0000
0000
0002
,
0000
0200
0000
0000
0000
0000
0000
0000
,
0010
0303
0000
0000
0000
0000
0000
0000
,
1001
0000
0110
0000
,
1001
1000
0001
0001
,
0100
0100
0010
0010
,
1000
0100
1000
0100
,
0010
0001
0010
0001
,
1000
0001
1000
0001
,
1000
0010
1000
0010
,
0100
0010
0100
0010
,
0100
0001
0100
0001
,
0202
0000
0000
0000
,
1010
0303
0000
0000
0000
0000
0000
0000
,
2000
0200
0000
0000
,
0011
3300
0000
0000
0000
0000
0000
0000
,
0002
0200
0000
0000
,
1010
0303
0000
0000
0000
0000
0000
0000
,
2000
0000
0002
0000
,
0010
3003
0000
0000
0000
0000
0000
0000
,
1111
0000
0000
0000
;

//---------------dance-single - C. Foy----------------
#NOTES:
     dance-single:
     C. Foy:
     Medium:
     7:
     0.364,0.450,0.400,0.140,0.000,195.000,40.000,14.000,0.000,21.000:









0000
0000
0000
0000
,
0000
0000
0000
0000
,
0000
0000
0000
0000
,
0000
0000
0000
0000
,
1001
0000
0110
0000
,
1100
0000
0011
0000
,
1010
0000
0101
0000
,
1100
0000
0011
0000
,
1010
0000
1001
0100
,
1001
0000
0110
0001
,
0110
0000
0202
0000
,
0010
0000
0000
0000
1000
0303
0000
0000
,
1000
0010
0100
0001
,
0010
0000
0100
0000
1000
0010
0100
0000
,
0001
0010
0100
1000
,
0010
0000
0100
0000
0001
1000
0001
0000
,
0100
0010
0100
0001
,
0010
0000
0100
0000
1000
0100
1000
0000
,
0010
0100
0001
1000
,
0001
0000
0010
0000
0100
1000
0100
0000
,
1001
1000
1100
0010
,
0011
1000
1010
0001
,
1001
0100
0101
0010
,
0110
1000
1001
1100
,
0011
0000
0001
0000
,
0111
0000
0010
0000
,
1110
0000
1000
0000
,
1011
0000
1100
0011
,
1001
0000
1000
0000
0010
1000
0100
0000
,
0010
0000
0001
0000
0100
0001
0100
0010
,
0100
0000
0001
0000
0010
0100
1000
0000
,
0010
0000
1000
0000
0100
1000
0100
0010
,
0100
0000
1000
0000
0001
0100
0010
0000
,
0100
0000
0010
0000
1000
0100
1000
0001
,
1000
0010
1000
0100
,
0010
0002
2000
0010
,
0010
3003
0000
0000
0000
0000
0000
0200
,
0000
0020
0000
0000
1000
0000
1000
0000
,
0330
0000
0000
0000
0000
0000
0000
0020
,
0000
0200
0000
0000
0001
0000
0001
0000
,
0001
0330
0000
0000
0000
0000
0000
0002
,
0000
0200
0000
0000
1000
0000
0010
0000
,
0303
0000
0000
0000
,
1001
0000
0000
0001
1001
0000
0000
0000
,
1001
0000
1000
0000
0001
0100
0010
0000
,
1000
0000
0100
0000
0010
0001
0010
0100
,
0010
0000
0001
0000
0100
0010
0100
0000
,
0010
0000
1000
0000
0010
1000
0100
1000
,
0001
0000
0100
0000
0010
1000
0100
0000
,
0010
0000
0100
0000
0010
0100
1000
0100
,
1000
0000
0010
0000
0100
0001
0010
0000
,
0100
1000
1001
0000
,
1001
0000
0001
0000
,
1011
0000
1000
0000
,
1110
0000
0010
0000
,
0111
0000
1000
0000
,
0002
0200
0000
1000
,
1010
0303
0000
0000
0000
0000
0000
0000
,
2000
0000
0002
0000
,
0010
0000
0000
0000
0010
3003
0000
0000
,
0110
0000
0000
0000
;

//---------------dance-single - K. Ward----------------
#NOTES:
     dance-single:
     K. Ward:
     Hard:
     8:
     0.604,0.630,0.320,0.090,0.615,382.000,32.000,9.000,16.000,4.000:

0000
0000
0000
0000
,
0000
0000
0000
0000
,
0000
0000
0000
0000
,
0000
0000
0000
0000
,
0000
0001
0010
0000
0001
0000
0001
0000
0000
0010
0100
0000
0010
0000
0010
0000
,
0000
0100
1000
0000
0100
0000
0010
0100
0000
1000
0000
0000
1000
0000
0000
0000
,
0000
0010
0100
0000
0001
0000
0001
0000
0000
0010
0001
0000
0010
0000
0010
0000
,
0000
0100
1000
0000
0100
0000
0010
0200
0000
1000
0000
0000
1300
0000
0000
0000
,
0001
0010
0001
0000
1000
0000
0010
0000
0001
0000
0000
0000
0011
0000
0000
0000
,
0010
0100
0010
0000
1000
0000
0100
0000
0010
0000
0000
0000
1100
0000
0000
0000
,
1000
0100
1000
0000
0010
0000
0100
0000
0001
0000
0010
0000
0100
0000
1000
0000
,
0100
0000
0000
0110
0000
0000
1001
0000
0220
0000
0000
0000
0330
0000
0000
0MM0
,
0000
1000
0000
1000
0100
0000
1000
0000
0000
0100
0000
0100
0010
0000
0100
0000
,
0000
0010
0000
0010
0001
0000
0010
0001
0000
0001
0100
0000
0010
0000
0000
0000
,
0000
0100
0000
0100
0001
0000
0010
0000
0000
0100
0000
0100
1000
0000
0010
0000
,
0000
0100
0000
0100
0001
0000
0010
0100
0000
0000
0M0M
00M0
M000
0000
0000
0000
,
0000
0100
0000
0100
1000
0000
0010
0000
0000
0100
0000
0100
0001
0000
0010
0000
,
0000
0100
0000
0100
1000
0000
0010
0001
0000
0001
0010
0000
0100
0000
0000
0000
,
0000
0001
0000
0001
0100
0000
0010
0000
0000
1000
0000
1000
0100
0000
0010
0000
,
0000
0001
0000
0001
1000
0000
0100
0000
0010
0000
0000
0000
0101
0000
0000
0000
,
0011
0000
0000
0000
1000
0000
0100
1000
0000
0000
0000
0000
0100
0000
0010
0100
,
0000
0000
0000
0000
1000
0000
0001
0010
0000
0010
0000
0000
0100
0000
0100
0000
,
0000
0000
0000
0000
0010
0000
0001
1000
0000
0000
0000
0000
0010
0000
0100
0001
,
0000
0000
0000
0000
0010
0000
0001
0010
0000
0010
0000
0000
0101
0000
0000
0000
,
1000
0000
0010
0100
0000
0100
0001
0000
0010
0000
0001
1000
0000
1000
0100
0000
,
0010
0000
0100
1000
0000
1000
0010
0000
0100
0000
0001
0000
1000
0000
0000
0000
,
0100
0000
0010
0100
0000
0100
1000
0000
0010
0000
0100
0001
0000
0001
0010
0000
,
0001
1000
0010
0000
0110
0000
0MM0
0000
,
0010
0100
0001
1000
0010
0100
0001
1000
,
0010
0100
0001
0010
0001
0000
1100
0000
,
0010
0001
0100
1000
0100
0001
0010
0001
,
0100
1000
0100
0001
1000
0000
0011
0000
,
1000
0000
0100
0010
0000
0010
0100
0000
1000
0000
0010
0100
0000
0100
0001
0000
,
0010
0000
0001
1000
0000
1000
0100
0000
0010
0000
0000
0110
0000
0000
1100
0000
,
1000
0000
0010
0100
0000
0100
0001
0000
0010
0000
0001
1000
0000
1000
0100
0000
,
0010
0100
0010
0001
1000
0000
0000
0000
,
1000
0000
0100
0000
0010
0000
0001
0000
0010
0000
0000
MM00
0000
0000
0200
0000
,
0000
2000
0000
0000
0001
0000
0010
3300
,
1000
0000
0001
0000
0010
0000
0100
0000
1000
0000
0000
0M0M
0000
0000
0200
0000
,
0000
0020
0000
0000
0001
0000
0001
0330
,
0110
0000
0000
1100
0000
0011
0000
0100
,
0110
0000
0000
0000
0000
0000
0001
0100
0000
0100
0010
0000
0100
0000
0001
0000
,
0010
0000
0000
1100
0000
1010
0000
0001
,
0011
0000
0000
0110
0000
0000
1001
0000
,
0001
0000
1000
0000
0000
0010
0000
0010
0000
0000
0100
0000
0100
0000
0000
0001
,
0010
0000
0001
0000
0000
0100
0000
0000
0100
0000
1000
0000
0100
0000
0010
0000
,
0100
0000
0001
0000
0000
0010
0000
0010
0000
0000
0100
0000
0100
0000
0000
0010
,
0100
0000
0010
0000
0000
0001
0000
0000
1000
0000
1000
0000
1000
0000
0000
0000
,
0001
0010
0001
0000
0000
0100
0000
0010
0000
0000
1000
0000
1000
0000
0000
0100
,
1000
0000
0100
0000
0000
1000
0000
0000
0100
0000
0010
0000
0100
0000
1000
0000
,
0001
1000
0001
0000
0000
0100
0000
0100
0000
0000
0010
0000
0010
0000
0000
1000
,
0100
0000
0000
0010
0000
0000
0100
0000
1000
0000
0000
0000
MMMM
0000
0000
0000
,
0000
1000
0000
0010
0100
0000
0110
0000
0000
0001
0000
0010
0001
0000
0011
0000
,
0000
0010
0000
0100
0010
0000
0100
1000
0000
0000
0010
0000
0101
0000
0000
0000
,
0000
0001
0000
1000
0001
0000
1001
0000
0000
0001
0000
0010
0001
0000
0101
0000
,
0000
0100
0000
0010
0100
0000
0001
2000
0000
0000
0000
0000
3100
0000
0000
0000
,
0000
0010
0000
0100
0010
0000
0101
0000
0000
0010
0000
0100
0010
0000
1100
0000
,
0000
0100
0000
0100
0010
0000
0100
0010
0000
0000
0001
0000
0002
0000
0000
0000
,
0003
1000
0000
1000
0100
0000
1010
0000
0000
0100
0000
0100
0010
0000
0101
0000
,
0000
1000
0000
1000
0100
0000
0010
0000
0100
0000
0000
0000
0010
0000
0000
0000
,
0101
0000
0000
0000
;

//---------------dance-single - C. Foy----------------
#NOTES:
     dance-single:
     C. Foy:
     Challenge:
     10:
     0.726,0.720,0.590,0.300,0.855,406.000,59.000,30.000,9.000,34.000:












0000
0000
0000
0000
,
0000
0000
0000
0000
,
0000
0000
0000
0000
,
0000
0000
0000
0000
,
0000
1000
0100
0000
1001
0000
1000
0010
0000
1001
0000
0000
1100
0000
0101
0000
,
0000
1000
0001
0000
1000
0000
1000
0100
0000
1001
0000
0010
0001
0000
0101
0000
,
0000
1000
0010
0000
1001
0000
0100
0001
0000
0011
0000
0000
0001
0010
0100
0000
,
0000
1000
0100
0000
1100
0000
0010
0001
0000
0001
1000
0000
1100
0000
0101
0000
,
0000
1000
0100
0000
0011
0000
0001
0100
0000
1010
0000
0000
0110
0000
1001
0000
,
0000
1000
0010
0000
1001
0000
0100
0001
0000
0011
0000
0001
0100
0000
1001
0000
,
0000
1000
0100
0000
1010
0000
0100
0010
0000
0101
0000
0000
0001
0100
0010
0000
,
0000
1000
0100
0000
1001
0000
0001
0100
0000
0000
0000
0000
0000
0000
0000
0000
,
0000
1100
0000
1000
0100
0000
0100
1000
0000
0001
0000
1000
0100
0010
0001
1000
,
0000
0001
0000
1000
0010
0000
0010
1000
0000
1000
0010
0000
1000
0100
1000
0000
,
0000
1000
0000
0100
0010
0000
0010
0001
0000
0001
0000
1000
0010
0100
0001
1000
,
0000
0001
0000
0010
0100
0000
0010
0100
0000
1000
0001
0100
0010
1000
0100
0010
,
0000
0010
0000
0001
0100
0000
0100
0001
0000
0001
0000
0010
0100
0010
0001
0100
,
0000
0100
0000
0010
1000
0000
1000
0100
0000
0100
0010
0000
0001
0010
0001
0100
,
0000
0001
0000
1000
0100
0000
0010
0001
0000
0010
0000
0100
0010
0001
0100
0010
,
0000
1000
0000
0010
0100
0000
0010
1000
0000
1000
0100
0010
0100
0010
0001
1000
,
0000
0010
0000
0010
1000
0000
0010
1000
0000
1000
0000
0010
0100
0010
1000
0100
,
0000
0100
0000
0010
0001
0000
0010
0001
0000
0001
0100
0000
0100
0010
1000
0100
,
0000
1000
0000
0010
1000
0000
0010
0100
0000
0001
0000
0010
0100
1000
0010
0100
,
0000
0010
0000
1000
0100
0000
0010
0001
0000
0100
0010
1000
0100
0010
0001
0100
,
0000
0001
0000
0010
0100
0000
1000
0001
0000
1000
0000
0001
0100
0001
0010
0001
,
0000
0001
0000
0001
1000
0000
0001
1000
0000
0100
1000
0000
0010
1000
0001
1000
,
0000
0010
0000
0010
0100
0000
0010
1000
0000
0100
0000
1000
0001
0010
0100
0010
,
0000
0001
0000
0100
0010
0000
0010
0100
0000
0010
0100
0001
0100
0010
1000
0100
,
2000
0000
0000
0000
0200
0000
0000
0000
0001
0000
0000
0010
0300
0000
3100
0000
,
0100
0000
0000
0000
1000
0000
0000
0000
0001
1000
0010
0000
0010
1000
0002
0000
,
0200
0000
0000
0000
1000
0000
0303
0000
0100
0000
0000
0001
0000
0000
2000
0000
,
0002
0000
0000
0000
0010
0000
3003
0000
0001
1000
0001
0000
1000
0010
0100
0000
,
0002
0000
0000
0000
0200
0000
0000
0000
1000
0303
0000
0001
0000
0000
0100
0000
,
0001
0000
0000
0000
1000
0000
0000
0000
0010
1000
0100
0000
0010
0001
0100
0000
,
0010
0000
0000
0000
1000
0000
0000
0000
0001
0000
0000
1000
0000
0000
0001
0000
,
2002
0000
0000
0000
0010
3000
0000
0000
,
0200
0000
0000
0000
1010
0303
0000
0200
,
0000
0002
0000
0000
1000
0300
2000
0010
,
0000
3003
0000
0000
1001
0000
0000
0020
,
0000
0200
0000
0000
1000
0030
0002
0000
,
1010
0303
0000
0000
0000
0000
0000
0002
,
0000
0200
0000
0000
1000
0003
0020
0000
,
1000
0030
0002
0000
0010
0303
0000
0000
,
2200
0000
0000
0001
0010
3300
0000
0000
,
0000
0001
0010
0000
1001
0000
0001
1000
0000
0100
0000
0000
1100
0000
0101
0000
,
0000
1000
0100
0000
1000
0000
0001
0010
0000
1001
0000
0100
1000
0000
1010
0000
,
0000
0001
0100
0000
1001
0000
0010
1000
0000
1010
0000
0000
0010
0100
0001
0000
,
0000
0001
0010
0000
0011
0000
0100
1000
0000
1000
0001
0000
0011
0000
1010
0000
,
0000
0010
0100
0000
1001
0000
1000
0010
0000
0101
0000
0000
0110
0000
1001
0000
,
0000
0100
0010
0000
1001
0000
0010
1000
0000
1001
0000
0100
0010
0000
1001
0000
,
0000
0001
0010
0000
1001
0000
0010
0100
0000
1010
0000
0000
0010
1000
0100
0000
,
0000
0010
0001
0000
0100
0000
0100
0010
0000
0000
0000
0000
0000
0000
0000
0000
,
111M
0000
1M11
0000
,
M111
0000
111M
1M11
,
M111
0000
1111
0000
,
111M
0000
1M11
M111
,
1002
0200
0010
1000
,
1010
0003
1000
0000
0020
0000
1000
0330
,
0002
0000
2000
0000
0010
0003
0002
0000
,
0010
0000
3000
0000
2000
0000
0000
0000
0010
0000
0000
3003
0000
0000
0000
0000
,
1111
0000
0000
0000
;

//---------------dance-single - K. Ward----------------
#NOTES:
     dance-single:
     K. Ward:
     Beginner:
     1:
     0.123,0.180,0.110,0.000,0.000,75.000,11.000,0.000,0.000,0.000:







0000
0000
0000
0000
,
0000
0000
0000
0000
,
0000
0000
0000
0000
,
0000
0000
0000
0000
,
0001
0000
0000
0000
,
1000
0000
0000
0000
,
0010
0000
0000
0000
,
0100
0000
0000
0000
,
0001
0000
0001
0000
,
0001
0000
0000
0000
,
1000
0000
1000
0000
,
1000
0000
0000
0000
,
0010
0000
0000
0000
,
0001
0000
0000
0000
,
0100
0000
0000
0000
,
1001
0000
0000
0000
,
0100
0000
0000
0000
,
1000
0000
0000
0000
,
0010
0000
0000
0000
,
0001
0000
0000
0000
,
1001
0000
0000
0000
,
0110
0000
0000
0000
,
1001
0000
0000
0000
,
0110
0000
0000
0000
,
0001
0000
1000
0000
,
0001
0000
0000
0000
,
0010
0000
0100
0000
,
0010
0010
0010
0000
,
0001
0000
0000
0000
,
0000
0000
0000
0000
,
1000
0000
0000
0000
,
0000
0000
0000
0000
,
0001
0000
1000
0000
,
0001
0000
1000
0000
,
0001
0000
1000
0000
,
1001
0000
0000
0000
,
1000
1000
1000
0000
,
0000
0000
0000
0000
,
0100
0100
0100
0000
,
0000
0000
0000
0000
,
1001
0000
0000
0000
,
0010
0000
0001
0000
,
1000
0000
0000
0000
,
1001
0000
0000
0000
,
1000
1000
1000
0000
,
0000
0000
0000
0000
,
0001
0001
0001
0000
,
0000
0000
0000
0000
,
0010
0000
0010
0000
,
0100
0000
0100
0000
,
0001
0000
1000
0000
,
0001
0000
1001
0000
,
0010
0000
0000
0000
,
0001
0000
0000
0000
,
0100
0000
0000
0000
,
1000
0000
1001
0000
,
0100
0000
0000
0000
,
1000
0000
0000
0000
,
0010
0000
0000
0000
,
0001
0000
1000
0000
,
1001
0000
0000
0000
;

//---------------dance-double - J. Casarino----------------
#NOTES:
     dance-double:
     J. Casarino:
     Hard:
     9:
     0.629,0.600,0.220,0.270,0.470,391.000,22.000,27.000,16.000,2.000:










00000000
00000000
00000000
00000000
,
00000000
00000000
00000000
00000000
,
00000000
00000000
00000000
00000000
,
00000000
00000000
00000000
00000000
,
00000000
01000000
10000000
00000000
00010000
00000000
00000000
01000000
00000000
00001000
00010000
00000000
00000100
00000000
00010000
00000000
,
00000000
00001000
01000000
00000000
00010000
00000000
00000000
00100000
00000000
00001000
00000000
00010000
00001000
00000000
00010000
00000000
,
00000000
00000010
00001000
00000000
00000100
00000000
00000000
00010000
00000000
00000010
00000100
00000000
00000001
00000000
00000010
00000000
,
00000000
00000001
00001000
00000000
00000100
00000000
00000000
00010000
00000000
00001000
00100000
00000000
00001000
00000000
00000000
00000000
,
00000000
00010000
00100000
00000000
00010000
00000000
00000000
00001000
00000000
00010000
01000000
00000000
00010000
00000000
00001000
00000000
,
00000000
01000000
00100000
00000000
10000000
00000000
00000000
00100000
00000000
00010000
00000000
00001000
00010000
00000000
00001000
00000000
,
00000000
00000100
00000010
00000000
00010000
00000000
00000000
00001000
00000000
00000010
00000001
00000000
00000100
00000000
00001000
00000000
,
00010000
00000000
00001000
00000000
00000100
00000000
00001000
00000000
00011000
00000000
00000000
00001000
00010000
00000000
01000000
00000000
,
10000000
00000000
00000000
01000000
00000000
00000000
00100000
00000000
00001000
00000000
00100000
00000000
02000000
00000000
00000000
00000000
,
13000000
00000000
00000000
00100000
00000000
00000000
01000000
00000000
00001000
00000000
00010000
00000000
00001000
00000000
00100000
00000000
,
00010000
00000000
00000000
00010000
00000000
00000000
01000000
00000000
00001000
00000000
00010000
00000000
00002000
00000000
00000000
00000000
,
00013000
00000000
00000100
00000000
00001000
00000000
00000010
00000100
00000020
00000000
00000000
00000000
00001M00
00000000
00000000
00000000
,
00000130
00000000
00000000
00000100
00000000
00000000
00000010
00000000
00010000
00000000
00000010
00000000
00000200
00000000
00000000
00000000
,
00000301
00000000
00000000
00000010
00000000
00000000
00001000
00000000
00010000
00000000
00000100
00000000
00010000
00000000
00000010
00000000
,
00001000
00000000
00000000
00001000
00000000
00000000
00000100
00000000
00010000
00000000
00001000
00000000
00020000
00000000
00000000
00000000
,
00031000
00000000
00100000
00000000
00001000
00000000
01000000
00100000
01000000
00000000
00010000
00000000
01010000
00000000
00000000
00000000
,
11000000
00000000
00000000
10010000
00000000
00000000
00100000
00000000
10000000
00000000
00100000
00000000
02000000
00000000
00000000
00000000
,
13000000
00000000
00000000
01000000
00000000
00000000
00010000
00000000
00100000
00000000
01000000
00000000
00010000
00000000
00001000
00000000
,
00010000
00000000
00000000
00010100
00000000
00000000
00000010
00000000
00010000
00000000
00000010
00000000
00001000
00000000
00000000
00000000
,
00000100
00000000
00010000
00000000
00001000
00000000
00000010
00000100
00000020
00000000
00000000
00000000
00000M31
00000000
00000000
00000000
,
00000001
00000000
00000000
00001001
00000000
00000000
0000M010
00000000
00000001
00000000
00000010
00000000
00000200
00000000
00000000
00000000
,
00000301
00000000
00000000
00000100
00000000
00000000
00001000
00000000
00000001
00000000
00000010
00000000
00001000
00000000
00010000
00000000
,
00001000
00000000
00000000
01001000
00000000
00000000
0M100000
00000000
00001000
00000000
00100000
00000000
00010000
00000000
00000000
00000000
,
00100000
00000000
00001000
00000000
00100000
00000000
00010000
01000000
00010000
00000000
10000000
00000000
00010000
00000000
01000000
00000000
,
02001000
00000000
00000000
00001000
00000000
00000000
03002000
00000000
0M010000
00000000
00000000
00010000
00000000
00000000
00023000
00000000
,
0000M100
00000000
00000000
00000100
00000000
00000000
00030200
00000000
000M0001
00000000
00000000
00000001
00000000
00000000
00000302
00000000
,
00001M00
00000000
00000000
00001000
00000000
00000000
00002003
00000000
0000001M
00000000
00000000
00000010
00000000
00000000
00003020
00000000
,
0000M001
00000000
00000000
00000001
00000000
00000000
00000031
00000000
000001M0
00000000
00000000
00000100
00000001
00000000
00000010
00000000
,
00001000
00000000
00000000
00010000
00000000
00000000
01000000
00000000
10000000
00000000
00000000
01000000
00000000
00000000
00010000
00000000
,
00001000
00000000
00000000
00000100
00000000
00000000
00000001
00000000
00000100
00000000
00000000
00000010
00000000
00000000
00010000
00000000
,
00001000
00000000
00000000
00100000
00000000
00000000
10000000
00000000
00100000
00000000
00000000
00001000
00000000
00000000
01000000
00000000
,
01001000
00000000
00000000
0M01M100
00000000
00000000
000M1M10
00000000
00010010
00000000
00010000
00001000
00000000
00001000
00010000
00000000
,
00010020
00000000
00000230
00000000
00000302
00000000
00000103
00001000
,
00000000
00000100
00000001
00001000
00000001
00000010
00001000
00010000
,
00010100
00000000
00011000
00000000
01001000
00000000
00001000
00010000
,
00000000
01001000
00000000
00001000
01000000
00010000
10000000
00100000
,
02020000
00000000
00000000
00000000
00000000
00000000
10000000
00000000
00000000
03030000
00000000
00000000
00010000
00000000
01000000
00000000
,
00000000
10000000
01000000
00010000
10000000
00100000
00010000
00001000
,
00022000
00000000
00000000
00000000
00000000
00000000
00000010
00000000
00000000
00033000
00000000
00000000
00001000
00000000
00010000
00000000
,
00100000
00010000
00000010
00001000
00000100
00010000
00000010
00001000
,
00000010
00000100
00000001
00000000
00001000
00000000
00000000
00000010
00000000
00010000
00001000
00000000
00000100
00000000
00001000
00000000
,
00000000
00010000
00000010
00000000
00001000
00000000
00000000
00000001
00000000
00001000
00000000
00000001
00000010
00000000
00000100
00000000
,
00000000
00010000
00001000
00000000
00100000
00000000
00000000
00001000
00000000
00010000
01000000
00000000
00100000
00000000
01000000
00000000
,
00000000
00010000
00001000
00000000
00100000
00000000
00000000
00001000
00000000
00010000
00100000
00000000
01000000
00000000
00000000
00000000
,
00000000
00010000
10000000
00000000
00010000
00000000
00000000
01000000
00000000
00100000
00010000
00000000
00001000
00000000
00010000
00000000
,
00000000
00000010
00001000
00000000
00000001
00000000
00000000
00000100
00000000
00001000
00000000
00010000
00000100
00000000
00010000
00000000
,
00000000
01000000
00100000
00000000
10000000
00000000
00000000
00100000
00000000
00001000
00010000
00000000
00000010
00000000
00000100
00000000
,
00001000
00010000
00000100
00001000
00020200
00000000
00030300
00000000
,
00000100
00000000
00000010
00001000
00000000
00000000
00000010
00000000
00000200
00000000
00010000
00000000
00010000
00000000
00000000
00000000
,
00001300
00000000
00000100
00001000
00000000
00000000
00000001
00000000
00000100
00000000
00001000
00000000
00010000
00000000
00000100
00000000
,
00001000
00000000
00000010
00010000
00000000
00000000
00001000
00000000
00000100
00000000
00001000
00000000
00020000
00000000
00000000
00000000
,
00031000
00000000
00100000
00000000
00010000
00000000
01000000
00100000
02000000
00000000
00M10000
00000000
00010000
00000000
03000000
00000000
,
10010000
00000000
00100000
00000000
10000000
00010000
00000000
00100000
00000000
00000000
01000000
00000000
10000000
00000000
00000000
00100000
,
00000000
00000000
00010000
00000000
00001000
00010000
00000000
00010000
00000100
00000000
00001000
00000000
00000001
00000000
00000010
00000000
,
00000100
00000000
00000010
00000000
00000001
00000100
00000000
00000010
00000000
00000000
00000100
00000000
00001000
00000000
00000000
00010000
,
00000000
00000000
00001000
00000000
00010000
00001000
00000000
00001000
00010000
00000000
01000000
00000000
00100000
00000000
00010000
00000000
,
10010000
00000000
00000000
00000000
;

//---------------dance-double - M. Emirzian----------------
#NOTES:
     dance-double:
     M. Emirzian:
     Medium:
     6:
     0.437,0.450,0.200,0.190,0.070,267.000,20.000,19.000,0.000,0.000:










00000000
00000000
00000000
00000000
,
00000000
00000000
00000000
00000000
,
00000000
00000000
00000000
00000000
,
00000000
00000000
00000000
00000000
,
10000000
01000000
10000000
00000000
00010000
00000000
00100000
00000000
,
00001000
00010000
00001000
00000000
00010000
00000000
00000100
00000000
,
00000010
00000001
00000010
00000000
00000001
00000000
00000100
00000000
,
00000010
00001000
00000010
00000000
00010000
00000000
00001000
00000000
,
01000000
00001000
00010000
00000000
00001000
00000000
00100000
00000000
,
01000000
10000000
00010000
00000000
10000000
00000000
00100000
00000000
,
01000000
00001000
00010000
00000000
00000100
00000000
00001000
00000000
,
00000001
00000000
00000000
00000001
00000000
00000000
00000001
00000000
00002002
00000000
00000000
00000000
00003003
00000000
00000000
00000000
,
00000010
00000000
00000000
00000010
00000000
00000000
00001000
00000000
00000002
00000000
00000000
00000000
00000003
00000000
00000000
00000000
,
00000100
00000000
00000010
00000000
00010000
00000100
00010000
00001000
,
00010000
00000000
00000000
00010000
00000000
00000000
00001000
00000000
02000000
00000000
00000000
00000000
03000000
00000000
00000000
00000000
,
00001000
00010000
00001000
01000000
00020000
00000000
00030000
00000000
,
00100000
00000000
00000000
00100000
00000000
00000000
00010000
00000000
10000000
00000000
00000000
00000000
01000000
00000000
00000000
00000000
,
00010000
00000000
00001000
00000000
00010000
00000010
00001000
00000010
,
00010000
00000000
00000000
00010000
00000000
00000000
00000010
00000000
00002000
00000000
00000000
00000000
00003000
00000000
00000000
00000000
,
00000001
00001000
00000001
00000100
00000001
00001000
00001000
00000000
,
00000010
00000000
00000000
00000100
00000000
00000000
00000010
00000000
00000200
00000000
00000000
00000000
00000300
00000000
00000000
00000000
,
00001000
00000000
00010000
00000000
00100000
01000000
00100000
00100000
,
00100000
00000000
00000000
10000000
00000000
00000000
00100000
00000000
10000000
00000000
00000000
00000000
01000000
00000000
00000000
00000000
,
10000000
01000000
00100000
00100000
00020000
00000000
00030000
00000000
,
10000000
00000000
00000000
01000000
00000000
00000000
10000000
00000000
02000000
00000000
00000000
00000000
03000000
00000000
00000000
00000000
,
00010000
00000000
00001000
00000000
00000010
00000001
00001000
00001000
,
00001000
00000000
00000000
00000100
00000000
00000000
00010000
00000000
00002000
00000000
00000000
00000000
00003000
00000000
00000000
00000000
,
01000000
00010000
10000000
00100000
01000000
00001000
00010000
00010000
,
00001000
00010000
00001000
00010000
,
00000100
00000010
00000100
00000010
,
00000001
00000100
00001000
00010000
,
01000000
00010000
00001000
00101000
,
01010000
10000000
00100000
01000000
,
00100000
00010000
00001000
00000010
,
00000100
00000010
00000001
00000100
,
00001010
00011000
02002000
03003000
,
01001000
00000000
01001000
00000000
00011000
00000000
00000000
00001000
,
00000000
01000000
00000000
00010000
01000000
00000000
00010000
00000000
,
11000000
00000000
11000000
00000000
00110000
00000000
00000000
00100000
,
00000000
00001000
00000000
00010000
00001000
00000000
00000010
00000000
,
00000110
00000000
00000110
00000000
00001001
00000000
00000000
00000001
,
00000000
00000100
00000000
00000010
00000100
00000000
00001000
00000000
,
00001100
00000110
00001010
00000010
,
00010000
00000010
00010000
00000010
00001000
00000010
00000100
00000000
,
00000001
00000010
00000001
00000000
00001000
00000000
00000100
00000000
,
00010000
00001000
00010000
00000000
00001000
00000000
00100000
00000000
,
01000000
00010000
01000000
00000000
10000000
00000000
00100000
00000000
,
00010000
00100000
00010000
00000000
00001000
00000000
00010000
00000000
,
00000010
00010000
00001000
00000000
00010000
00000000
00000100
00000000
,
00000010
00000001
00000100
00000000
00001000
00000000
00010000
00000000
,
00001000
00010000
01000000
00000000
00100000
00000000
00010000
00000000
,
10000000
00000000
00000000
00010000
00000000
00000000
10000000
00000000
20020000
00000000
00000000
00000000
30030000
00000000
00000000
00000000
,
01000000
00000000
00000000
01000000
00000000
00000000
00010000
00000000
20000000
00000000
00000000
00000000
30000000
00000000
00000000
00000000
,
00100000
00000000
01000000
00000000
00001000
01000000
00010000
01000000
,
00001000
00000000
00000000
00001000
00000000
00000000
00010000
00000000
00000020
00000000
00000000
00000000
00000030
00000000
00000000
00000000
,
00010000
00000010
00010000
00000100
00002000
00000000
00003000
00000000
,
01000000
00000000
00000000
00100000
00000000
00000000
01000000
00000000
00200000
00000000
00000000
00000000
00300000
00000000
00000000
00000000
,
00010000
00000000
00001000
00000000
00001000
00000100
00000010
00000010
,
00000100
00000000
00000000
00000001
00000000
00000000
00000100
00000000
00000001
00000000
00000000
00000000
00000010
00000000
00000000
00000000
,
00000001
00000010
00000100
00000100
00002000
00000000
00003000
00000000
,
00001001
00000000
00000000
00000000
;

//---------------dance-double - M. Emirzian----------------
#NOTES:
     dance-double:
     M. Emirzian:
     Easy:
     3:
     0.269,0.300,0.190,0.060,0.000,163.000,19.000,6.000,0.000,0.000:










00000000
00000000
00000000
00000000
,
00000000
00000000
00000000
00000000
,
00000000
00000000
00000000
00000000
,
00000000
00000000
00000000
00000000
,
00010000
00000000
10000000
10000000
,
10000000
00000000
00100000
00100000
,
01000000
00000000
00010000
10000000
,
00010000
00000000
00011000
00000000
,
00001000
00000000
00000001
00000001
,
00000001
00000000
00000010
00000010
,
00000100
00000000
00001000
00000001
,
00001000
00000000
00002002
00003003
,
00000010
00000010
00001001
00000000
,
00000001
00000100
00000001
00000100
,
00001000
00010000
00011000
00000000
,
00001000
00100000
00001000
00000000
,
00100000
00100000
10010000
00000000
,
10000000
01000000
10000000
01000000
,
00010000
00001000
00011000
00000000
,
00010000
00000010
00010000
00000000
,
00001000
00010000
00011000
00000000
,
00001000
00000100
00000001
00000100
,
00000010
00000010
00001001
00000000
,
00000001
00000100
00001000
00000000
,
00010000
00001000
00011000
00000000
,
00010000
01000000
10000000
01000000
,
00100000
00100000
10010000
00000000
,
10000000
01000000
00010000
00001000
,
01000000
00000000
00001000
00000000
,
01000000
00000000
00001000
00000000
,
00010000
00000000
00000100
00000000
,
00010000
00000000
00000100
00000000
,
00000010
00000000
00000001
00000000
,
00000100
00000000
00001000
00000000
,
00010000
00000000
00100000
00000000
,
01000000
00000000
20020000
30030000
,
10000000
00010000
10000000
00000000
,
01000000
00000000
00010000
00000000
,
00001000
00010000
00001000
00000000
,
01000000
00000000
00001000
00000000
,
00010000
00000100
00010000
00000000
,
00000010
00000000
00000100
00000000
,
00000001
00001000
00000001
00000000
,
00000100
00000010
00000100
00000010
,
00001001
00000000
00000001
00000001
,
00000001
00000000
00000010
00000010
,
00000100
00000000
00001000
00000001
,
00001000
00000000
00011000
00000000
,
00010000
00000000
10000000
10000000
,
10000000
00000000
00100000
00100000
,
01000000
00000000
00010000
10000000
,
00010000
00000000
20020000
30030000
,
00100000
00100000
10010000
00000000
,
10000000
01000000
10000000
01000000
,
00010000
00001000
00011000
00000000
,
00010000
00000010
00010000
00000000
,
00010000
00001000
00011000
00000000
,
00010000
01000000
10000000
01000000
,
00100000
00100000
10010000
00000000
,
10000000
01000000
00010000
00001000
,
00011000
00000000
00000000
00000000
;

//---------------dance-double - M. Emirzian----------------
#NOTES:
     dance-double:
     M. Emirzian:
     Challenge:
     10:
     0.770,0.990,0.230,0.120,1.000,504.000,23.000,12.000,0.000,14.000:










00000000
00000000
00000000
00000000
,
00000000
00000000
00000000
00000000
,
00000000
00000000
00000000
00000000
,
00000000
00000000
00000000
00000000
,
00000000
00100000
00010000
00000000
00001000
00000000
00000000
00001000
00000000
00010000
01000000
00000000
00100000
00000000
00010000
00000000
,
00000000
00010000
01000000
00000000
00100000
00000000
10000000
01000000
00000000
00100000
00000000
00001000
00000010
00000000
00000100
00000000
,
00000000
00000100
00001000
00000000
00000001
00000000
00000000
00000001
00000000
00000100
00000010
00000000
00010000
00000000
00000100
00000000
,
00000000
00010000
00100000
00000000
01000000
00000000
00001000
01000000
00000000
01000000
10000000
00000000
01000000
00000000
00000000
00000000
,
00000000
00010000
00100000
00000000
01000000
00000000
00000000
01000000
00000000
10000000
00010000
00000000
01000000
00000000
00100000
00000000
,
00000000
00100000
10000000
00000000
01000000
00000000
00100000
00001000
00000000
00000010
00000000
00000001
00000100
00000000
00000010
00000000
,
00000000
00000010
00001000
00000000
00000001
00000000
00000000
00000001
00000000
00000100
00001000
00000000
00010000
00000000
00100000
00000000
,
00000000
10000000
01000000
00000000
00100000
00000000
00010000
01000000
00001000
00000000
00000000
00010000
00001000
00000000
00010100
00000000
,
00001000
00000100
00000000
00000100
00010000
00000000
00010000
00001000
00000000
00010000
00000000
00001000
01000000
00000000
00100000
00000000
,
10000000
01000000
00000000
01000000
00100000
00000000
00100000
00001000
00000000
00001000
00010000
00000000
00100000
00000000
10000000
00000000
,
01000000
00100000
00000000
00100000
00001000
00000000
00001000
00000010
00000000
00000100
00000000
00010000
00001000
00000000
00000100
00000000
,
00000001
00000010
00000000
00000010
00001000
00000000
00001000
00010000
00000000
00010000
00100000
00000000
01000000
00100000
01000000
00000000
,
00001000
00000100
00000000
00000100
00000010
00000000
00000010
00010000
00000000
00001000
00000000
01000000
00001000
00000000
00010000
00000000
,
01000000
00100000
00000000
00100000
00010000
00000000
00010000
01000000
00000000
01000000
10000000
00000000
01000000
00000000
00010000
00000000
,
00100000
01000000
00000000
01000000
10000000
00000000
10000000
00100000
00000000
00010000
00000000
00001000
00000010
00000000
00000100
00000000
,
00010000
00001000
00000000
00001000
00000100
00000000
00000100
00000001
00000000
00000001
00000010
00000000
00000100
00001000
00000010
00000000
,
00000100
00001000
00000000
00001000
00100000
00000000
00100000
01000000
00000000
01000000
10000000
00000000
00010000
01000000
00100000
10000000
,
00000000
01000000
00000000
00100000
00000000
00000000
00100000
00010000
00000000
01000000
00000000
00001000
00010000
00000000
00000100
00000000
,
00010000
00001000
00000000
00001000
00000100
00000000
00000100
00000001
00000000
00000001
00000010
00000000
00000100
00010000
00100000
00010000
,
00000000
00000010
00000000
01000000
00000000
00000000
00001000
00010000
00000000
00010000
00100000
00000000
00010000
00000000
00001000
00000000
,
00000100
00001000
00000000
00001000
01000000
00000000
01000000
10000000
00000000
10000000
01000000
00000000
00001000
00010000
00000100
00010000
,
00000000
01000000
00000000
00100000
00000000
00000000
00001000
01000000
00000000
00100000
00000000
10000000
01000000
00000000
00010000
00000000
,
00001000
00010000
00000000
00010000
00000100
00000000
00000100
00000010
00000000
00000010
00000001
00000000
00000100
00000010
00001000
00000100
,
00000000
00000010
00000000
00000001
00000000
00000000
00000001
00000100
00000000
00000100
00001000
00000000
00010000
00000000
00001000
00000000
,
00020020
00000000
00000000
00000000
00000000
00000000
00000000
00000000
00000100
00000000
00000000
00000000
00001000
00030030
00000000
00000000
,
00010000
00000000
00011000
00000000
00001000
01000000
00010000
00100000
,
02020000
00000000
00000000
00000000
00000000
00000000
00000000
00000000
00100000
00000000
00000000
00000000
00001000
03030000
00000000
00000000
,
01000000
00000000
00000000
00000000
01010000
00000000
00000000
00000000
00110000
00000000
00000000
01000000
10000000
00000000
00100000
00000000
,
20020000
01000000
00100000
31030000
,
01000000
00000000
00000000
00000000
00110000
00000000
00000000
00000000
00101000
00000000
00000000
00011000
00000000
00000000
00010010
00000000
,
00002020
00000000
00000000
00000000
00010000
00000000
00000000
00000000
00000100
00000000
00000000
00000000
00010000
00003030
00000000
00000000
,
00000101
00000000
00000000
00001001
00000000
00000000
00001100
00000000
00001000
00000000
00000010
00001000
00000000
00001000
00000100
00000000
,
00010000
00001000
01000000
00010000
02002000
00000000
00000000
00110000
,
00000000
00000000
10010000
03003000
00000000
00000000
01000000
00000000
01010000
00000000
00000000
00000000
10010000
00000000
00000000
00000000
,
01000000
00100000
00010000
01000000
00022000
00000000
00000000
00100000
,
00000000
00000000
00000010
00033000
00000000
00000000
00010000
00000000
00001000
00000000
00010000
00000000
00000100
00000000
00001000
00000000
,
00000001
00000100
00000010
00001000
00000010
00001000
00000100
00001000
00000100
00010000
00001000
00010000
00001000
01000000
00010000
01000000
,
00100000
10000000
00100000
10000000
01000000
10000000
01000000
00100000
00010000
01000000
00010000
01000000
00001000
00010000
00000100
00010000
,
00001000
00010000
00000010
00001000
00000010
00000100
00000001
00001000
00000100
00000010
00000001
00000100
00000010
00000100
00000001
00000100
,
00000001
00001000
00000100
00010000
00001000
01000000
00010000
10000000
01000000
00100000
00010000
10000000
00100000
01000000
00010000
10000000
,
00010000
10000000
01000000
00000000
00100000
00000000
00000000
00010000
00000000
01000000
00100000
00000000
10000000
00000000
01000000
00000000
,
00000000
01000000
00100000
00000000
00001000
00000000
00000100
00000001
00000000
00000100
00000000
00001000
00010000
00000000
00000100
00000000
,
00000000
00000100
00000010
00000000
00000001
00000000
00000000
00000001
00000000
00000100
00001000
00000000
00010000
00000000
01000000
00000000
,
00000000
01000000
00010000
00000000
00001000
00000000
01000000
00100000
00000000
00100000
10000000
00000000
01100000
00000000
00000000
00000000
,
00000000
10000000
00010000
00000000
01000000
00000000
00000000
00001000
00000000
00000100
00000010
00000000
00001000
00000000
00000100
00000000
,
00000000
00000100
00000010
00000000
00000001
00000000
00000100
00001000
00000000
00100000
00000000
01000000
00010000
00000000
00001000
00000000
,
00000000
00001000
01000000
00000000
00100000
00000000
00000000
00100000
00000000
10000000
01000000
00000000
00100000
00000000
00010000
00000000
,
00000000
00010000
01000000
00000000
00100000
00000000
10000000
01000000
00100000
00000000
00000000
00010000
01000000
00000000
00001000
00000000
,
01000000
00010000
00000000
00010000
00100000
00000000
00100000
01000000
00000000
10000000
00000000
00010000
01000000
00000000
00001000
00000000
,
00010000
01000000
00000000
01000000
00010000
00000000
00010000
00001000
00000000
00001000
00000100
00000000
00000001
00000000
00000010
00000000
,
00000100
00001000
00000000
00001000
00000010
00000000
00000100
00001000
00000000
00100000
00000000
01000000
00010000
00000000
00000010
00000000
,
00100000
00001000
00000000
00000010
00001000
00000000
00100000
01000000
00000000
00010000
00001000
00000000
01000000
00100000
01000000
00000000
,
00010000
00100000
00000000
00100000
00001000
00000000
00001000
00000100
00000000
00000100
00000001
00000000
00000010
00000100
00010000
00001000
,
00000000
00100000
00000000
00001000
00000000
00000000
00010000
00000010
00000000
00100000
00000000
00001000
00010000
00000000
01000000
00000000
,
00100000
00010000
00000000
00010000
10000000
00000000
10000000
00100000
00000000
00100000
00010000
00000000
00100000
01000000
00001000
00000010
,
00000000
00000100
00000000
01000000
00000000
00000000
00001000
00010000
00000000
00010000
00000010
00000000
00001000
00000000
00000100
00000000
,
00001001
00000000
00000000
00000000
;
