#TITLE:When The Lights Are Down;
#SUBTITLE:The Black Halo (2005);
#ARTIST:Kamelot;
#TITLETRANSLIT:;
#SUBTITLETRANSLIT:;
#ARTISTTRANSLIT:;
#CREDIT:Shirogitsune;
#BANNER:When the Lights are Down-bn.png;
#BACKGROUND:When the lights are down-bg.png;
#LYRICSPATH:;
#CDTITLE:!ShiroTitle.png;
#MUSIC:02_kamelot--when_the_lights_are_down-vic.mp3;
#OFFSET:-0.400;
#SAMPLESTART:68.456;
#SAMPLELENGTH:11.980;
#SELECTABLE:YES;
#BPMS:0.000=170.000;
#STOPS:;
#BGCHANGES:;
// cache tags:
#FIRSTBEAT:0.000;
#LASTBEAT:615.500;
#SONGFILENAME:Songs/Astronomic Metal Collection/When the Lights Are Down (Shirogitsune)/When the Lights are Down.sm;
#HASMUSIC:1;
#HASBANNER:1;
#MUSICLENGTH:221.518;
// end cache tags

//---------------dance-single - ----------------
#NOTES:
     dance-single:
     :
     Hard:
     11:
     1.000,1.000,0.989,0.041,1.000,1917.000,219.000,9.000,0.000,0.000:
0010
0000
0000
1000
0100
0010
0001
0000
,
1000
0001
0010
0001
1000
0100
0000
0100
,
1000
0000
0001
1000
0001
0100
0010
0000
,
0100
0010
1000
0001
0010
0100
0000
0100
,
1000
0010
1000
0010
1000
0010
0100
0001
0010
0100
1000
0010
0100
0001
0100
0001
,
0100
0001
0010
0100
1000
0010
0100
0001
0010
0100
1000
0100
1000
0100
0010
0001
,
0100
0010
0100
0010
0100
0010
1000
0001
0010
0100
1000
0010
0100
0010
0100
0010
,
0100
0001
0100
0001
1000
0100
1000
0100
1000
0001
1000
0001
0100
0001
0100
0001
,
1000
0010
1000
0010
1000
0001
0010
0100
1000
0010
1000
0100
0010
0001
0010
0001
,
0010
0001
0100
0010
1000
0001
0100
0010
1000
0001
0010
0100
0010
0100
1000
0100
,
0010
0001
0010
0001
0010
0001
1000
0001
0100
0010
1000
0010
0100
0010
0100
0010
,
0100
0010
1000
0001
0010
0100
1000
0100
0010
0001
1000
0100
1000
0100
1000
0010
,
0100
0001
0100
0001
1000
0001
1000
0001
0010
0001
0010
0001
0100
0010
0100
0010
,
1000
0010
1000
0010
1000
0100
1000
0100
0001
0100
0001
0100
1000
0100
1000
0100
,
1000
0010
1000
0010
1000
0001
1000
0001
0010
0001
0010
0001
0100
0010
0100
0010
,
1000
0001
0010
0100
1000
0001
0010
0100
0010
0001
0100
0010
0100
0010
1000
0100
,
0010
0001
0010
0001
0010
0001
0010
0001
0010
0001
0010
0001
0010
0100
1000
0001
,
1000
0010
1000
0010
1000
0010
1000
0010
1000
0010
1000
0010
0100
0001
0010
0100
,
1000
0100
0010
0001
0010
0100
1000
0010
1000
0100
0010
0001
0100
0001
1000
0100
,
1000
0010
1000
0001
0100
0001
1000
0100
1000
0001
0100
0010
1000
0001
0010
0100
,
1001
0101
0000
0110
1001
0000
1100
0110
,
0000
0000
0000
0110
0000
0000
1100
0000
0000
1001
0000
0000
0101
0000
0000
0000
0110
0000
0000
0000
1010
0000
0000
0000
,
1000
0000
0001
1000
0001
0000
0001
1000
0100
0000
1000
0100
0010
0000
0001
0100
,
0010
0000
1000
0001
0100
0000
0001
1000
0010
0000
1000
0001
0010
0000
0001
1000
,
0100
0000
0100
0010
0001
0000
1000
0001
0100
0000
0001
0100
0001
0000
0001
0100
,
0001
0000
1000
0001
1000
0000
1000
0001
1000
0000
1000
0001
1000
0000
1000
0001
,
0100
0000
0001
0010
0100
0000
0100
1000
0001
0000
0001
0100
0010
0000
1000
0001
,
0010
0000
0010
0100
0010
0000
0010
0001
0100
0000
0010
1000
0010
0000
1000
0010
,
0100
0000
0100
0010
1000
0000
1000
0010
0100
0000
0100
0001
1000
0000
0100
1000
,
0100
0000
0100
1000
0100
0000
0100
1000
0001
0000
0010
0001
0010
0000
0001
1000
,
1001
0000
0110
0000
0101
0000
0001
0100
0010
0000
1000
0010
0100
0000
0001
0010
,
0100
0000
1000
0100
1000
0000
1000
0001
1000
0000
1000
0010
1000
0000
0001
0100
,
0101
0000
0110
0000
1001
0000
0001
1000
0001
0000
0001
0100
0001
0000
0001
0010
,
0001
0000
0010
0100
0010
0000
0010
0001
0010
0000
0010
0100
0010
0000
0010
0001
,
1001
0000
0101
0000
0110
0000
0010
1000
0010
0000
0010
0100
0010
0000
0010
1000
,
0010
0000
0010
0100
0010
0000
0010
1000
0001
0000
0001
1000
0100
0000
0100
1000
,
1001
0000
1100
0000
0110
0000
0010
0001
0010
0000
0011
0000
0110
0000
0011
0000
,
1001
0000
0010
0100
0010
0000
1010
0000
0110
0000
0000
0101
0000
0000
1100
0000
,
1001
0000
0000
0100
1001
0000
0001
0001
,
1000
0010
0010
0000
1010
0000
1001
0000
,
0101
0000
0001
0000
0000
0000
0010
0100
1000
0000
0000
0000
0001
0000
0000
0000
,
0001
0010
0100
1000
0010
0100
0001
0010
0100
1000
0010
1000
0100
0000
0010
0000
,
0001
0010
0001
0010
0100
0010
0100
0010
0001
1000
0001
1000
0010
0100
0010
0100
,
0001
0100
0001
0100
0010
1000
0010
1000
0001
0010
0001
0010
0100
0010
0100
0010
,
0001
0100
0001
0100
0010
1000
0010
1000
0001
1000
0001
1000
0100
0010
0100
0010
,
0100
0010
0100
0010
0100
0010
0100
0010
0001
1000
0001
0100
0010
0100
0001
1000
,
0100
0010
0100
0010
0100
0010
0100
0010
0100
0010
0100
0010
0001
1000
0001
1000
,
0001
1000
0001
1000
0001
1000
0001
1000
0001
1000
0001
1000
0010
0100
0010
1000
,
0100
0010
0100
1000
0001
1000
0010
0100
0010
0100
0001
1000
0001
1000
0100
0010
,
0100
0010
0001
1000
0001
1000
0100
1000
0100
1000
0010
0100
0010
0100
0001
0100
,
0001
0100
0001
0100
0010
1000
0010
1000
0100
1000
0100
1000
0010
0100
0010
0100
,
0001
1000
0001
1000
0010
0100
0010
0100
0001
0010
0001
0010
0100
1000
0100
1000
,
0010
1000
0010
1000
0001
0100
0001
0100
0010
1000
0010
1000
0100
1000
0100
1000
,
0100
1000
0100
1000
0100
1000
0100
1000
0010
0100
0010
1000
0100
1000
0010
0100
,
0001
0100
0001
0100
0001
0100
0001
0100
0001
0100
0001
0100
0010
1000
0010
1000
,
0010
1000
0010
1000
0010
1000
0010
1000
0010
1000
0010
1000
0100
0010
0001
1000
,
0100
0010
0100
0010
0001
0100
0001
0100
0010
1000
0010
1000
0100
0010
0001
0100
,
0010
0100
0001
1000
0001
1000
0001
1000
0010
0100
0010
1000
0100
1000
0001
0010
,
0011
1001
0000
1100
1001
0000
0101
0110
,
0000
0000
0000
0110
0000
0000
1010
0000
0000
1001
0000
0000
0011
0000
0000
0000
0101
0000
0000
0000
1001
0000
0000
0000
,
1000
0000
0001
1000
0001
0000
0001
0010
0100
0000
1000
0001
0100
0000
0100
0001
,
1000
0000
1000
0001
0010
0000
0010
0001
1000
0000
0001
0100
0010
0000
0010
0100
,
0001
0000
0001
0010
0100
0000
1000
0001
0100
0000
0010
1000
0010
0000
0010
1000
,
0010
0000
0010
0100
0010
0000
0010
0100
0010
0000
0010
0100
0010
0000
0010
0100
,
0110
0000
1001
0000
0110
0000
0100
1000
0001
0000
0001
1000
0100
0000
0010
0001
,
1000
0000
0100
1000
0100
0000
0100
0010
0001
0000
0010
0100
1000
0000
0001
0100
,
0101
0000
1001
0000
1100
0000
0010
0001
0010
0000
0010
0001
0011
0000
0110
0000
,
1100
0000
1000
0001
1000
0000
1010
0000
0110
0000
0000
0101
0000
0000
1001
0000
,
1100
0000
0110
0000
1100
0000
1001
0010
0100
0001
0010
0100
0010
0001
1000
0100
,
1000
0010
0100
0001
0010
0001
0100
0010
1000
0100
1000
0001
0010
0100
1000
0001
,
1001
0000
0011
0000
0110
0000
0011
0100
1000
0001
0010
0100
1001
0000
0101
0000
,
1010
0000
0110
0001
0010
0100
1000
0010
0110
0000
0101
0000
1001
1000
0100
0010
,
1001
0000
0011
0000
0110
0000
1001
0010
0100
0001
0101
0000
0110
0000
1010
0000
,
1001
0000
0101
0010
0100
1000
1100
0000
1010
0000
1001
0000
0101
0010
1000
0100
,
1100
0000
0110
0000
0011
0000
0101
0010
1000
0010
0110
0000
0101
0000
0110
0000
,
1010
0000
0101
0001
0010
0100
1100
0000
0101
0000
1001
0000
0110
0000
0010
0000
,
1001
0010
0000
0100
1100
0000
0100
0100
,
1000
0010
0010
0000
0110
0000
0100
0101
,
1001
0001
0000
0001
0011
0000
0100
0100
,
1000
0001
0001
0000
0101
0000
0110
0000
,
0110
0000
1001
0000
0000
0000
0001
1000
0001
0000
0000
0000
0010
0000
0000
0000
,
0010
0000
0100
1000
0000
0000
0001
0000
0100
0010
0100
0000
0100
0000
0100
0000
,
0001
0010
0001
0010
0100
0010
0100
0010
0001
1000
0001
1000
0010
0100
0010
0100
,
0001
0100
0001
0100
0010
1000
0010
1000
0001
0010
0001
0010
0100
0010
0100
0010
,
0001
0100
0001
0100
0010
1000
0010
1000
0001
1000
0001
1000
0100
0010
0100
0010
,
0100
0010
0100
0010
0100
0010
0100
0010
0001
1000
0001
0100
0010
0100
0001
1000
,
0100
0010
0100
0010
0100
0010
0100
0010
0100
0010
0100
0010
0001
1000
0001
1000
,
0001
1000
0001
1000
0001
1000
0001
1000
0001
1000
0001
1000
0010
0100
0010
1000
,
0001
0100
0001
0100
0010
0100
0010
0100
0001
0010
0001
0010
0100
1000
0010
0100
,
0010
0100
0001
0010
0001
0010
0100
1000
0100
1000
0010
0100
0010
0100
0001
1000
,
0001
0100
0001
0100
0010
1000
0010
1000
0100
1000
0100
1000
0010
0100
0010
0100
,
0001
1000
0001
1000
0010
0100
0010
0100
0001
0010
0001
0010
0100
1000
0100
1000
,
0010
1000
0010
1000
0001
0100
0001
0100
0010
1000
0010
1000
0100
1000
0100
1000
,
0100
1000
0100
1000
0100
1000
0100
1000
0010
0100
0010
1000
0100
1000
0010
0100
,
0001
0100
0001
0100
0001
0100
0001
0100
0001
0100
0001
0100
0010
1000
0010
1000
,
0010
1000
0010
1000
0010
1000
0010
1000
0010
1000
0010
1000
0100
0010
0001
1000
,
0100
0010
0100
0010
0001
0100
0001
0100
0010
1000
0010
1000
0100
0010
0001
0100
,
0010
1000
0001
1000
0001
1000
0001
1000
0010
0100
0010
1000
0100
1000
0001
0010
,
0011
0011
0011
0010
0110
1000
1100
1100
,
0001
0101
0101
0010
0110
0010
1000
0001
,
0011
0110
1100
1000
1100
0010
0110
1001
,
0001
0000
0011
0000
0101
0000
0100
0000
0010
1000
0001
0010
0100
1000
0100
0010
,
1001
1001
1001
1000
1010
0010
1010
1010
,
1000
1001
1001
0001
0011
0010
0100
1000
,
0101
0110
1001
0001
0011
0100
1100
0110
,
0100
0000
1100
0000
1001
0000
0010
0000
1100
0010
0001
1000
0100
0010
0001
0100
,
0101
0101
0101
0100
0110
0010
0101
1001
,
1000
1100
1010
0010
0110
0001
0010
0100
,
1100
1001
0101
0110
0110
0010
0101
1001
,
1000
0000
1010
0000
1100
0000
0010
0000
0011
0000
0001
0010
0100
1000
0001
0010
,
0100
0000
0000
1000
0000
0000
0100
0000
0000
0010
0000
0000
0100
0000
0000
0000
1000
0000
0000
0000
0001
0000
0000
0000
0010
0000
0000
0000
0100
0000
0000
0000
0001
0000
0000
0000
1000
0000
0000
0000
0010
0000
0000
0000
0100
0000
0000
0000
,
0010
0000
0000
0100
0000
0000
0001
0000
0000
0010
0000
0000
0100
0000
0000
0000
1000
0000
0000
0000
0001
0000
0000
0000
0010
0000
0000
0100
0000
0000
0010
0000
0000
0001
0000
0000
0100
0000
0000
0010
0000
0000
1000
0000
0000
0001
0000
0000
,
0010
0000
0000
0100
0000
0000
1000
0000
0000
0100
0000
0000
0010
0000
0000
0000
0001
0000
0000
0000
0100
0000
0000
0000
0010
0000
0000
0000
1000
0000
0000
0000
0001
0000
0000
0000
0010
0000
0000
0000
0100
0000
0000
0000
1000
0000
0000
0000
,
0100
0010
0001
0100
0020
0000
0030
0000
1000
0100
1000
0100
0020
0000
0030
0000
,
0011
0100
1000
0001
0100
0000
0100
0001
0010
0100
1001
0100
0010
0001
0100
0001
,
1000
0010
1000
0010
0100
0001
1000
0001
1000
0100
1000
0100
0010
0001
0010
0001
,
0100
0010
0100
0010
1000
0100
0010
0100
1000
0001
0110
1000
0100
0010
0001
1000
,
0010
1000
0100
0010
0001
0010
0100
1000
0100
0010
0100
1000
0010
0100
0001
1000
,
0100
0000
0000
0010
0000
0000
0100
0000
0000
0010
0000
0000
0001
0000
0000
0000
1000
0000
0000
0000
0010
0000
0000
0000
0100
0000
0000
0000
0001
0000
0000
0000
0100
0000
0000
0000
0010
0000
0000
0000
1000
0000
0000
0000
0100
0000
0000
0000
,
1000
0000
0000
0100
0000
0000
0010
0000
0000
0001
0000
0000
0100
0000
0000
0000
0001
0000
0000
0000
0100
0000
0000
0000
0010
0000
0000
0100
0000
0000
0010
0000
0000
1000
0000
0000
0100
0000
0000
0010
0000
0000
0001
0000
0000
0010
0000
0000
,
0100
0000
0000
1000
0000
0000
0001
0000
0000
0100
0000
0000
0010
0000
0000
0000
0100
0000
0000
0000
0000
0000
0000
0000
0001
0000
0000
0000
0000
0000
0000
0000
0010
0000
0000
0000
0100
0000
0000
0000
1000
0000
0000
0000
0000
0000
0000
0000
,
0100
0000
0000
0010
0000
0000
0001
0000
0000
0010
0000
0000
0100
0000
0000
0000
0010
0000
0000
0000
0000
0000
0000
0000
0010
0000
0000
0001
0000
0000
0010
0000
0000
0100
0000
0000
1000
0000
0000
0000
0100
0000
0000
0000
0000
0000
0000
0000
,
0100
0010
0100
0010
0001
1000
0010
0100
0001
1000
1100
0010
0001
1000
0010
0100
,
0001
0010
0001
0010
0100
1000
0010
0100
0001
0100
0001
0100
0010
1000
0010
1000
,
0001
0010
0001
0010
0100
1000
0001
0100
0010
1000
1100
0010
0001
1000
0010
1000
,
0100
0010
0001
0010
0100
1000
0001
0100
0001
1000
0010
1000
0001
0100
0010
1000
,
1100
1100
1100
0010
0011
0001
1001
1001
,
1000
1001
0101
0100
0110
0001
0010
0100
,
1100
0101
1100
0010
0101
0010
0110
1001
,
0001
0000
0101
0000
0101
0000
1000
0000
1100
0010
0001
1000
0100
0010
0001
1000
,
1100
0011
0110
1000
1100
0001
0101
0110
,
0010
0110
1001
0001
0011
0100
1000
0001
,
0101
1100
0101
0110
1001
0010
0110
0101
,
1000
1100
0110
0001
0011
0010
0001
0100
,
1010
0000
0000
1000
0100
0010
0001
0000
,
1000
0001
0010
0001
1000
0100
0000
0100
,
1000
0002
0023
0230
,
2300
3200
0320
0032
,
1003
0100
1000
0100
0010
0100
0010
0100
1000
0001
1000
0001
0100
0010
0100
0010
,
0100
0010
0100
0010
0100
0010
0100
0010
1000
0001
0010
0001
0010
0001
0100
0010
,
1000
0100
1000
0100
1000
0100
1000
0100
1000
0100
1000
0100
0010
0001
0010
0001
,
0010
0001
0010
0001
0010
0001
0010
0001
0010
0001
0010
0001
0100
0010
1000
0001
,
0010
0100
1000
0100
1000
0100
0010
0001
0010
0001
0100
0010
0100
0010
1000
0010
,
1000
0010
0100
0001
0100
0001
0010
0100
0010
0100
1000
0100
1000
0100
0010
0100
,
0010
0100
0010
0100
1000
0010
1000
0010
0100
0001
0100
0001
0010
0100
0010
0100
,
1000
0100
1000
0100
0010
0001
0010
0001
0100
0010
0100
0010
1000
0001
1000
0001
,
0010
0001
0010
0001
0100
0010
0100
0010
1000
0001
1000
0001
0010
0001
0010
0001
,
0010
0001
0010
0001
0010
0001
0010
0001
0100
0010
0100
0001
0010
0001
0100
0010
,
1000
0010
1000
0010
1000
0010
1000
0010
1000
0010
1000
0010
0100
0001
0100
0001
,
0100
0001
0100
0001
0100
0001
0100
0001
0100
0001
0100
0001
0010
0100
1000
0001
,
0100
0010
0100
0010
1000
0010
1000
0010
0100
0001
0100
0001
0010
0100
1000
0100
,
0010
0001
0010
0001
0010
0001
1000
0010
1000
0001
0100
0001
0010
0100
1000
0100
,
1100
0110
1001
0001
0101
0100
0110
0101
,
0010
0000
1010
0000
1100
0000
0001
0000
1100
0010
0001
0100
0010
1000
0100
0000
;

//---------------dance-single - Solo+----------------
#NOTES:
     dance-single:
     Solo+:
     Challenge:
     12:
     1.000,1.000,0.989,0.041,1.000,1948.000,219.000,9.000,0.000,0.000:
0010
0000
0000
1000
0100
0010
0001
0000
,
1000
0001
0010
0001
1000
0100
0000
0100
,
1000
0000
0001
1000
0001
0100
0010
0000
,
0100
0010
1000
0001
0010
0100
0000
0100
,
1000
0010
1000
0010
1000
0010
0100
0001
0010
0100
1000
0010
0100
0001
0100
0001
,
0100
0001
0010
0100
1000
0010
0100
0001
0010
0100
1000
0100
1000
0100
0010
0001
,
0100
0010
0100
0010
0100
0010
1000
0001
0010
0100
1000
0010
0100
0010
0100
0010
,
0100
0001
0100
0001
1000
0100
1000
0100
1000
0001
1000
0001
0100
0001
0100
0001
,
1000
0010
1000
0010
1000
0001
0010
0100
1000
0010
1000
0100
0010
0001
0010
0001
,
0010
0001
0100
0010
1000
0001
0100
0010
1000
0001
0010
0100
0010
0100
1000
0100
,
0010
0001
0010
0001
0010
0001
1000
0001
0100
0010
1000
0010
0100
0010
0100
0010
,
0100
0010
1000
0001
0010
0100
1000
0100
0010
0001
1000
0100
1000
0100
1000
0010
,
0100
0001
0100
0001
1000
0001
1000
0001
0010
0001
0010
0001
0100
0010
0100
0010
,
1000
0010
1000
0010
1000
0100
1000
0100
0001
0100
0001
0100
1000
0100
1000
0100
,
1000
0010
1000
0010
1000
0001
1000
0001
0010
0001
0010
0001
0100
0010
0100
0010
,
1000
0001
0010
0100
1000
0001
0010
0100
0010
0001
0100
0010
0100
0010
1000
0100
,
0010
0001
0010
0001
0010
0001
0010
0001
0010
0001
0010
0001
0010
0100
1000
0001
,
1000
0010
1000
0010
1000
0010
1000
0010
1000
0010
1000
0010
0100
0001
0010
0100
,
1000
0100
0010
0001
0010
0100
1000
0010
1000
0100
0010
0001
0100
0001
1000
0100
,
1000
0010
1000
0001
0100
0001
1000
0100
1000
0001
0100
0010
1000
0001
0010
0100
,
1001
0101
0000
0110
1001
0000
1100
0110
,
0000
0000
0000
0110
0000
0000
1100
0000
0000
1001
0000
0000
0101
0000
0000
0000
0110
0000
0000
0000
1010
0000
0000
0000
,
1000
0000
0001
1000
0001
0000
0001
1000
0100
0000
1000
0100
0010
0000
0001
0100
,
0010
0000
1000
0001
0100
0000
0001
1000
0010
0000
1000
0001
0010
0000
0001
1000
,
0100
0000
0100
0010
0001
0000
1000
0001
0100
0000
0001
0100
0001
0000
0001
0100
,
0001
0000
1000
0001
1000
0000
1000
0001
1000
0000
1000
0001
1000
0000
1000
0001
,
0100
0000
0001
0010
0100
0000
0100
1000
0001
0000
0001
0100
0010
0000
1000
0001
,
0010
0000
0010
0100
0010
0000
0010
0001
0100
0000
0010
1000
0010
0000
1000
0010
,
0100
0000
0100
0010
1000
0000
1000
0010
0100
0000
0100
0001
1000
0000
0100
1000
,
0100
0000
0100
1000
0100
0000
0100
1000
0001
0000
0010
0001
0010
0000
0001
1000
,
1001
0000
0110
0000
0101
0000
0001
0100
0010
0000
1000
0010
0100
0000
0001
0010
,
0100
0000
1000
0100
1000
0000
1000
0001
1000
0000
1000
0010
1000
0000
0001
0100
,
0101
0000
0110
0000
1001
0000
0001
1000
0001
0000
0001
0100
0001
0000
0001
0010
,
0001
0000
0010
0100
0010
0000
0010
0001
0010
0000
0010
0100
0010
0000
0010
0001
,
1001
0000
0101
0000
0110
0000
0010
1000
0010
0000
0010
0100
0010
0000
0010
1000
,
0010
0000
0010
0100
0010
0000
0010
1000
0001
0000
0001
1000
0100
0000
0100
1000
,
1001
0000
1100
0000
0110
0000
0010
0001
0010
0000
0011
0000
0110
0000
0011
0000
,
1001
0000
0010
0100
0010
0000
1010
0000
0110
0000
0000
0101
0000
0000
1100
0000
,
1001
0000
0000
0100
1001
0000
0001
0001
,
1000
0010
0010
0000
1010
0000
1001
0000
,
0101
0000
0001
0000
0000
0000
0010
0100
1000
0000
0000
0000
0001
0000
0000
0000
,
0001
0010
0100
1000
0010
0100
0001
0010
0100
1000
0010
1000
0100
0000
0010
0000
,
0001
0010
0001
0010
0100
0010
0100
0010
0001
1000
0001
1000
0010
0100
0010
0100
,
0001
0100
0001
0100
0010
1000
0010
1000
0001
0010
0001
0010
0100
0010
0100
0010
,
0001
0100
0001
0100
0010
1000
0010
1000
0001
1000
0001
1000
0100
0010
0100
0010
,
0100
0010
0100
0010
0100
0010
0100
0010
0001
1000
0001
0100
0010
0100
0001
1000
,
0100
0010
0100
0010
0100
0010
0100
0010
0100
0010
0100
0010
0001
1000
0001
1000
,
0001
1000
0001
1000
0001
1000
0001
1000
0001
1000
0001
1000
0010
0100
0010
1000
,
0100
0010
0100
1000
0001
1000
0010
0100
0010
0100
0001
1000
0001
1000
0100
0010
,
0100
0010
0001
1000
0001
1000
0100
1000
0100
1000
0010
0100
0010
0100
0001
0100
,
0001
0100
0001
0100
0010
1000
0010
1000
0100
1000
0100
1000
0010
0100
0010
0100
,
0001
1000
0001
1000
0010
0100
0010
0100
0001
0010
0001
0010
0100
1000
0100
1000
,
0010
1000
0010
1000
0001
0100
0001
0100
0010
1000
0010
1000
0100
1000
0100
1000
,
0100
1000
0100
1000
0100
1000
0100
1000
0010
0100
0010
1000
0100
1000
0010
0100
,
0001
0100
0001
0100
0001
0100
0001
0100
0001
0100
0001
0100
0010
1000
0010
1000
,
0010
1000
0010
1000
0010
1000
0010
1000
0010
1000
0010
1000
0100
0010
0001
1000
,
0100
0010
0100
0010
0001
0100
0001
0100
0010
1000
0010
1000
0100
0010
0001
0100
,
0010
0100
0001
1000
0001
1000
0001
1000
0010
0100
0010
1000
0100
1000
0001
0010
,
0011
1001
0000
1100
1001
0000
0101
0110
,
0000
0000
0000
0110
0000
0000
1010
0000
0000
1001
0000
0000
0011
0000
0000
0000
0101
0000
0000
0000
1001
0000
0000
0000
,
1000
0000
0001
1000
0001
0000
0001
0010
0100
0000
1000
0001
0100
0000
0100
0001
,
1000
0000
1000
0001
0010
0000
0010
0001
1000
0000
0001
0100
0010
0000
0010
0100
,
0001
0000
0001
0010
0100
0000
1000
0001
0100
0000
0010
1000
0010
0000
0010
1000
,
0010
0000
0010
0100
0010
0000
0010
0100
0010
0000
0010
0100
0010
0000
0010
0100
,
0110
0000
1001
0000
0110
0000
0100
1000
0001
0000
0001
1000
0100
0000
0010
0001
,
1000
0000
0100
1000
0100
0000
0100
0010
0001
0000
0010
0100
1000
0000
0001
0100
,
0101
0000
1001
0000
1100
0000
0010
0001
0010
0000
0010
0001
0011
0000
0110
0000
,
1100
0000
1000
0001
1000
0000
1010
0000
0110
0000
0000
0101
0000
0000
1001
0000
,
1100
0000
0110
0000
1100
0000
1001
0010
0100
0001
0010
0100
0010
0001
1000
0100
,
1000
0010
0100
0001
0010
0001
0100
0010
1000
0100
1000
0001
0010
0100
1000
0001
,
1001
0000
0011
0000
0110
0000
0011
0100
1000
0001
0010
0100
1001
0000
0101
0000
,
1010
0000
0110
0001
0010
0100
1000
0010
0110
0000
0101
0000
1001
1000
0100
0010
,
1001
0000
0011
0000
0110
0000
1001
0010
0100
0001
0101
0000
0110
0000
1010
0000
,
1001
0000
0101
0010
0100
1000
1100
0000
1010
0000
1001
0000
0101
0010
1000
0100
,
1100
0000
0110
0000
0011
0000
0101
0010
1000
0010
0110
0000
0101
0000
0110
0000
,
1010
0000
0101
0001
0010
0100
1100
0000
0101
0000
1001
0000
0110
0000
0010
0000
,
1001
0010
0000
0100
1100
0000
0100
0100
,
1000
0010
0010
0000
0110
0000
0100
0101
,
1001
0001
0000
0001
0011
0000
0100
0100
,
1000
0001
0001
0000
0101
0000
0110
0000
,
0110
0000
1001
0000
0000
0000
0001
1000
0001
0000
0000
0000
0010
0000
0000
0000
,
0010
0000
0100
1000
0000
0000
0001
0000
0100
0010
0100
0000
0100
0000
0100
0000
,
0001
0010
0001
0010
0100
0010
0100
0010
0001
1000
0001
1000
0010
0100
0010
0100
,
0001
0100
0001
0100
0010
1000
0010
1000
0001
0010
0001
0010
0100
0010
0100
0010
,
0001
0100
0001
0100
0010
1000
0010
1000
0001
1000
0001
1000
0100
0010
0100
0010
,
0100
0010
0100
0010
0100
0010
0100
0010
0001
1000
0001
0100
0010
0100
0001
1000
,
0100
0010
0100
0010
0100
0010
0100
0010
0100
0010
0100
0010
0001
1000
0001
1000
,
0001
1000
0001
1000
0001
1000
0001
1000
0001
1000
0001
1000
0010
0100
0010
1000
,
0001
0100
0001
0100
0010
0100
0010
0100
0001
0010
0001
0010
0100
1000
0010
0100
,
0010
0100
0001
0010
0001
0010
0100
1000
0100
1000
0010
0100
0010
0100
0001
1000
,
0001
0100
0001
0100
0010
1000
0010
1000
0100
1000
0100
1000
0010
0100
0010
0100
,
0001
1000
0001
1000
0010
0100
0010
0100
0001
0010
0001
0010
0100
1000
0100
1000
,
0010
1000
0010
1000
0001
0100
0001
0100
0010
1000
0010
1000
0100
1000
0100
1000
,
0100
1000
0100
1000
0100
1000
0100
1000
0010
0100
0010
1000
0100
1000
0010
0100
,
0001
0100
0001
0100
0001
0100
0001
0100
0001
0100
0001
0100
0010
1000
0010
1000
,
0010
1000
0010
1000
0010
1000
0010
1000
0010
1000
0010
1000
0100
0010
0001
1000
,
0100
0010
0100
0010
0001
0100
0001
0100
0010
1000
0010
1000
0100
0010
0001
0100
,
0010
1000
0001
1000
0001
1000
0001
1000
0010
0100
0010
1000
0100
1000
0001
0010
,
0011
0011
0011
0010
0110
1000
1100
1100
,
0001
0101
0101
0010
0110
0010
1000
0001
,
0011
0110
1100
1000
1100
0010
0110
1001
,
0001
0000
0011
0000
0101
0000
0100
0000
0010
1000
0001
0010
0100
1000
0100
0010
,
1001
1001
1001
1000
1010
0010
1010
1010
,
1000
1001
1001
0001
0011
0010
0100
1000
,
0101
0110
1001
0001
0011
0100
1100
0110
,
0100
0000
1100
0000
1001
0000
0010
0000
1100
0010
0001
1000
0100
0010
0001
0100
,
0101
0101
0101
0100
0110
0010
0101
1001
,
1000
1100
1010
0010
0110
0001
0010
0100
,
1100
1001
0101
0110
0110
0010
0101
1001
,
1000
0000
1010
0000
1100
0000
0010
0000
0011
0000
0001
0010
0100
1000
0001
0010
,
0100
0000
0000
1000
0010
0000
0100
0000
0001
0010
0000
0000
0100
0000
0000
0000
1000
0000
0000
0000
0001
0000
0000
0000
0010
0000
0000
0000
0100
0000
1000
0000
0001
0000
0000
0000
0010
0000
0000
0000
0100
0000
1000
0000
0001
0000
0000
0000
,
0010
0000
0000
0100
1000
0000
0001
0000
0100
0010
0000
0000
0100
0000
0000
0000
0001
0000
0000
0000
1000
0000
0000
0000
0010
0000
0000
1000
0001
0000
0100
0000
0010
1000
0000
0000
0001
0000
0000
0010
0100
0000
1000
0000
0010
0100
0000
0000
,
0001
0000
0000
1000
0010
0000
0100
0000
0001
0010
0000
0000
0001
0000
0000
0000
1000
0000
0000
0000
0001
0000
0000
0000
0010
0000
0000
0000
0100
0000
1000
0000
0001
0000
0000
0000
0100
0000
0000
0000
0010
0000
1000
0000
0001
0000
0000
0000
,
1000
0000
0000
0010
0100
0000
0001
0000
0010
0100
0000
0000
2000
0000
0000
0000
0000
0000
3000
0000
0000
0000
0000
0000
1000
0000
0000
0100
0000
0000
1000
0000
0000
0100
0000
0000
0020
0000
0000
0000
0000
0000
0030
0000
0000
0000
0000
0000
,
0011
0100
1000
0001
0100
0000
0100
0001
0010
0100
1001
0100
0010
0001
0100
0001
,
1000
0010
1000
0010
0100
0001
1000
0001
1000
0100
1000
0100
0010
0001
0010
0001
,
0100
0010
0100
0010
1000
0100
0010
0100
1000
0001
0110
1000
0100
0010
0001
1000
,
0010
1000
0100
0010
0001
0010
0100
1000
0100
0010
0100
1000
0010
0100
0001
1000
,
0100
0000
0000
0010
0001
0000
1000
0000
0010
0100
0000
0000
0001
0000
0000
0000
1000
0000
0000
0000
0010
0000
0000
0000
0100
0000
0000
0000
0001
0000
0010
0000
0100
0000
0000
0000
1000
0000
0000
0000
0001
0000
0010
0000
0100
0000
0000
0000
,
1000
0000
0000
0010
0100
0000
0001
0000
1000
0100
0000
0000
0010
0000
0000
0000
0001
0000
0000
0000
0100
0000
0000
0000
0010
0000
0000
0100
0001
0000
0010
0000
0100
1000
0000
0000
0100
0000
0000
0010
0001
0000
1000
0000
0100
0010
0000
0000
,
0001
0000
0000
0100
0000
0000
0010
0000
1000
0100
0000
0000
0010
0000
0000
0000
0001
0000
0000
0000
0000
0000
0000
0000
0001
0000
0000
0000
0000
0000
0100
0000
0010
0000
0000
0000
1000
0000
0000
0000
0001
0000
1000
0000
0000
0000
0000
0000
,
0100
0000
0000
0010
0000
0000
0001
0000
1000
0010
0000
0000
0100
0000
0000
0000
0010
0000
0000
0000
0000
0000
0000
0000
0010
0000
0000
1000
0000
0000
0010
0000
0100
0010
0000
0000
1000
0000
0000
0000
0100
0000
0000
0000
0000
0000
0000
0000
,
0100
0010
0100
0010
0001
1000
0010
0100
0001
1000
1100
0010
0001
1000
0010
0100
,
0001
0010
0001
0010
0100
1000
0010
0100
0001
0100
0001
0100
0010
1000
0010
1000
,
0001
0010
0001
0010
0100
1000
0001
0100
0010
1000
1100
0010
0001
1000
0010
1000
,
0100
0010
0001
0010
0100
1000
0001
0100
0001
1000
0010
1000
0001
0100
0010
1000
,
1100
1100
1100
0010
0011
0001
1001
1001
,
1000
1001
0101
0100
0110
0001
0010
0100
,
1100
0101
1100
0010
0101
0010
0110
1001
,
0001
0000
0101
0000
0101
0000
1000
0000
1100
0010
0001
1000
0100
0010
0001
1000
,
1100
0011
0110
1000
1100
0001
0101
0110
,
0010
0110
1001
0001
0011
0100
1000
0001
,
0101
1100
0101
0110
1001
0010
0110
0101
,
1000
1100
0110
0001
0011
0010
0001
0100
,
1010
0000
0000
1000
0100
0010
0001
0000
,
1000
0001
0010
0001
1000
0100
0000
0100
,
1000
0002
0023
0230
,
2300
3200
0320
0032
,
1003
0100
1000
0100
0010
0100
0010
0100
1000
0001
1000
0001
0100
0010
0100
0010
,
0100
0010
0100
0010
0100
0010
0100
0010
1000
0001
0010
0001
0010
0001
0100
0010
,
1000
0100
1000
0100
1000
0100
1000
0100
1000
0100
1000
0100
0010
0001
0010
0001
,
0010
0001
0010
0001
0010
0001
0010
0001
0010
0001
0010
0001
0100
0010
1000
0001
,
0010
0100
1000
0100
1000
0100
0010
0001
0010
0001
0100
0010
0100
0010
1000
0010
,
1000
0010
0100
0001
0100
0001
0010
0100
0010
0100
1000
0100
1000
0100
0010
0100
,
0010
0100
0010
0100
1000
0010
1000
0010
0100
0001
0100
0001
0010
0100
0010
0100
,
1000
0100
1000
0100
0010
0001
0010
0001
0100
0010
0100
0010
1000
0001
1000
0001
,
0010
0001
0010
0001
0100
0010
0100
0010
1000
0001
1000
0001
0010
0001
0010
0001
,
0010
0001
0010
0001
0010
0001
0010
0001
0100
0010
0100
0001
0010
0001
0100
0010
,
1000
0010
1000
0010
1000
0010
1000
0010
1000
0010
1000
0010
0100
0001
0100
0001
,
0100
0001
0100
0001
0100
0001
0100
0001
0100
0001
0100
0001
0010
0100
1000
0001
,
0100
0010
0100
0010
1000
0010
1000
0010
0100
0001
0100
0001
0010
0100
1000
0100
,
0010
0001
0010
0001
0010
0001
1000
0010
1000
0001
0100
0001
0010
0100
1000
0100
,
1100
0110
1001
0001
0101
0100
0110
0101
,
0010
0000
1010
0000
1100
0000
0001
0000
1100
0010
0001
0100
0010
1000
0100
0000
;
