#TITLE:Electro Fantasy;
#SUBTITLE:;
#ARTIST:Beautiful Day;
#TITLETRANSLIT:;
#SUBTITLETRANSLIT:;
#ARTISTTRANSLIT:;
#CREDIT:;
#BANNER:Electro Fantasy.png;
#BACKGROUND:Electro Fantasy-bg.png;
#LYRICSPATH:;
#CDTITLE:NVLM-cdtitle.png;
#MUSIC:Electro Fantasy.mp3;
#OFFSET:-3.523;
#SAMPLESTART:13.807;
#SAMPLELENGTH:12.000;
#SELECTABLE:YES;
#BPMS:0.000=140.000;
#STOPS:;
#BGCHANGES:;
// cache tags:
#FIRSTBEAT:0.000;
#LASTBEAT:291.000;
#SONGFILENAME:Songs/toune 8/Electro Fantasy/Electro Fantasy.sm;
#HASMUSIC:1;
#HASBANNER:1;
#MUSICLENGTH:131.761;
// end cache tags

//---------------dance-single - ----------------
#NOTES:
     dance-single:
     :
     Hard:
     9:
     0.563,0.497,0.190,0.288,0.258,456.000,25.000,38.000,0.000,0.000:  // measure 1
0000
0000
0000
0000
,  // measure 2
0000
0000
0000
0000
,  // measure 3
1000
0100
0010
0001
1000
0100
0010
0001
,  // measure 4
0001
0010
0100
1000
0001
0010
0100
1000
,  // measure 5
1000
0100
0010
0001
1000
0100
0010
0001
,  // measure 6
0001
0010
0100
1000
0001
0010
0100
1000
,  // measure 7
0000
0001
0100
0001
0000
0010
0100
1000
0000
0000
1000
0000
0100
0000
0000
0000
,  // measure 8
0000
0010
0001
0010
0000
0100
1000
0001
0000
0000
0001
0000
0100
0000
0000
0000
,  // measure 9
1000
0001
0100
1000
0100
0010
1000
0001
,  // measure 10
0010
0100
1000
0010
0001
0010
0100
1000
,  // measure 11
0000
0001
0100
0001
0000
0010
0100
1000
0000
0000
1000
0000
0010
0000
0000
0000
,  // measure 12
0000
0100
0001
0100
0000
0001
0010
0100
0000
0000
1000
0000
0100
0000
0000
0000
,  // measure 13
0010
0001
0010
1000
0100
0001
0100
1000
,  // measure 14
0010
0100
0001
0010
0100
1000
0010
0100
,  // measure 15
0001
1000
0000
0000
0100
1000
0000
0000
0010
1000
0000
0000
0001
1000
0000
0000
,  // measure 16
0100
0001
0000
0000
0010
0001
0000
0000
1000
0001
0000
0000
0100
0001
0000
0000
,  // measure 17
0010
0100
0000
0000
1000
0100
0000
0000
0001
0100
0000
0000
0010
0100
0000
0000
,  // measure 18
1000
0010
0000
0000
0100
0010
0000
0000
0001
0010
0000
0000
1000
0010
0000
0000
,  // measure 19
0100
0001
0000
0000
0100
1000
0000
0000
0100
0010
0000
0000
0100
0001
0000
0000
,  // measure 20
0010
1000
0000
0000
0010
0100
0000
0000
0010
0001
0000
0000
0010
0100
0000
0000
,  // measure 21
0001
0010
0000
0000
0001
0100
0000
0000
0001
1000
0000
0000
0001
0100
0000
0000
,  // measure 22
1000
0010
0000
0000
1000
0100
0000
0000
1000
0001
0000
0000
1000
0010
0000
0000
,  // measure 23
0100
0001
0000
0000
0001
0010
0000
0000
0010
1000
0000
0000
1000
0100
0000
0000
,  // measure 24
0100
0010
0000
0000
0010
0001
0000
0000
0001
1000
0000
0000
1000
0010
0000
0000
,  // measure 25
0010
0100
0000
0000
0100
0001
0000
0000
0001
1000
0000
0000
1000
0100
0000
0000
,  // measure 26
0100
0010
0000
0000
0010
0001
0000
0000
0001
1000
0000
0000
1000
0100
0000
0000
,  // measure 27
1001
0100
0010
1000
0010
0001
0100
0010
,  // measure 28
1000
0001
0010
0100
0001
0100
0010
1000
,  // measure 29
0100
0001
0100
1000
0010
0100
0001
0010
,  // measure 30
0100
0001
0001
1000
0100
0010
0001
0100
,  // measure 31
1000
0100
0010
1000
0001
0100
0010
0001
,  // measure 32
0010
1000
0100
0001
0100
1000
0100
0010
,  // measure 33
1000
0010
0001
0010
0100
0001
0100
1000
,  // measure 34
0010
0100
0001
1000
0100
0010
1000
0010
,  // measure 35
0010
0001
0100
0010
1000
1000
0100
0001
,  // measure 36
0010
1000
0100
1000
0001
0010
0100
1000
,  // measure 37
2002
0000
0000
0000
,  // measure 38
0000
0000
0000
3003
,  // measure 39
0110
1010
1100
0101
,  // measure 40
1001
1010
0110
0101
,  // measure 41
0012
1000
0100
0013
,  // measure 42
2000
0100
0010
3001
,  // measure 43
0100
0010
0100
0000
0001
0010
0100
0000
,  // measure 44
1000
0100
0001
0000
0001
0100
1000
0000
,  // measure 45
0002
0000
0010
0000
0103
0010
1000
0100
,  // measure 46
0020
1000
0032
0100
,  // measure 47
0023
0230
2300
3020
,  // measure 48
0230
0001
0302
0010
,  // measure 49
2003
0000
0100
0000
3010
0001
0100
0010
,  // measure 50
2000
3002
0023
0230
,  // measure 51
2300
0010
3002
0100
,  // measure 52
0023
0000
0100
0000
1030
0000
1001
0100
,  // measure 53
0020
1000
0032
0100
,  // measure 54
2003
0000
0010
0000
3100
0010
0001
0100
,  // measure 55
0020
0001
2030
0100
,  // measure 56
3002
1000
0203
0010
,  // measure 57
2300
0000
0001
0000
3010
0100
0100
0001
,  // measure 58
0020
0230
2300
3002
,  // measure 59
0203
1000
0320
0001
,  // measure 60
2030
0000
0100
0000
0001
0100
3010
0000
,  // measure 61
1000
0100
0001
0100
1000
0100
0001
0100
,  // measure 62
1000
0010
0001
0010
1000
0010
0001
0010
,  // measure 63
0100
0001
0100
1000
0100
0001
0100
1000
,  // measure 64
0010
0001
0010
1000
0010
0001
0010
0100
,  // measure 65
1000
0001
1010
0000
0001
1000
0101
0000
,  // measure 66
0010
1000
0110
0000
0001
1000
0011
0000
,  // measure 67
1000
0001
1100
0000
0010
0001
1001
0000
,  // measure 68
0010
0100
0011
0000
1000
0100
1001
0000
,  // measure 69
0010
0100
0011
0000
1000
0100
1001
0000
,  // measure 70
0010
0100
1001
0000
0010
0001
1001
0000
,  // measure 71
0100
0000
0010
0000
0100
0000
0010
0000
1000
0001
1000
0001
1000
0001
1000
0001
,  // measure 72
2002
0000
0000
0000
,  // measure 73
0000
0000
0000
3003
;

//---------------dance-single - ----------------
#NOTES:
     dance-single:
     :
     Challenge:
     11:
     0.754,0.856,0.448,0.319,0.596,594.000,59.000,42.000,0.000,0.000:  // measure 1
2200
0000
0000
3300
,  // measure 2
0022
0000
0000
0033
,  // measure 3
1000
0100
0001
0000
0001
0100
1000
0000
0010
0100
0001
0000
0001
0010
0100
0000
,  // measure 4
0100
1000
0001
0000
1000
0100
0010
0000
0001
0010
0100
0000
1000
0001
0010
0000
,  // measure 5
0100
1000
0010
0000
1000
0100
0010
0000
0001
0100
1000
0000
1000
0100
0001
0000
,  // measure 6
0010
0100
1000
0000
1000
0001
0010
0000
0100
1000
0001
0000
0001
0100
0010
0000
,  // measure 7
0000
0001
0100
0001
0100
0010
1000
0010
1000
0100
1000
0100
0010
0001
0010
0001
,  // measure 8
0000
1000
0001
1000
0001
1000
0100
0010
0100
0010
0001
0100
0001
0100
0001
1000
,  // measure 9
0100
0010
0001
0000
0001
0100
0001
0000
1000
0100
1000
0000
1000
0010
1000
0000
,  // measure 10
0010
0100
0001
0000
0001
0010
0001
0000
0100
0010
1000
0000
1000
0100
1000
0000
,  // measure 11
0000
0001
0100
0001
1000
0100
1000
0100
0010
0001
0010
0001
1000
0010
1000
0010
,  // measure 12
0000
0100
0001
0100
0001
0010
0100
0010
0100
0010
0100
1000
0001
1000
0001
1000
,  // measure 13
0100
0010
0001
0000
0001
0100
1000
0000
1000
0100
0001
0000
0001
0010
0100
0000
,  // measure 14
1000
0100
0010
0000
0001
1000
0100
0000
1000
0010
1000
0000
0001
0010
0100
0000
,  // measure 15
1000
0100
0000
0100
0010
0001
0000
0001
0100
0010
0000
0010
1000
0100
0000
0100
,  // measure 16
0010
0001
0000
0001
1000
0010
0000
0010
0100
1000
0000
1000
0100
0001
0000
0001
,  // measure 17
0010
0100
0000
0100
1000
0010
0000
0010
0100
0001
0000
0001
1000
0100
0000
1000
,  // measure 18
0010
0100
0000
0001
0010
0100
0000
1000
0100
0010
0000
0001
1000
0001
0000
0010
,  // measure 19
0100
1000
0000
1000
0100
0010
0000
0001
0100
1000
0000
1000
0100
0010
0000
0001
,  // measure 20
1000
0100
0000
1000
0010
0001
0000
0001
0010
1000
0000
1000
0100
0010
0000
0001
,  // measure 21
0010
0100
0000
1000
0001
1000
0000
0001
0010
0100
0000
0100
1000
0010
0000
1000
,  // measure 22
0100
1000
0000
0001
0010
0100
0000
0100
1000
0010
0000
0010
0100
0001
0010
0000
,  // measure 23
1100
1000
0000
0000
0001
0100
0000
0000
0010
1000
0000
0000
0100
0001
0000
0000
,  // measure 24
0010
0100
0000
0000
1000
0010
0000
0000
0001
0010
0000
0000
0100
1000
0000
0000
,  // measure 25
0100
0001
0000
0000
1000
0100
0000
0000
0010
0100
0000
0000
0001
1000
0000
0000
,  // measure 26
0100
1000
0000
0000
0010
0100
0000
0000
0001
0010
0000
0000
0100
1000
0000
0000
,  // measure 27
1000
0010
1001
0100
0010
1000
0110
0001
,  // measure 28
0100
0010
1100
1000
0001
0100
0011
1000
,  // measure 29
0100
0010
1001
0100
1000
0010
0101
0010
,  // measure 30
1000
0100
0011
0001
0100
0010
1001
0100
,  // measure 31
0010
1000
0110
0001
0100
1000
0011
0100
,  // measure 32
0001
1000
0110
1000
0001
0100
1010
0001
,  // measure 33
0010
0100
1001
0100
0010
1000
0011
0100
,  // measure 34
0001
1000
0110
1000
1000
0100
0011
0001
,  // measure 35
0100
0010
1100
1000
0001
0100
0011
1000
,  // measure 36
0100
0010
1100
0001
0010
0100
1001
0100
,  // measure 37
2002
0000
0000
0000
,  // measure 38
0000
0000
0000
3003
,  // measure 39
0011
1001
1010
0110
,  // measure 40
0101
0011
0110
1100
,  // measure 41
2000
0100
0000
3010
,  // measure 42
0002
0100
0000
0013
,  // measure 43
1000
0100
0011
0000
0001
0010
1100
0000
,  // measure 44
1000
0100
0011
0000
0001
0010
1100
0000
,  // measure 45
1002
0000
0100
0000
0010
0000
0000
0000
0103
1000
0010
0000
1000
0000
0001
0000
,  // measure 46
0120
0000
1000
0000
0032
0000
0100
1000
,  // measure 47
0023
0100
0230
1000
2300
0010
3020
0100
,  // measure 48
0230
0000
0001
0000
0302
0000
0010
0100
,  // measure 49
2003
0000
0000
0000
0100
0000
0000
0000
3010
0100
0001
0000
0100
0000
0010
0000
,  // measure 50
2100
0001
3002
0010
0023
0100
0230
1000
,  // measure 51
2300
0000
0010
0100
3002
0000
0100
0000
,  // measure 52
0023
0000
0100
1000
1030
0000
1001
0100
,  // measure 53
0120
0000
1000
0000
0032
0000
0100
0010
,  // measure 54
2003
0000
0010
0000
3100
0010
0001
0100
,  // measure 55
0120
0000
0001
0100
2030
0000
0100
0010
,  // measure 56
3002
0000
1000
0010
0203
0000
0010
0000
,  // measure 57
2300
0000
0000
0000
0001
0000
0000
0000
3010
0001
0100
0010
0100
0000
0001
0000
,  // measure 58
0020
0100
0230
1000
2300
0001
3002
0100
,  // measure 59
0203
0000
1000
0001
0320
0000
0001
0100
,  // measure 60
2030
0000
0000
0000
0100
0000
0000
0000
0001
0000
0100
0000
3010
0001
0010
0001
,  // measure 61
0010
0000
1000
0000
0100
0000
0001
0000
0010
0000
0100
0000
1000
0001
0010
0000
,  // measure 62
0100
0000
0001
0000
1000
0000
0100
0000
0001
0000
0100
0000
0010
0100
1000
0000
,  // measure 63
0001
0000
0010
0000
0100
0000
0001
0000
1000
0000
0100
0000
0010
0001
1000
0000
,  // measure 64
0001
0000
0010
0000
0100
0000
0001
0000
1000
0000
0100
0000
0010
0100
0001
0000
,  // measure 65
1000
0010
0110
1000
0001
0100
0011
1000
,  // measure 66
0010
0100
0101
1000
0010
0001
1001
0100
,  // measure 67
0010
1000
0101
0010
1000
0100
1001
0010
,  // measure 68
0100
0001
1001
0100
0010
1000
0101
0010
,  // measure 69
1000
0001
0110
1000
0100
0010
1001
0010
,  // measure 70
0100
0001
1010
0100
0001
0010
0110
1000
,  // measure 71
1100
0000
0011
0000
1100
0000
0011
0000
1000
0001
1000
0001
1000
0001
1000
0001
,  // measure 72
2002
0000
0000
0000
,  // measure 73
0000
0000
0000
3003
;

//---------------dance-single - ----------------
#NOTES:
     dance-single:
     :
     Medium:
     7:
     0.421,0.469,0.205,0.524,0.000,292.000,27.000,69.000,0.000,0.000:  // measure 1
0000
0000
0000
0000
,  // measure 2
0000
0000
0000
0000
,  // measure 3
1000
0001
0000
0001
,  // measure 4
0010
0100
0000
0100
,  // measure 5
1000
0010
0000
0010
,  // measure 6
0100
0001
0000
0001
,  // measure 7
0000
1000
0100
1000
0010
0100
0001
0001
,  // measure 8
0000
0010
1000
0100
1000
0001
0010
0010
,  // measure 9
0100
0000
1000
0000
0001
0010
0010
0000
,  // measure 10
0100
0000
1000
0000
0010
0100
0100
0000
,  // measure 11
0000
1000
0001
1000
0010
0100
0100
0001
,  // measure 12
0000
1000
0100
0010
0001
1000
0010
1000
,  // measure 13
0100
0000
0010
0000
0001
1000
0001
0000
,  // measure 14
0100
0000
0010
0000
1000
0100
1000
0000
,  // measure 15
0020
0230
0302
2003
,  // measure 16
3200
0302
0203
2300
,  // measure 17
3020
0230
0302
0023
,  // measure 18
2030
3020
0032
0203
,  // measure 19
0320
2030
3200
0302
,  // measure 20
0203
0320
2030
3020
,  // measure 21
0032
0203
0320
2030
,  // measure 22
3002
0023
0230
2300
,  // measure 23
3010
0010
0010
0010
,  // measure 24
0100
0100
0100
0100
,  // measure 25
0001
0001
0001
0001
,  // measure 26
1000
1000
1000
1000
,  // measure 27
0010
0100
0001
0000
1000
0100
0010
0000
,  // measure 28
0001
0100
1000
0000
1000
0100
0001
0000
,  // measure 29
0010
0100
1000
0000
1000
0100
0010
0000
,  // measure 30
1000
0001
0010
0000
0010
0001
1000
0000
,  // measure 31
0100
0010
0001
0000
0001
0010
0100
0000
,  // measure 32
0100
1000
0001
0000
0001
0100
1000
0000
,  // measure 33
1000
0100
0001
0000
0001
0010
0100
0000
,  // measure 34
0100
1000
0010
0000
0010
0100
0001
0000
,  // measure 35
0001
1000
0100
0000
0100
0010
0001
0000
,  // measure 36
0001
1000
0100
0000
0100
1000
0010
0000
,  // measure 37
2002
0000
0000
0000
,  // measure 38
0000
0000
0000
3003
,  // measure 39
0110
1001
0110
1001
,  // measure 40
0011
0110
1100
1001
,  // measure 41
0000
0010
0000
0010
,  // measure 42
0000
0100
0000
0100
,  // measure 43
1000
1001
0010
1100
,  // measure 44
1000
0011
0100
1001
,  // measure 45
0102
0000
0000
0000
0103
0010
1000
0100
,  // measure 46
0020
0000
0032
0000
,  // measure 47
0023
0230
2300
3020
,  // measure 48
0230
0000
0302
0000
,  // measure 49
2003
0000
0000
0000
3100
0010
0001
0100
,  // measure 50
0020
2030
3200
0320
,  // measure 51
0032
0000
0203
0000
,  // measure 52
0320
0000
0000
0000
0000
0000
0030
1000
,  // measure 53
0200
0000
0320
0000
,  // measure 54
0032
0000
2003
0000
3100
0010
0001
0100
,  // measure 55
0020
0000
2030
0000
,  // measure 56
3002
0000
0203
0000
,  // measure 57
0320
0000
0000
0000
1030
0100
0010
0001
,  // measure 58
0200
0320
2030
3002
,  // measure 59
0203
0000
0320
0000
,  // measure 60
2030
0000
0000
3000
,  // measure 61
0010
0100
0010
0000
1000
0000
0100
0000
,  // measure 62
0010
0001
0010
0000
0001
0000
1000
0000
,  // measure 63
0100
1000
0100
0000
0010
0000
0001
0000
,  // measure 64
1000
0010
1000
0000
0001
0000
0010
0000
,  // measure 65
0100
1001
1000
0110
,  // measure 66
0001
0011
0100
1001
,  // measure 67
1000
1100
0010
1001
,  // measure 68
0001
0110
1000
1100
,  // measure 69
0010
1001
1000
0110
,  // measure 70
0001
0011
0100
1001
,  // measure 71
0001
0010
0001
0010
0100
1000
0100
1000
,  // measure 72
2002
0000
0000
0000
,  // measure 73
0000
0000
0000
3003
;

//---------------dance-single - ----------------
#NOTES:
     dance-single:
     :
     Easy:
     4:
     0.301,0.497,0.243,0.205,0.000,219.000,32.000,27.000,0.000,0.000:  // measure 1
0000
0000
0000
0000
,  // measure 2
0000
0000
0000
0000
,  // measure 3
1000
0000
0000
0000
,  // measure 4
0001
0000
0000
0000
,  // measure 5
0010
0000
0000
0000
,  // measure 6
0200
0000
0000
0300
,  // measure 7
0000
1000
0100
0110
,  // measure 8
0000
0001
1000
1100
,  // measure 9
0010
0001
0010
0100
,  // measure 10
1000
0001
0100
0010
,  // measure 11
0000
1000
0001
0101
,  // measure 12
0000
1000
0010
0110
,  // measure 13
0001
1000
0001
0010
,  // measure 14
0100
1000
0010
0100
,  // measure 15
2000
0001
0001
3001
,  // measure 16
0020
0100
0100
0130
,  // measure 17
0002
0010
0010
0013
,  // measure 18
0200
1000
1000
1300
,  // measure 19
0020
0001
0001
0031
,  // measure 20
2000
0010
0010
3010
,  // measure 21
0200
0001
0001
0301
,  // measure 22
0020
0100
0100
0130
,  // measure 23
1000
0000
1000
0000
,  // measure 24
0100
0000
0100
0000
,  // measure 25
0010
0000
0010
0000
,  // measure 26
0001
0000
0001
0000
,  // measure 27
0100
0010
1000
1100
,  // measure 28
0001
0100
0010
1010
,  // measure 29
1000
0001
0010
0110
,  // measure 30
1000
0010
0001
0101
,  // measure 31
0010
1000
0100
0110
,  // measure 32
0001
1000
0010
0011
,  // measure 33
0100
0010
1000
1001
,  // measure 34
0010
0100
1000
1010
,  // measure 35
0100
0001
0010
0110
,  // measure 36
1000
0001
0010
0110
,  // measure 37
2002
0000
0000
0000
,  // measure 38
0000
0000
0000
3003
,  // measure 39
0110
1010
0110
0101
,  // measure 40
0110
1100
0110
0011
,  // measure 41
1002
0000
0000
0003
,  // measure 42
0020
0000
0000
0030
,  // measure 43
0000
1000
0000
1000
,  // measure 44
0000
0100
0000
0100
,  // measure 45
0020
0001
0031
0100
,  // measure 46
0110
1000
0001
0010
,  // measure 47
0100
1000
0100
0010
,  // measure 48
0002
0000
2003
0000
,  // measure 49
3010
0100
0001
0010
,  // measure 50
0100
1000
0010
0100
,  // measure 51
0002
0000
0023
0000
,  // measure 52
0230
0000
0000
0300
,  // measure 53
1000
0100
0010
0001
,  // measure 54
0001
0010
0100
1000
,  // measure 55
2000
0000
3020
0000
,  // measure 56
0230
0000
0000
0300
,  // measure 57
0001
0010
0100
1000
,  // measure 58
1000
0100
0010
0001
,  // measure 59
0200
0000
0320
0000
,  // measure 60
2030
0000
0000
3000
,  // measure 61
0010
0100
0001
1000
,  // measure 62
0010
0100
0001
1000
,  // measure 63
0010
0100
0001
1000
,  // measure 64
0010
0100
0001
1000
,  // measure 65
0100
0010
0001
1001
,  // measure 66
0010
0100
0001
1001
,  // measure 67
1000
0010
0100
0101
,  // measure 68
0001
0010
1000
1100
,  // measure 69
0100
0010
0001
1001
,  // measure 70
0100
0010
1000
1100
,  // measure 71
0010
0010
0010
0010
,  // measure 72
2002
0000
0000
0000
,  // measure 73
0000
0000
0000
3003
;

//---------------dance-double - ----------------
#NOTES:
     dance-double:
     :
     Hard:
     9:
     0.548,0.497,0.448,0.197,0.000,420.000,59.000,26.000,0.000,0.000:  // measure 1
00000000
00000000
00000000
00000000
,  // measure 2
00000000
00000000
00000000
00000000
,  // measure 3
01000000
00010000
00001000
00000000
00000100
00000010
00000001
00000000
,  // measure 4
00000010
00000100
00001000
00000000
00010000
00100000
01000000
00000000
,  // measure 5
10000000
00100000
00010000
00000000
00100000
00010000
00001000
00000000
,  // measure 6
00000100
00000010
00010000
00000000
00001000
00010000
00100000
00000000
,  // measure 7
00000000
01000000
10000000
01000000
00010000
00001000
00000100
00000020
,  // measure 8
00000000
00000031
00000100
00001000
00010000
00100000
01000000
20000000
,  // measure 9
00100000
30100000
01000000
00001000
00010000
00001000
00000100
00000010
,  // measure 10
00000001
00000100
00001000
00010000
00100000
01000000
10000000
00200000
,  // measure 11
00000000
01300000
00010000
00001000
00000100
00000010
00000001
00002000
,  // measure 12
00000000
00013000
00100000
01000000
10000000
00100000
00010000
00002000
,  // measure 13
00000100
00003100
00000010
00000001
00000100
00001000
00010000
00100000
,  // measure 14
01000000
10000000
00100000
00010000
00001000
00000100
00000010
00000001
,  // measure 15
00001001
00001100
00010100
00011000
,  // measure 16
00101000
00110000
01010000
01100000
,  // measure 17
10100000
11000000
01100000
00101000
,  // measure 18
00011000
00010100
00001100
00001010
,  // measure 19
00000110
00000101
00001001
00001100
,  // measure 20
00010100
00011000
00101000
00110000
,  // measure 21
01010000
01100000
10100000
10010000
,  // measure 22
00110000
00101000
00011000
00010100
,  // measure 23
00002000
00003020
00000230
00002300
,  // measure 24
00023000
00230000
02300000
23000000
,  // measure 25
30200000
00320000
00032000
00003200
,  // measure 26
00000320
00000032
00000203
00001300
,  // measure 27
00011000
00100000
01000000
10000000
00100000
00010000
00001000
00000010
,  // measure 28
00000001
00000100
00000001
00000010
00001000
00010000
00100000
01000000
,  // measure 29
10000000
00100000
00010000
00001000
00010000
01000000
00100000
00010000
,  // measure 30
00001000
00000100
00000010
00001000
00000010
00000001
00000100
00001000
,  // measure 31
00000100
00000010
00010000
00001000
00010000
00100000
01000000
10000000
,  // measure 32
00100000
00010000
00001000
00000100
00001000
00010000
01000000
00100000
,  // measure 33
10000000
01000000
10000000
00010000
01000000
00100000
00010000
00001000
,  // measure 34
00000010
00000001
00000010
00000100
00001000
00010000
00100000
01000000
,  // measure 35
00010000
00001000
00000100
00000001
00000100
00001000
00010000
00100000
,  // measure 36
01000000
10000000
00100000
00010000
00001000
00000100
00000010
00000001
,  // measure 37
00002002
00000000
00000000
00000000
,  // measure 38
00000000
00000000
00000000
00003003
,  // measure 39
00000110
00001010
00001100
00011000
,  // measure 40
00110000
10100000
11000000
01010000
,  // measure 41
00020000
00001000
00000100
00031000
,  // measure 42
00000020
00000100
00001000
00010030
,  // measure 43
00100000
01100000
10000000
00110000
,  // measure 44
00001000
00000110
00000001
00001001
,  // measure 45
00000100
00001000
00010000
00100000
01000000
10000000
00100000
00000000
,  // measure 46
01000000
00010000
00001000
00000100
00000010
00000001
00000100
00000000
,  // measure 47
00001000
00010000
00001000
00100000
00010000
01000000
00100000
00000000
,  // measure 48
10000000
01000000
00010000
00001000
00000100
00000010
00000001
00000000
,  // measure 49
00000100
00001000
00010000
00100000
01000000
10000000
00100000
00000000
,  // measure 50
00010000
00001000
00000100
00000010
00001000
00010000
00100000
00000000
,  // measure 51
01000000
10000000
00100000
00010000
00001000
00000100
00000010
00000000
,  // measure 52
00000001
00001000
00000100
00010000
00001000
00010000
00100000
00000000
,  // measure 53
01000000
10000000
01000000
00100000
00001000
00010000
00001000
00000000
,  // measure 54
00000100
00000010
00000001
00000100
00001000
00010000
00100000
00000000
,  // measure 55
01000000
10000000
00010000
01000000
00100000
00010000
00001000
00000000
,  // measure 56
00000100
00000010
00000100
00001000
00010000
00000010
00000100
00000000
,  // measure 57
00001000
00010000
00100000
01000000
10000000
00100000
00010000
00000000
,  // measure 58
01000000
00010000
00001000
00000010
00000001
00000010
00000100
00000000
,  // measure 59
00001000
00010000
00100000
01000000
10000000
00100000
00010000
00000000
,  // measure 60
01000000
00001000
00010000
00000100
00000010
00000001
00000100
00000000
,  // measure 61
00001000
00010000
00001000
00100000
00001000
00010000
00001000
00100000
,  // measure 62
00010000
01000000
00010000
00001000
00010000
01000000
00010000
00001000
,  // measure 63
00100000
01000000
00100000
00010000
00100000
01000000
00100000
00010000
,  // measure 64
00001000
00000100
00001000
00000010
00001000
00000100
00001000
00000010
,  // measure 65
00000100
00000000
00000110
00000000
00000001
00001000
00001100
00000000
,  // measure 66
00010000
00000000
00101000
00000000
00010000
01000000
01100000
00000000
,  // measure 67
10000000
00000000
11000000
00000000
00100000
00010000
00011000
00000000
,  // measure 68
00000100
00000000
00000011
00000000
00000001
00000100
00001100
00000000
,  // measure 69
00001000
00000000
00110000
00000000
00100000
01000000
11000000
00000000
,  // measure 70
10000000
00000000
00110000
00000000
00010000
00001000
00001100
00000000
,  // measure 71
00000100
00000010
00000100
00000001
00000010
00000100
00001000
00010000
,  // measure 72
02200000
00000000
00000000
00000000
,  // measure 73
00000000
00000000
00000000
03300000
;

//---------------dance-double - ----------------
#NOTES:
     dance-double:
     :
     Challenge:
     10:
     0.675,0.690,0.516,0.083,0.342,544.000,68.000,11.000,0.000,0.000:  // measure 1
00000000
00000000
00000000
00000000
,  // measure 2
00000000
00000000
00000000
00000000
,  // measure 3
01000000
00000000
00010000
00000000
00001000
00000100
00000000
00001000
00000100
00000000
00000010
00000000
00000001
00001000
00000000
00000001
,  // measure 4
00000010
00000000
00000100
00000000
00001000
00010000
00000000
00001000
00010000
00000000
00100000
00000000
01000000
10000000
00000000
01000000
,  // measure 5
10000000
00000000
00100000
00000000
00010000
00001000
00000000
00010000
00100000
00000000
00010000
00000000
00001000
00000100
00000000
00001000
,  // measure 6
00000100
00000000
00000010
00000000
00010000
00001000
00000000
00100000
00001000
00000000
00010000
00000000
00100000
01000000
00000000
00000000
,  // measure 7
00000000
00000000
01000000
00100000
10000000
00000000
01000000
00100000
00010000
00000000
00001000
00010000
00000100
00000000
00000120
00000000
,  // measure 8
00000000
00000000
00000031
00000000
00000100
00000001
00001000
00000100
00010000
00001000
00100000
00010000
01000000
00000000
21000000
00000000
,  // measure 9
00100000
00000000
30100000
00000000
01000000
00010000
00001000
00000000
00010000
00000000
00001000
00010000
00000100
00000000
00000010
00000000
,  // measure 10
00000001
00000010
00000100
00000000
00001000
00000000
00010000
00001000
00100000
00000000
01000000
00000000
10000000
01000000
00200000
00000000
,  // measure 11
00000000
00000000
01300000
10000000
00010000
01000000
00001000
00000000
00000100
00001000
00000010
00000000
00000001
00000000
00002001
00000000
,  // measure 12
00000000
00000000
00013000
00000000
00100000
00010000
01000000
00100000
10000000
01000000
00100000
00000000
00010000
00000000
00012000
00000000
,  // measure 13
00000100
00000000
00003100
00000000
00000010
00000100
00000001
00001000
00000100
00000000
00001000
00000000
00010000
01000000
00100000
10000000
,  // measure 14
01000000
00000000
10000000
01000000
00100000
00000000
00010000
00000000
00001000
00000000
00000100
00000000
00000010
00000000
00000001
00000000
,  // measure 15
00001001
00000000
00000000
00001000
00000100
00000000
00000000
00000000
00010100
00000000
00000000
00010000
00001000
00000000
00000000
00000000
,  // measure 16
00101000
00000000
00000000
00100000
00010000
00000000
00000000
00000000
01010000
00000000
00000000
01000000
00100000
00000000
00000000
00000000
,  // measure 17
10100000
00000000
00000000
10000000
01000000
00000000
00000000
00000000
01100000
00000000
00000000
00100000
00001000
00000000
00000000
00000000
,  // measure 18
00011000
00000000
00000000
00010000
00000100
00000000
00000000
00000000
00001100
00000000
00000000
00001000
00000010
00000000
00000000
00000000
,  // measure 19
00000110
00000000
00000000
00000100
00000001
00000000
00000000
00000000
00001001
00000000
00000000
00001000
00000100
00000000
00000000
00000000
,  // measure 20
00010100
00000000
00000000
00010000
00001000
00000000
00000000
00000000
00101000
00000000
00000000
00100000
00010000
00000000
00000000
00000000
,  // measure 21
01010000
00000000
00000000
01000000
00100000
00000000
00000000
00000000
10100000
00000000
00000000
10000000
00010000
00000000
00000000
00000000
,  // measure 22
00110000
00000000
00000000
00100000
00001000
00000000
00000000
00000000
00011000
00000000
00000000
00010000
00000100
00000000
00000000
00000000
,  // measure 23
00001000
00000010
00000000
00000000
00000010
00000100
00000000
00000000
00000100
00001000
00000000
00000000
00001000
00010000
00000000
00000000
,  // measure 24
00010000
00100000
00000000
00000000
00100000
01000000
00000000
00000000
01000000
10000000
00000000
00000000
10000000
00100000
00000000
00000000
,  // measure 25
00100000
00010000
00000000
00000000
00010000
00001000
00000000
00000000
00001000
00000100
00000000
00000000
00000100
00000010
00000000
00000000
,  // measure 26
00000010
00000001
00000000
00000000
00000001
00000100
00000000
00000000
00000100
00001000
00000000
00000000
00001000
00010000
00000000
00000000
,  // measure 27
00011000
00100000
01000000
10000000
00100000
00010000
00001100
00000010
,  // measure 28
00000001
00000100
00000001
00000010
00001000
00010000
00110000
01000000
,  // measure 29
10000000
00100000
00010000
00001000
00010000
01000000
10100000
00010000
,  // measure 30
00001000
00000100
00000010
00001000
00000010
00000001
00000101
00001000
,  // measure 31
00000100
00000010
00010000
00001000
00010000
00100000
01100000
10000000
,  // measure 32
00100000
00010000
00001000
00000100
00001000
00010000
01100000
00100000
,  // measure 33
10000000
01000000
10000000
00010000
01000000
00100000
00110000
00001000
,  // measure 34
00000010
00000001
00000010
00000100
00001000
00010000
01100000
01000000
,  // measure 35
00010000
00001000
00000100
00000001
00000100
00001000
00011000
00100000
,  // measure 36
01000000
10000000
00100000
00010000
00001000
00000100
00000110
00000001
,  // measure 37
00002002
00000000
00000000
00000000
,  // measure 38
00000000
00000000
00000000
00003003
,  // measure 39
00000110
00000001
00001010
00000000
00001100
00010000
00011000
00000000
,  // measure 40
00110000
01000000
10100000
00000000
11000000
00100000
01010000
00000000
,  // measure 41
00020010
00001000
00000100
00031000
,  // measure 42
00000120
00000100
00001000
00010030
,  // measure 43
00100000
00000000
01100000
00000000
10000000
01000000
00110000
00000000
,  // measure 44
00001000
00000000
00000110
00000000
00000001
00000100
00001001
00000000
,  // measure 45
00000100
00000000
00001000
00000000
00010000
00000000
00100000
00000000
01000000
00000000
10000000
00000000
00100000
10000000
00100000
00000000
,  // measure 46
01000000
00000000
00010000
00000000
00001000
00000000
00000100
00000000
00000010
00000000
00000001
00000000
00000100
00000010
00000100
00000000
,  // measure 47
00001000
00000000
00010000
00000000
00001000
00000000
00100000
00000000
00010000
00000000
01000000
00000000
00100000
10000000
00100000
00000000
,  // measure 48
10000000
00000000
01000000
00000000
00010000
00000000
00001000
00000000
00000100
00000000
00000010
00000000
00000001
00001000
00000001
00000000
,  // measure 49
00000100
00000000
00001000
00000000
00010000
00000000
00100000
00000000
01000000
00000000
10000000
00000000
00100000
01000000
00100000
00000000
,  // measure 50
00010000
00000000
00001000
00000000
00000100
00000000
00000010
00000000
00001000
00000000
00010000
00000000
00100000
10000000
00100000
00000000
,  // measure 51
01000000
00000000
10000000
00000000
00100000
00000000
00010000
00000000
00001000
00000000
00000100
00000000
00000010
00000001
00000010
00000000
,  // measure 52
00000001
00000000
00001000
00000000
00000100
00000000
00010000
00000000
00001000
00000000
00010000
00000000
00100000
10000000
00100000
00000000
,  // measure 53
01000000
00000000
10000000
00000000
01000000
00000000
00100000
00000000
00001000
00000000
00010000
00000000
00001000
00000010
00001000
00000000
,  // measure 54
00000100
00000000
00000010
00000000
00000001
00000000
00000100
00000000
00001000
00000000
00010000
00000000
00100000
10000000
00100000
00000000
,  // measure 55
01000000
00000000
10000000
00000000
00010000
00000000
01000000
00000000
00100000
00000000
00010000
00000000
00001000
00000010
00001000
00000000
,  // measure 56
00000100
00000000
00000010
00000000
00000100
00000000
00001000
00000000
00010000
00000000
00000010
00000000
00000100
00010000
00000100
00000000
,  // measure 57
00001000
00000000
00010000
00000000
00100000
00000000
01000000
00000000
10000000
00000000
00100000
00000000
00010000
10000000
00010000
00000000
,  // measure 58
01000000
00000000
00010000
00000000
00001000
00000000
00000010
00000000
00000001
00000000
00000010
00000000
00000100
00010000
00000100
00000000
,  // measure 59
00001000
00000000
00010000
00000000
00100000
00000000
01000000
00000000
10000000
00000000
00100000
00000000
00010000
10000000
00010000
00000000
,  // measure 60
01000000
00000000
00001000
00000000
00010000
00000000
00000100
00000000
00000010
00000000
00000001
00000000
00000100
00000010
00000100
00000000
,  // measure 61
00011000
00010000
00001000
00110000
00001000
00010000
00001000
00100000
,  // measure 62
00110000
01000000
00010000
00101000
00010000
01000000
00010000
00001000
,  // measure 63
00101000
01000000
00100000
00011000
00100000
01000000
00100000
00010000
,  // measure 64
00011000
00000100
00001000
00000011
00001000
00000100
00001000
00000010
,  // measure 65
00000100
00000001
00000110
00001000
00000001
00001000
00001100
00000000
,  // measure 66
00010000
01000000
00101000
01000000
00010000
10000000
01100000
00000000
,  // measure 67
10000000
00100000
11000000
00010000
00100000
01000000
00011000
00000000
,  // measure 68
00000100
00001000
00000011
00000100
00000001
00000010
00001100
00000000
,  // measure 69
00001000
01000000
00110000
10000000
00100000
00010000
11000000
00000000
,  // measure 70
10000000
01000000
00110000
00001000
00010000
00000010
00001100
00000000
,  // measure 71
00001100
00000000
00000010
00000000
00000100
00000000
00000001
00000000
00000010
00000100
00000010
00000100
00001000
00010000
00001000
00010000
,  // measure 72
00220000
00000000
00000000
00000000
,  // measure 73
00000000
00000000
00000000
00330000
;
