#TITLE:Classical Insanity;
#SUBTITLE:;
#ARTIST:DM Ashura;
#TITLETRANSLIT:;
#SUBTITLETRANSLIT:;
#ARTISTTRANSLIT:;
#CREDIT:;
#BANNER:classicalinsanity.png;
#BACKGROUND:classicalinsanity-bg.png;
#LYRICSPATH:;
#CDTITLE:;
#MUSIC:Classical Insanity.mp3;
#OFFSET:-0.100;
#SAMPLESTART:34.286;
#SAMPLELENGTH:12.000;
#SELECTABLE:YES;
#BPMS:0.000=175.020;
#STOPS:;
#BGCHANGES:;
// cache tags:
#FIRSTBEAT:7.750;
#LASTBEAT:360.000;
#SONGFILENAME:Songs/mike songs/CLASSICAL INSANITY!!!/classicalinsanity.sm;
#HASMUSIC:1;
#HASBANNER:1;
#MUSICLENGTH:124.896;
// end cache tags

//---------------dance-single - ----------------
#NOTES:
     dance-single:
     :
     Hard:
     12:
     1.000,1.000,1.000,0.112,1.000,996.000,188.000,14.000,0.000,6.000:
0000
0000
0000
0000
,
0000
0000
0000
0000
0000
0000
0000
0000
0000
0000
0000
0000
0000
0000
0000
0110
,
1001
0001
0010
0100
1000
0001
0010
0100
1000
0001
0010
0100
1000
0001
0010
0100
,
1000
0010
0100
0001
1000
0010
0100
0001
1000
0010
0100
0001
1000
0010
0100
1001
,
0110
1000
0100
0010
0001
1000
0100
0010
0001
0100
0010
1000
0001
0100
0010
1001
,
0110
1000
0100
0010
0001
1000
0001
1000
0100
0010
0100
0010
0001
1000
0100
0110
,
1001
0010
0100
1000
0001
1000
0010
0110
1001
1000
0001
0100
0010
1000
0100
0110
,
1001
0010
0100
0010
1001
0100
0010
0100
1001
0010
0100
0010
1001
0100
0010
0100
,
1001
0100
0010
0001
1000
0100
0010
0001
1000
0100
0010
0001
1000
0100
0010
0001
,
1000
0100
0010
0001
1000
0100
0010
0001
1000
0100
0010
0001
1001
0000
1001
0000
,
0001
0010
0100
1000
0001
0010
0100
1000
0001
0010
0100
1000
0001
0010
0100
1000
,
0001
0010
0100
1000
0001
0010
0100
1000
0001
0010
0100
1000
1001
0000
1001
0000
,
1000
0001
0100
0010
1000
0001
0100
0010
1000
0001
0100
0010
1000
0001
0100
0010
,
1000
0001
0100
0010
1000
0001
0100
0010
1000
0001
0100
0010
1001
0000
1001
0000
,
1000
0100
1000
0100
1000
0001
0010
0001
0010
0001
1000
0100
1001
0000
1001
0000
,
1000
0100
0010
0001
0010
0100
1000
0100
0010
0001
0010
0100
1001
0000
1001
0000
,
1100
1100
1100
1100
0011
0011
0011
0011
,
1001
1100
1001
0101
1001
1100
1001
0101
,
1010
1010
1010
1010
0101
0101
0101
0101
,
1001
1010
1001
0011
1001
1010
1001
0011
,
1001
0110
1001
0110
1001
0110
1001
0110
,
2002
0000
0000
3003
0220
0000
0000
0000
0000
0000
0330
0000
0001
1000
0100
0010
,
1001
0000
0000
0000
1000
0100
0010
0100
1001
0000
0000
0000
0001
0010
0100
0010
,
0001
1000
0100
0010
0100
1000
0001
0100
1001
0000
0000
0000
1000
0000
0100
0000
,
1001
1100
0100
0010
1001
0101
0100
0010
,
1001
0000
1100
0000
1001
0000
0101
0000
1001
0000
0000
0000
0001
1000
0100
0010
,
1001
0000
0000
0000
0010
0100
1000
0001
1001
0000
0000
0000
1000
0100
0010
0001
,
0010
0100
0010
0001
1000
0100
0010
0100
1001
0000
0000
0000
0110
0000
1001
0000
,
1100
1001
0100
0010
1001
0101
0100
0010
,
1010
1100
0101
1100
0220
0000
0330
0000
,
1001
0010
0100
1001
0110
0001
0100
1001
,
0110
0000
1000
0000
0001
0000
0010
0100
1000
0000
0010
0000
0001
0000
1000
0000
,
0110
0000
1000
0000
0001
0000
1000
0100
0010
0000
1000
0000
0001
0000
0100
0000
,
1000
0100
0010
0100
1000
0001
0010
0100
1001
0000
1000
0000
0100
0000
0010
0000
,
1001
0100
0010
1100
0011
1000
0001
1100
,
0110
0000
1000
0000
0001
0000
1000
0100
0010
0000
0001
0000
1000
0000
0010
0000
,
0001
0010
0100
1000
0001
0010
0100
1000
0010
0100
0001
1000
0010
0100
0001
0010
,
0100
1000
0001
1000
0001
0010
0100
1000
0001
0000
0000
1000
0001
0000
0000
0000
,
1011
1101
1011
0000
,
1110
0111
1110
0000
,
1000
0000
0100
0001
0100
0000
1000
0000
0001
0000
1000
0100
1000
0000
0000
0000
,
0001
0000
1000
0001
1000
0000
0010
0000
0100
0001
1000
0100
0010
0000
0000
0000
,
1100
0000
0001
0000
0101
0000
0010
0000
0110
0000
1000
0000
0100
0000
0001
0010
,
1100
0000
0010
0000
0101
0000
0010
0000
1100
0000
0001
0000
1000
0100
0010
0000
,
0001
0000
1000
0100
1000
0000
0000
0000
0001
0000
1000
0100
1000
0000
0001
0010
,
0100
1000
0001
0010
0100
1000
0001
0000
0110
0000
0000
0000
1001
0000
0000
0000
,
2002
0000
0000
0000
0000
0000
0000
0000
0000
0000
3003
0000
0001
0010
0100
1000
,
0001
0010
0100
1000
0001
0010
0100
1000
0011
0100
0001
1000
0010
0100
0001
1000
,
0001
0010
0100
1000
0100
0010
0100
1000
0011
1000
0001
0100
0010
0100
0000
1000
,
0100
0010
0011
1000
0001
0100
0010
1000
0001
0010
0110
1000
0001
0010
0100
1000
,
0001
0010
0100
0010
0001
1000
0100
0010
1001
0010
0100
0010
0100
1000
0100
1000
,
0101
0010
0100
1000
0001
0100
0010
1000
0001
0010
0100
1000
0100
0010
0100
0010
,
1001
0100
0010
0001
1000
0100
0010
0001
1000
0100
0010
0100
1000
0001
0100
0010
,
0100
0001
1000
0100
0010
0001
1000
0001
1000
0100
1000
0100
1000
0010
0100
0010
,
0100
0001
0010
0100
1000
0000
0000
0000
0000
0000
1001
0000
0110
0000
0110
0000
,
1001
0000
0001
1100
0101
0000
1000
0101
,
1100
0000
0000
0000
0001
0010
0100
1000
0110
0000
0000
0000
0010
0100
1000
0001
,
0010
0100
1000
0001
0010
0000
0100
0000
1000
0000
0000
0000
1001
0000
0010
0000
,
1001
0000
0000
0000
0000
0000
1100
0110
,
1001
0000
0000
0000
0001
0010
0100
1000
1001
0000
0000
0000
0011
0000
0110
0000
,
1001
0000
0000
0000
1000
0100
0010
0001
1001
0000
0000
0000
1100
0000
0110
0000
,
0101
0000
0001
0011
1100
0000
1000
1010
,
0101
0000
0000
0000
1000
0100
0010
0001
0010
0100
1000
0100
0010
0001
0010
0100
,
1000
0000
0001
1000
0001
1000
0001
1000
0001
0000
1000
0000
1000
0000
1000
0000
,
1100
0010
0101
0010
1100
0010
0101
0010
,
1001
0000
0001
0100
0001
0100
0001
0100
0001
0000
1000
0000
1000
0000
1000
0000
,
1001
1001
1100
1100
1001
1001
0101
0101
,
0010
0000
0100
0010
0100
0010
0100
0010
0100
0000
0010
0000
0010
0000
0010
0000
,
0110
0110
0011
0011
0110
0110
1010
1010
,
1001
0000
1000
0010
1000
0010
1000
0010
1000
0000
0001
0000
0001
0000
0001
0000
,
1001
1100
1001
0101
1001
1010
1001
0011
,
0001
0010
0100
1000
0001
0010
0100
1000
0001
0010
0100
1000
0001
0010
0100
1000
,
0001
0010
0100
1000
0001
0010
0100
1000
0001
0010
0100
1000
0001
0010
0100
1000
,
0001
0010
0100
1000
0001
0010
0100
1000
0010
0100
0001
1000
0010
0100
0001
1000
,
0001
0100
0010
1000
0001
0100
0010
1000
0100
0010
0001
1000
0100
0010
0001
1000
,
0001
0100
0001
0100
0001
0100
0001
0100
0010
0100
0010
0100
0010
0100
0010
0100
,
0010
1000
0010
1000
0010
1000
0010
1000
0100
1000
0100
1000
0100
0010
0100
0010
,
0001
0010
0001
0010
0001
1000
0001
1000
0010
0100
0010
0100
0001
1000
0100
0010
,
0100
1000
0010
0100
0010
1000
0001
0100
0001
1000
0010
1000
0001
0100
0010
0100
,
0001
1000
0001
1000
0001
1000
0001
1000
0010
0100
0010
0100
0010
0100
0010
0100
,
0010
1000
0010
1000
0010
1000
0010
1000
0001
0100
0001
0100
0001
0100
0001
0100
,
0010
1000
0010
1000
0100
0001
0100
0001
0100
0010
0100
0010
1000
0100
1000
0100
,
0001
0010
0100
1000
0100
0010
0100
1000
0001
0010
0100
0010
0001
1000
0100
0010
,
0001
0010
0100
1000
0001
0010
0100
1000
0001
0010
0100
0010
0001
1000
0100
0010
,
0100
0010
0001
1000
0100
0010
0001
0010
0100
0010
0001
1000
0100
0010
0100
0010
,
1001
0000
0000
0000
1000
0100
0010
0001
1000
0100
0010
0001
1000
0100
0010
0001
,
0010
0100
0010
0001
1000
0100
0010
0100
1000
0001
0100
0001
0100
0001
1000
0100
,
2002
3003
0000
0000
0220
0330
0000
0000
,
2002
0000
0000
0000
,
0000
0000
0000
0000
,
3003
0000
0000
0000
;

//---------------dance-single - ----------------
#NOTES:
     dance-single:
     :
     Medium:
     7:
     0.637,0.685,0.392,0.048,0.068,502.000,49.000,6.000,0.000,0.000:
0000
0000
0000
0000
,
0000
0000
0000
0000
,
1001
1000
0010
0100
,
0001
0000
0010
0000
0100
0000
1000
0010
,
0100
0000
0001
0000
0010
0000
0100
1000
,
0010
0000
0100
0000
0001
0000
0010
0100
,
1000
0010
0100
0001
,
0010
0100
1000
0010
0100
0001
0010
0100
,
1000
0000
0010
0000
1000
0010
1000
0000
,
0001
0000
0010
0000
0001
0010
0100
1000
,
0010
0000
1000
0000
0010
0000
1000
0001
,
0010
0000
0001
0000
0100
0010
1000
0100
,
0010
0000
0001
0000
0010
0000
0001
0100
,
0010
1000
0100
0010
0001
1000
1000
0000
,
0010
0000
0100
0001
0010
0000
0001
1000
,
0010
0000
0100
0001
0010
0000
0100
1000
,
0010
0000
0001
0000
1000
0000
0010
0100
,
0001
0000
0010
0000
0100
1000
0010
1000
,
0001
0100
0001
0010
0100
0000
1000
0000
,
0010
0000
0100
0000
0001
0010
0001
1000
,
0100
1000
0010
0100
0001
0010
0100
1000
,
1001
0000
1001
0000
0000
0000
0001
1000
,
0001
0000
0001
1000
0010
0000
0010
1000
,
0001
0010
0100
1000
1010
0000
0001
1000
,
0001
1000
0010
0100
0001
0010
0100
1000
,
0010
0100
0001
0010
0110
0000
0100
1000
,
0010
0000
0100
0001
0010
0000
0010
0100
,
1000
0000
0000
0010
1000
0000
0001
0000
0100
0000
0000
0000
0001
0000
0010
0000
,
0100
1000
0001
0000
1000
0000
0001
0000
0010
0100
1000
0000
0010
0000
0100
0000
,
0001
1000
0100
0000
1000
0000
0010
0000
0101
0000
0000
0000
0000
0000
0000
0000
,
1001
0000
0000
0010
1000
0000
0000
0001
,
0010
0000
0000
0000
0000
0000
0100
1000
0010
0000
0000
0000
0000
0000
0000
0000
,
0001
0000
0000
0000
0000
0000
0010
0100
1000
0000
0000
0000
0000
0000
0000
0000
,
0010
0000
0100
0000
0001
0000
0000
0010
0100
0000
0000
0000
1100
0000
0000
0000
,
0001
0000
1000
0010
0100
0001
0000
0001
,
0010
0000
0000
0000
0100
0000
1000
0100
0010
0000
0000
0000
0000
0000
0000
0000
,
0001
1000
0010
0100
0001
0010
0100
1000
,
0010
0000
0100
0000
0001
0000
0000
0001
0010
0000
0000
0000
1100
0000
0000
0000
,
0110
1001
0011
0000
,
0110
1010
0011
0000
,
1001
0000
0000
0000
1000
0000
0010
0000
0100
0000
0001
0000
0010
0000
0000
0001
,
0010
0000
0001
1000
0100
1000
0010
0000
,
1001
1100
0101
0000
,
1001
0110
1001
0000
,
1000
0010
0100
0000
0001
0010
0100
1000
,
0010
0100
0001
0010
0100
0000
1001
0000
,
2002
0000
0000
0000
,
0000
0000
0000
3003
0100
0001
1000
0010
,
0100
0001
0010
0001
0010
0001
1000
0100
,
1000
0010
0100
0001
0010
0001
0010
0001
,
0010
0001
1000
0100
1000
0010
0100
0001
,
0010
0100
1000
0010
0100
0001
0010
0100
,
1000
0010
0100
0001
0010
0001
0010
0100
,
1000
0010
0100
0001
0010
0100
1000
0010
,
0100
0001
0010
0000
0000
1000
0010
0100
,
0011
0000
0000
0001
1000
0000
0000
1000
,
0010
0000
0000
0000
1000
0001
0010
0100
,
1000
0010
0100
0001
0010
0000
1100
0000
,
1010
0000
0000
0000
0000
0000
0001
0010
,
0200
0000
0000
0000
1300
0000
0010
1000
,
0002
0000
0000
0000
0013
0000
0010
1000
,
0100
0000
0000
0010
0001
0000
0000
1000
,
0010
0000
0000
0000
,
0001
0000
1000
0100
1000
0000
0001
0000
0010
0000
0100
0000
1000
0000
0001
0000
,
1001
1100
1001
0101
,
0001
0000
1000
0100
1000
0000
0010
0000
0100
0000
0001
0000
0010
0000
0100
0000
,
1001
0101
0011
0101
,
0001
0000
0010
0100
0010
0000
0001
0000
0010
0000
0001
0000
0100
0000
0010
0000
,
1100
1010
0101
0011
,
0001
0000
0100
0010
0100
0000
0010
0000
1000
0000
0100
0000
0010
0000
0100
0000
,
0010
0100
1000
0001
0010
0100
1000
0010
,
1001
0000
0000
0000
,
0000
0000
0000
0000
,
0000
0000
1001
0000
,
1001
0000
1010
0101
,
1000
0010
0100
0001
0010
0100
1000
0010
,
0100
0001
0010
0100
1000
0010
1000
0100
,
0010
0001
1000
0001
0100
0001
0010
0001
,
1000
0100
1000
0010
0100
0001
0010
0001
,
0011
1000
0010
1000
0001
0100
0001
0010
,
0100
1000
0010
0100
0001
0010
0100
0010
,
0100
0010
0100
1000
0010
1000
0010
0100
,
0001
0010
0100
1000
0001
0010
0100
1000
,
0010
1000
0001
0010
0100
0010
0100
0010
,
0001
0010
0001
0010
0001
0010
0001
1000
,
1100
0000
0010
1000
0001
0100
0001
0010
,
0100
0000
1000
0000
0010
0000
0100
0000
0001
0010
0100
1000
0100
0010
0001
0000
,
1001
0000
1001
0000
,
0220
0000
0000
0000
,
0000
0000
0000
0000
,
0330
0000
0000
0000
;

//---------------dance-single - ----------------
#NOTES:
     dance-single:
     :
     Easy:
     4:
     0.435,0.649,0.649,0.032,0.000,295.000,81.000,4.000,0.000,0.000:
0000
0000
0000
0000
,
0000
0000
0000
0000
,
1001
0000
0010
0000
,
0100
0000
0001
0000
,
1001
0000
1000
0000
,
0010
0000
0100
0000
,
0001
0010
0100
1000
,
0100
0010
0001
1000
,
1001
1000
0010
0100
,
0001
0010
1001
1001
,
1000
0010
0100
0001
,
0010
0100
0110
0110
,
1000
0010
0100
0001
,
0010
0001
1001
1001
,
1000
0010
0100
0001
,
0011
0001
1000
0100
,
1010
1010
0101
0101
,
0011
0011
1100
1100
,
1001
1001
0110
0110
,
1001
1001
1001
1001
,
1000
0100
1000
0010
,
0110
1001
0001
1000
,
0010
0000
0100
0001
,
1000
0010
0100
0001
,
1000
0010
0100
0001
,
0010
0001
1100
1000
,
1010
0001
0011
0100
,
1000
0010
0110
0001
,
0010
0100
1000
0001
,
1000
0001
0010
0000
,
0100
0000
0001
0000
,
1000
0000
0110
0000
,
0001
0000
1100
0000
,
1000
0010
0101
0000
,
0001
0000
1000
0000
,
0001
0000
0010
0000
,
0100
1000
0010
0100
,
0001
0010
0110
0110
,
0001
1000
0010
0000
,
0001
1000
0100
0000
,
1001
1000
0010
0100
,
1001
0001
0010
0100
,
1000
0001
0100
0000
,
1000
0001
0010
0000
,
1001
0010
0100
0001
,
0010
0100
1000
1001
,
1001
0000
0000
0000
,
0000
0000
1001
1000
,
0010
0100
0011
0001
,
0010
0100
1010
0010
,
0100
0001
0110
0100
,
1000
0010
0101
0001
,
0010
0100
1010
0010
,
0100
0001
0011
1000
,
0100
0001
0000
0000
,
1001
0000
0010
0000
,
1100
0000
0001
0010
,
0100
1000
1010
1100
,
0011
0000
0000
0001
,
2000
0000
3001
0001
,
0020
0000
0130
0001
,
1000
0000
0010
0000
,
1001
0000
0000
0000
,
0001
0001
0001
0001
,
1000
0100
1000
0100
,
0010
0010
0010
0010
,
0100
0001
0100
0001
,
1100
1100
1100
1100
,
0010
0001
0100
0001
,
0011
0011
0011
0011
,
0100
1000
0010
0100
,
1001
0000
0000
0000
,
1001
0000
0000
0000
,
1010
0101
0011
0110
,
1100
1010
0010
0100
,
1001
0010
0100
0001
,
0010
0100
1000
0010
,
0100
0001
0010
0100
,
0010
0100
0010
0100
,
0110
0001
1000
0010
,
0101
0001
0010
0100
,
1100
0010
0100
0001
,
0010
0100
1000
0001
,
1001
0001
0010
0100
,
0110
0010
1000
0100
,
0011
0100
1000
0001
,
0010
0000
0100
0000
1000
0100
0010
0001
,
0110
0000
1001
0000
,
0220
0000
0000
0000
,
0000
0000
0000
0000
,
0330
0000
0000
0000
;
