#TITLE:Happy Rainbow;
#SUBTITLE:;
#ARTIST:OSTER Project;
#TITLETRANSLIT:;
#SUBTITLETRANSLIT:;
#ARTISTTRANSLIT:;
#CREDIT:;
#BANNER:../fallback-bn.png;
#BACKGROUND:../fallback-bg.png;
#LYRICSPATH:;
#CDTITLE:monst3rjoe - cdtitle.png;
#MUSIC:happy_rainbow.ogg;
#OFFSET:-0.038;
#SAMPLESTART:86.094;
#SAMPLELENGTH:9.558;
#SELECTABLE:YES;
#BPMS:0.000=199.940,104.000=99.970,119.000=199.940,216.000=99.970,231.000=199.940;
#STOPS:;
#BGCHANGES:;
// cache tags:
#FIRSTBEAT:4.000;
#LASTBEAT:351.000;
#SONGFILENAME:Songs/SSSC PACK/[Monst3rjoe] - Happy Rainbow/Happy Rainbow.sm;
#HASMUSIC:1;
#HASBANNER:1;
#MUSICLENGTH:120.286;
// end cache tags

//---------------dance-single - Monst3rjoe----------------
#NOTES:
     dance-single:
     Monst3rjoe:
     Challenge:
     14:
     1.000,1.000,0.125,1.000,1.000,1153.000,15.000,142.000,72.000,0.000:

0000
0000
0000
0000
,
0101
0000
0001
0000
MM1M
0000
0000
0100
1000
0000
0000
0100
1000
0100
1000
0001
,
0100
0010
1000
0010
0100
0001
1000
0100
0010
0001
0010
0100
1000
0001
0100
0001
,
1000
0010
1000
0100
0010
0100
1000
0001
0100
0010
0100
0001
0010
0100
1000
0010
,
0100
0001
0010
0001
0100
0010
1000
0100
1000
0001
0100
0010
1000
0100
1000
0001
,
0100
0001
0010
0100
1000
0010
0100
0010
1000
0100
1000
0001
0010
0001
0100
0001
,
1000
0010
1000
0100
0010
0001
0010
0100
1000
0001
0100
0010
1000
0100
1000
0001
,
0100
0010
0100
0001
1000
0100
1000
0100
0010
0001
0010
0001
0100
0001
0100
0010
,
1000
0010
1000
0100
0010
0100
1000
0001
0100
0010
1000
0010
0100
0001
1000
0100
,
0010
0001
0100
0010
1000
0100
1000
0100
1000
0100
1000
0010
1000
0010
1000
0020
,
1000
0M3M
1000
0010
0100
0001
0010
0001
1000
0100
0010
0001
0100
0010
1000
0020
,
0100
M03M
0100
0010
1000
0100
1000
0001
0100
0001
1000
0100
1000
0001
0100
0002
,
1MM0
0003
1000
0001
0010
0100
1000
0001
0010
0001
0100
0010
0100
0001
1000
0020
,
0100
M03M
0100
0001
1000
0010
0100
0010
1000
0001
0010
0100
0010
0001
0010
0100
,
2000
0000
3000
0010
0200
0000
0001
0300
,
0020
0000
0000
1000
0031
0000
0100
0001
,
0002
0000
0000
0003
1200
0000
0320
0000
,
0032
0000
0000
0100
0103
0000
MM1M
0000
,
1020
1030
0100
1000
0002
0013
0021
0031
,
0200
0310
1010
1000
0001
0010
0011
0001
,
1000
0100
1100
1000
0020
0130
0210
0310
,
2000
3001
0011
0010
0001
1000
1010
0010
,
0100
0001
0101
0100
0010
1000
1001
0001
,
0010
0100
0110
0010
0001
0100
0101
0001
,
2000
0000
3020
0230
,
0302
0000
0000
1000
2003
0MMM
0000
3000
,
M010
0100
0001
0100
0020
1030
0200
0310
0002
1003
0100
1000
0010
0100
0002
0013
,
0200
0000
1300
0000
0001
0000
0100
0000
0020
0000
0130
0000
2000
0000
3100
0000
0020
0000
1030
0000
0100
0000
1000
0001
1000
0000
1000
0000
0200
0000
0310
0000
,
0002
0013
0001
0100
0020
0130
0002
0103
0020
0130
2000
3100
0020
1030
0100
0020
,
0002
0030
0100
0003
0200
0000
0320
0030
2MMM
0000
0M00
0000
3M01
0010
0001
0010
,
0001
0100
0010
1000
0001
0010
0001
0100
0010
1000
0100
1000
0001
0010
0001
1000
,
0010
1000
0100
1000
0001
0100
0001
1000
0010
1000
0002
0023
0230
2300
3200
0320
,
0032
0103
0001
1000
0010
0100
0001
1000
0100
1000
0001
0100
0001
1000
0010
1000
,
0100
1000
0001
0010
0001
0100
0010
1000
0002
0203
0320
2030
3020
0230
0302
0103
,
0001
0010
0001
1000
0100
1000
0001
0100
0001
1000
0010
1000
0001
1000
0100
0010
,
0001
0010
0100
1000
0001
0100
0010
0100
0001
1000
0100
1000
0001
0010
0100
0010
,
0001
1000
0010
0100
0010
1000
0100
0010
0100
1000
0001
0100
0010
0100
0001
1000
,
0100
0010
0001
0000
1MM2
0000
0000
0000
MMM0
0000
0000
0000
0103
0010
0100
0000
,
0001
1000
0001
0010
0001
0000
0100
0001
0010
0000
0001
0010
0100
0000
1000
0001
,
1000
0000
0100
1000
0100
0000
1000
0010
1000
0000
0100
1000
0010
0000
0100
0001
,
0100
0000
0001
0010
0001
0000
1000
0010
1000
0000
0100
1000
0001
0000
1000
0001
,
0100
0000
0001
1000
0010
0000
1000
0001
1000
0000
0100
1000
0100
0000
0010
0001
,
0010
0000
0001
0100
0010
0000
1000
0010
1000
0000
0100
0010
0001
0000
0100
0010
,
1000
0000
0100
0010
0001
0000
1000
0010
1000
0000
0100
1000
0010
0000
1000
0100
,
1000
0000
0010
0100
0010
0000
0100
0001
0100
0000
0001
0010
0001
0000
1000
0100
,
1000
0000
0010
1000
0010
0000
1000
0001
1000
0000
0001
0100
0001
0000
1000
0010
,
0100
0001
0100
0001
0100
0000
0001
0010
0100
0000
0010
0100
1000
0000
0100
0010
,
0001
0000
0010
0001
1000
0000
0010
1000
0001
0000
0100
0001
1000
0000
0100
1000
,
0001
0000
0010
0100
1000
0000
0100
0010
0001
0000
0010
0001
0010
0000
0001
1000
,
0001
0000
0100
0010
0100
0000
0010
0100
0010
0000
0100
0001
0100
0000
0001
0010
,
0001
0000
0100
0001
0100
0000
0001
0100
0010
0000
1000
0100
0010
0000
0001
0100
,
0010
0000
1000
0100
0010
0000
0001
0100
0010
0000
1000
0100
1000
0000
0100
1000
,
0010
0000
0100
0001
0010
0000
0100
1000
0010
0000
0100
0001
0010
0000
0100
1000
,
0010
0000
0100
0001
0010
0000
0001
0100
0001
0000
0010
0001
1000
0001
1000
0001
,
M100
0010
1000
0010
0200
0301
0020
0130
2000
3001
0010
0001
0100
0010
2000
3100
,
0020
0000
0031
0000
1000
0000
0010
0000
0200
0000
0310
0000
0002
0000
0013
0000
0200
0000
0301
0000
0010
0000
0100
0000
1000
0000
0100
0010
0100
0000
0100
0000
,
2000
3010
0100
0010
0200
0310
2000
3010
0200
0310
0002
0013
0200
0301
0010
0100
,
2000
0001
0010
3000
0020
0000
0230
0300
MMM1
0000
0002
0000
0MM0
0000
0000
0003
,
1000
0001
1000
0001
1000
0010
0100
0001
1000
0100
1000
0010
0100
0001
0010
0001
,
1000
0100
1000
0001
0100
0001
0010
0001
1000
0010
1000
0001
0100
0001
2000
3200
,
0320
0032
0023
0230
2300
3010
1000
0001
0100
0010
1000
0001
0010
0001
1000
0010
,
1000
0001
0100
0001
0010
0001
1000
0100
1000
0010
0100
0001
0100
0010
2000
3020
,
0230
0302
0203
0320
2030
3100
0010
0001
1000
0010
0100
0001
1000
0100
1000
0010
,
0100
0001
0010
0001
1000
0100
1000
0001
0100
0001
0010
0001
1000
0010
1000
0001
,
0100
0001
1000
0100
0010
0001
0010
0100
1000
0010
1000
0001
0100
0010
1000
0001
,
0010
0001
1000
0010
1000
0001
0100
0001
1000
00M1
1M00
00M1
1M00
00M1
1M00
00M1
,
1M00
00M1
1M00
00M1
1M00
00M1
1000
0001
0100
M010
010M
M010
010M
M010
010M
001M
,
2000
3200
0320
0032
0203
0320
2030
3001
M020
0130
1000
0010
0100
0001
1000
0100
,
0020
0031
0010
0100
2000
3001
0100
0001
2000
3010
1000
0100
0010
0100
1000
0001
,
0200
0310
0100
0001
0020
0130
1000
0010
0200
0301
0010
0001
0100
0010
2000
3100
,
2000
3001
0100
0010
1000
0100
1000
0001
0100
0001
0010
0100
1000
0010
0100
0010
,
1000
0100
1000
0001
0010
0001
0100
0001
2000
3010
1000
0100
0010
0001
0010
0100
,
2000
3001
0100
0010
2000
3100
1000
0001
0200
0310
0100
0001
1000
0100
2000
3100
,
0020
0031
0010
0001
0100
0001
0200
0310
2000
3010
1000
0100
0020
0130
1000
0001
,
0200
0310
1000
0010
0200
0301
1000
0100
0020
0031
0100
0010
0100
0001
2000
3010
,
0200
0301
1000
0001
1000
0001
1000
0001
0010
0100
1000
0010
0100
0001
1000
0100
,
0010
0100
1000
0001
0100
0010
0100
0001
0010
0100
1000
0010
0100
0001
0010
0001
,
0100
0010
1000
0100
1000
0001
0100
0010
1000
0100
1000
0001
0100
0001
0010
0100
,
1000
0010
0100
0010
1000
0100
1000
0001
0010
0001
0100
0001
1000
0010
2000
3002
,
0023
0032
0023
0230
2300
3001
0100
0010
1000
0100
1000
0001
0100
0010
0100
0001
,
1000
0100
1000
0010
0100
0001
0010
0001
0100
0010
1000
0100
1000
0001
0100
0001
,
1000
0100
1000
0001
0100
0010
1000
0010
0100
0001
1000
0100
0010
0001
0100
0010
,
0100
0010
1000
0100
1000
0001
0010
0001
0010
0100
1000
0100
1000
0001
0100
0001
,
0100
0010
1000
0010
1000
0100
0010
0100
0020
0031
0020
0031
0200
0310
0200
0310
,
2000
3100
2000
3100
0020
0031
0200
0310
2000
3100
0020
0031
0200
0310
2000
3100
,
0020
0031
0200
0310
100M
0100
0010
M001
0100
0010
1000
010M
1000
0010
0100
M001
,
0010
0100
100M
0010
0100
0001
0010
0100
2000
0000
0000
0000
0MMM
0000
0000
0000
,
0MMM
0MMM
0MMM
3000
;
