#TITLE:Water Warning;
#SUBTITLE:OC Remix;
#ARTIST:Sonic 1;
#TITLETRANSLIT:;
#SUBTITLETRANSLIT:;
#ARTISTTRANSLIT:;
#CREDIT:;
#BANNER:bag.png;
#BACKGROUND:bag-bg.png;
#LYRICSPATH:;
#CDTITLE:Dance Dance Revolution Extreme.png;
#MUSIC:Sonic_Water_Warning_OC_ReMix.mp3;
#OFFSET:1.673;
#SAMPLESTART:20.580;
#SAMPLELENGTH:12.000;
#SELECTABLE:YES;
#BPMS:0.000=139.980,44.000=70.000,48.000=139.980,112.000=279.960,144.000=559.917,176.000=70.000,180.000=139.981,188.000=69.991,194.000=139.981,206.000=69.991,208.000=139.981,244.000=279.981,276.000=35.000;
#STOPS:276.000=1.420
;
#BGCHANGES:;
// cache tags:
#FIRSTBEAT:4.000;
#LASTBEAT:277.000;
#SONGFILENAME:Songs/mongol/WW OC/bag.sm;
#HASMUSIC:1;
#HASBANNER:0;
#MUSICLENGTH:109.774;
// end cache tags

//---------------dance-single - ----------------
#NOTES:
     dance-single:
     :
     Hard:
     9:
     0.601,0.946,0.237,0.018,0.182,434.000,26.000,2.000,0.000,0.000:
0000
0000
0000
0000
,
1000
1000
0000
0000
0001
0001
0000
0000
,
0100
0100
0000
0000
0010
0010
0000
0000
,
1000
1000
0000
0000
0001
0001
0000
0000
,
0100
0100
0000
0000
1000
1000
0000
0000
,
0010
1000
0010
0100
0001
0100
0010
1000
,
0010
0100
0001
1000
0010
0100
0010
0100
,
0010
1000
0100
0001
0010
0100
1000
0100
,
0010
0100
0001
0100
0010
1000
0001
0100
,
0010
0010
0000
0000
0100
0100
0000
0000
,
1000
1000
0000
0000
0001
0001
0000
0000
,
1000
1000
0100
0100
0010
0010
1000
1000
,
1001
0010
1000
0100
,
0010
0000
0000
1001
1000
0000
0000
0011
,
1000
0100
0010
0001
0010
0100
1000
0100
,
0010
0100
0001
1000
0010
0100
0001
0100
,
1010
1001
0101
0011
,
1100
0000
0000
0100
0011
0000
0000
0110
,
0001
1000
0010
0100
0001
1000
0010
0100
,
0001
1000
0010
0100
1000
0100
0010
0001
,
0010
0000
0100
0000
0010
1000
0100
1000
0100
0000
1000
0000
0100
0000
0010
0000
,
0100
0000
0010
0000
0010
1000
0010
1000
0010
0000
1000
0000
0100
0000
0010
0000
,
0001
0010
0010
0010
0010
0010
0010
0010
,
0010
0010
0010
0010
0010
0010
0010
0010
,
0010
0000
1000
0000
1000
0100
1000
0100
1000
0000
1000
0000
0100
0000
0010
0000
,
0100
0000
1000
0000
0010
0100
0001
1000
0010
0000
1000
0000
0100
0000
0010
0000
,
0001
0001
0001
0001
0001
0001
0001
0001
,
0001
0000
0001
0000
1001
0000
0000
0000
1000
0000
0001
0000
1000
0001
1000
0001
,
1000
0100
0010
0100
,
0001
0100
0010
1000
,
0001
0100
0010
0100
,
0001
1000
0010
0100
,
0001
0100
0010
1000
,
0010
0100
0010
0100
,
0010
1000
0002
0100
,
0100
0100
0100
0100
,
1003
0001
0100
0010
,
0001
1000
0010
0001
,
0100
1000
0010
0001
,
0100
0001
0100
0001
,
1000
0001
0010
0001
,
1000
0100
0001
0010
,
1000
0001
1000
0010
,
0001
0100
0010
1000
,
1000
1000
0100
0100
0010
0010
0001
0001
,
1000
0100
0010
1000
0001
0100
0010
0100
,
0010
1000
0100
0001
0010
0100
1000
0100
0010
0001
1000
0100
0010
0001
0100
0000
,
0010
0000
0000
0000
1000
0000
0000
0000
1001
0000
0000
0000
1001
0000
0000
0000
0110
0000
0000
0000
0000
0110
0000
0000
1001
0000
0000
0000
0000
0011
0000
0000
,
1000
0100
0010
0001
0010
0100
1000
0010
0100
0000
0010
0000
0100
0000
0001
0000
,
1000
0010
0100
0010
1100
0000
0110
0000
,
0101
0000
0000
0000
1010
0000
0000
0000
1001
0000
0000
0000
0000
1100
0000
0000
,
0110
0000
0000
0000
0000
0011
0000
0000
1000
0001
0100
0001
0010
0001
1000
1000
,
0001
0001
0010
0100
0010
1000
0010
0100
,
0001
0000
1000
0000
1000
0100
0010
1000
0100
0000
0010
0000
0100
0000
0010
0000
,
0010
0000
1000
0000
0010
1000
0010
1000
0010
0000
0010
0000
0100
0000
0010
0000
,
0100
0100
0100
0100
0100
0100
0100
0100
,
0100
0100
0100
0100
0100
0100
0100
0100
,
0010
0000
1000
0000
0010
0001
0010
1000
0100
0000
1000
0000
0010
0000
0100
0000
,
0010
0000
0100
0000
0010
1000
0100
0001
0010
0000
0100
0000
0010
0000
0100
0000
,
1000
1000
1000
1000
1000
1000
1000
1000
,
1000
0000
1000
0000
1001
0000
0000
0000
0100
0000
1000
0000
0010
0001
1000
0100
,
0010
0001
0100
0010
,
1000
0010
0100
0001
,
1000
0100
0010
0001
,
0010
0100
0010
1000
,
0001
0100
0010
1000
,
0001
0100
0010
1000
,
0010
0100
1000
0010
,
0100
0010
0100
0010
,
0000
0020
0000
0000
0030
0000
0000
0000
0000
0000
0000
0000
0000
0000
0000
0000
;

//---------------dance-single - ----------------
#NOTES:
     dance-single:
     :
     Medium:
     6:
     0.458,0.568,0.146,0.200,0.014,314.000,16.000,22.000,0.000,0.000:
0000
0000
0000
0000
,
1000
0100
0000
0000
0010
0100
0000
0000
,
0001
0010
0000
0000
1000
0100
0000
0000
,
0010
0100
0000
0000
0001
1000
0000
0000
,
1000
0100
0000
0000
0010
0001
0000
0000
,
1000
0100
1000
0100
1000
0100
1000
0100
,
1000
0100
0010
0100
0010
0100
0010
0100
,
0001
0010
0001
0010
0001
0010
0001
0010
,
0001
0100
0010
0100
0010
1000
0010
1000
,
0010
0100
0000
0000
0001
0100
0000
0000
,
1000
0100
0000
0000
0010
0100
0000
0000
,
0010
1000
0100
0010
,
1001
0000
0010
1000
0010
0100
0001
0100
,
0101
0000
0000
0010
1000
0000
0000
1000
,
0100
0010
1000
0010
0100
0001
0100
0010
,
0011
0010
0100
0010
1000
0001
0100
0010
,
1000
1000
0001
0001
,
1000
0000
0000
1000
0100
0000
0000
0100
,
0010
1000
0010
0100
0001
0100
0010
0100
,
0010
0000
1001
0000
0010
0000
1000
0100
,
0010
0011
0020
0130
,
0010
1000
0020
0000
1030
0001
0100
0010
,
1000
0200
0000
0000
0000
0000
0000
0000
,
0000
0000
0000
0000
0000
0000
0000
0300
,
0010
1000
0002
0000
0003
0100
0010
1000
,
0010
0100
0002
0000
0003
0010
0100
0010
,
2000
0000
0000
0000
0000
0000
0000
3000
,
0010
0100
1001
0000
0010
1000
0001
0100
,
0010
1000
0100
0010
,
0001
0010
1000
0001
,
1000
0001
1000
0001
,
1000
0001
1000
0001
,
1000
0001
1000
0010
,
0100
0010
1000
0010
,
0100
1000
0200
0001
,
0001
0001
0001
0301
,
1000
0000
0100
0000
,
0010
0000
0010
0000
,
0010
0000
0010
1000
,
0010
0000
1000
0000
,
0100
0000
0010
0000
,
0001
0000
0100
0000
,
0100
0000
0001
0010
,
1000
0000
0001
0000
,
2000
3002
2003
3002
,
1003
0001
1000
0001
,
0200
0000
0010
0000
1000
0000
0301
1000
,
0020
0100
0230
2300
,
3100
0010
1000
0000
0001
0100
0010
0000
1001
0000
0000
0000
0010
0000
0000
0000
,
0000
1000
0100
0000
0011
0000
0010
0000
,
0000
0001
1000
0010
1001
0000
0010
0000
,
0000
0000
1100
1000
0100
1000
1100
0100
,
0100
0010
0100
0001
,
0011
2000
3100
0010
,
0110
0002
1003
0010
,
1000
0100
1000
0100
1000
0100
1000
0100
,
1000
0100
0010
0000
0001
0100
0010
0100
,
0002
0003
0200
0000
0310
0000
1001
0000
,
0020
2030
3001
0110
,
0001
0010
0001
0010
0001
0010
1000
0001
,
0010
0001
1001
0000
0010
0100
0010
1000
,
0010
0001
0100
0010
,
1000
0100
0010
0001
,
0010
0100
0010
1000
,
0010
0100
0001
0100
,
0010
1000
0100
0010
,
0001
0010
0100
0010
,
0100
0010
1000
0001
,
0100
0010
0100
0010
,
0000
0020
0000
0000
0030
0000
0000
0000
0000
0000
0000
0000
0000
0000
0000
0000
;

//---------------dance-single - ----------------
#NOTES:
     dance-single:
     :
     Easy:
     4:
     0.292,0.440,0.146,0.137,0.005,193.000,16.000,15.000,0.000,0.000:
0000
0000
0000
0000
,
0100
0000
0010
0000
,
1000
0000
0001
0000
,
1000
0000
0100
0000
,
0010
0000
0001
0000
,
1000
0100
0010
0001
,
0001
0010
0100
1000
,
0100
0010
1000
0001
,
0100
0010
1000
0001
,
0100
0000
0010
0000
,
1000
0000
0001
0000
,
1000
0001
0100
0010
,
1000
0100
0010
0001
,
1001
0010
1000
0100
,
1000
1000
0001
0001
,
0100
0100
0010
0010
,
1000
0000
0001
0000
,
0100
0000
0010
0000
,
1000
0100
0010
0001
,
0010
0100
1000
0100
,
0010
2000
3000
0001
,
0100
0020
0030
1000
,
0002
1000
1000
1000
,
1000
1000
1000
1003
,
0010
0200
0300
0010
,
1000
0002
0003
1000
,
2000
0001
0001
0001
,
3001
0101
0010
1000
,
1000
0000
0100
0000
,
0010
0000
0100
0000
,
0001
0000
1000
0000
,
0010
0000
0100
0000
,
0001
0000
1000
0000
,
0100
0000
0010
0000
,
0001
0000
0100
0000
,
1000
0000
0010
0000
,
2002
0000
0000
0000
,
0000
0000
0000
0000
,
0000
0000
0000
0000
,
0000
0000
0000
0000
,
0000
0000
0000
0000
,
0000
0000
0000
0000
,
0000
0000
0000
0000
,
0000
3000
0000
0000
,
0103
0100
0100
0100
,
1000
0100
0010
0001
,
0011
1100
0110
1002
,
0103
1000
0010
0001
,
1000
0100
0010
0001
1001
0000
0010
0000
,
1000
0010
0101
0010
,
1000
0001
1001
0000
,
0110
0000
0000
0000
1000
0100
0010
0001
,
0101
0010
1000
0100
,
1001
2000
3100
0010
,
0001
0200
0310
1000
,
0020
0100
0100
0100
,
0100
0100
0100
0130
,
1000
0020
0031
0100
,
0001
2000
3100
0010
,
1002
0100
0100
0100
,
0103
1100
0010
0101
,
0001
0000
1000
0000
,
0100
0000
0010
0000
,
0001
0000
0100
0000
,
0010
0000
1000
0000
,
0100
0000
0001
0000
,
0010
0000
0100
0000
,
0010
0000
1000
0000
,
0001
0000
0001
1000
,
0000
1000
0000
0000
0000
0000
0000
0000
0000
0000
0000
0000
0000
0000
0000
0000
;
