#TITLE:Frame of Mind;
#SUBTITLE:;
#ARTIST:Tristam & Braken;
#TITLETRANSLIT:;
#SUBTITLETRANSLIT:;
#ARTISTTRANSLIT:;
#CREDIT:;
#BANNER:../Banner.png;
#BACKGROUND:../BG.png;
#LYRICSPATH:;
#CDTITLE:../CDTitleKIRBY.png;
#MUSIC:Frame of Mind - Tristam & Braken.ogg;
#OFFSET:-2.560;
#SAMPLESTART:67.703;
#SAMPLELENGTH:29.999;
#SELECTABLE:YES;
#BPMS:0.000=175.000;
#STOPS:;
#BGCHANGES:;
// cache tags:
#FIRSTBEAT:30.000;
#LASTBEAT:772.000;
#SONGFILENAME:Songs/Index Fusion - Part 2/Frame of Mind - [Kirby5464]/Frame of Mind.sm;
#HASMUSIC:1;
#HASBANNER:1;
#MUSICLENGTH:270.053;
// end cache tags

//---------------dance-single - ----------------
#NOTES:
     dance-single:
     :
     Challenge:
     16:
     0.911,1.000,0.048,0.048,1.000,1696.000,13.000,13.000,2.000,0.000:
0000
0000
0000
0000
,
0000
0000
0000
0000
,
0000
0000
0000
0000
,
0000
0000
0000
0000
,
0000
0000
0000
0000
,
0000
0000
0000
0000
,
0000
0000
0000
0000
,
0000
0000
1000
1000
,
1000
1000
1000
1000
,
1000
1000
0001
0001
,
0001
0001
0001
0001
,
0001
0001
0100
0100
,
0100
0100
0100
0100
,
0100
0100
0010
0010
,
0010
0010
0010
0010
,
0010
0010
1000
0001
,
1000
0001
1000
0001
,
1000
0001
1000
0010
,
1000
0010
1000
0010
,
1000
0010
1000
0001
,
1000
0001
1000
0001
,
1000
0001
0100
0001
,
0100
0001
0100
0001
,
0100
0001
1000
0010
,
0100
0010
0100
0010
,
0100
0010
0100
0001
,
1000
0010
1000
0010
,
1000
0010
1000
0001
,
1000
0001
1000
0001
,
1000
0001
1000
0001
,
0010
0100
1000
00M0
,
0000
0000
0000
0000
1000
0010
1000
0100
,
0010
0001
0100
0010
0100
0001
1000
0001
,
0010
0100
1000
0010
0100
0010
1000
0100
,
0010
0001
1000
0010
0100
0001
0010
0100
,
0010
0001
1000
0100
1000
0001
0010
0100
,
1000
0010
0100
0010
1000
0001
1000
0100
,
0010
0001
1000
0100
1000
0010
0100
0010
,
1000
0001
1000
0001
0010
0100
1000
0001
,
1000
0001
0100
0010
0100
0001
1000
0001
,
0010
0100
1000
0010
0100
0010
1000
0001
,
1000
0100
0010
0001
1000
0100
1000
0001
,
0010
0001
1000
0100
0010
0001
1000
0010
,
1000
0000
0001
0000
0010
0000
0100
0000
1000
0001
1000
0000
0010
0100
0010
0000
,
1000
0010
1000
0000
0001
0100
0001
0000
1000
0010
0100
0000
0001
1000
0001
0000
,
0100
0010
0100
0000
0001
0100
0001
0000
1000
0010
1000
0000
0001
0010
0001
0000
,
1000
0100
1000
0000
0001
1000
0001
0000
0100
0010
0100
0000
0001
1000
0001
0000
,
1000
0100
1000
0000
0002
0000
0000
0000
1003
0100
0010
0001
0100
0010
0100
0001
,
1000
0001
0010
0100
1000
0010
0100
0010
1000
0100
0010
0001
1000
0100
1000
0001
,
0100
0001
0010
0100
1000
0010
0100
0010
1000
0100
0010
0100
1000
0001
0010
0001
,
1000
0010
1000
0100
0010
0001
0100
0010
0100
0001
1000
0001
0010
0100
1000
0010
,
0100
0001
0010
0100
0010
0001
1000
0100
1000
0010
0100
0010
1000
0001
1000
0100
,
0010
0001
0100
0010
0100
0001
1000
0001
0010
0100
1000
0010
0100
0010
1000
0001
,
1000
0100
0010
0001
1000
0100
0010
0100
1000
0001
0010
0001
1000
0010
1000
0100
,
0010
0001
0100
0010
1000
0000
0001
0000
1000
0000
0001
0000
1001
0000
0100
0000
,
0010
0000
1000
0001
1000
0100
0010
0001
1000
0100
1000
0001
0100
0001
0010
0100
,
1000
0010
0100
0010
1000
0001
1000
0100
0010
0001
0100
0010
1000
0100
0010
0100
,
1000
0001
0010
0001
0100
0010
0100
0001
1000
0001
0010
0100
1000
0010
0100
0010
,
1000
0001
1000
0100
0010
0001
0100
0010
0100
0001
1000
0001
0010
0100
1000
0001
,
0010
0100
0010
0001
1000
0100
1000
0001
0100
0001
0010
0100
1000
0010
0100
0001
,
0010
0001
1000
0010
1000
0100
0010
0001
1000
0100
0010
0100
1000
0001
0010
0001
,
0100
0010
0100
0001
1000
0001
0010
0100
1000
0000
0001
0000
1001
0000
0100
0000
,
0010
0100
0110
1000
0001
1000
1010
0001
,
0100
0000
0010
0000
0101
0000
1000
0000
0001
0010
0100
1000
0010
0100
0010
1000
,
0001
1000
0100
0010
0001
0100
0010
0100
0001
0010
0100
1000
0001
0010
0001
1000
,
0010
1000
0100
0010
0001
0100
0010
0100
0001
0010
0100
0010
0001
1000
0100
1000
,
0001
0100
0001
0010
0100
1000
0010
0100
0010
1000
0001
1000
0100
0010
0001
0100
,
0010
1000
0100
0010
0100
1000
0001
0010
0001
0100
0010
0100
0001
1000
0001
0010
,
0100
1000
0010
0100
0010
1000
0001
1000
0100
0010
0001
0100
0010
0100
0001
1000
,
0001
0010
0100
1000
0001
0010
0100
0010
0001
1000
0100
1000
0001
0100
0001
0010
,
0100
1000
0010
0100
0001
0000
0010
0000
0100
0000
1000
0000
1100
0000
0001
0000
,
0100
0000
0001
0000
0011
0000
1000
0000
0001
1000
0001
0010
0100
1000
0001
0010
,
0001
1000
0010
1000
0100
0010
0001
0100
0010
0100
0001
1000
0001
0010
0100
1000
,
0010
0100
0001
0010
0100
0010
0001
1000
0100
1000
0010
0100
0010
1000
0001
1000
,
0100
0010
0001
0100
0010
0100
0001
1000
0001
0010
0100
1000
0010
0100
0010
1000
,
0001
1000
0100
0010
0001
1000
0100
0010
0100
1000
0001
0010
0001
1000
0010
1000
,
0100
0010
0001
0100
0010
1000
0100
1000
0001
0100
0001
0010
0100
1000
0001
0010
,
0100
0010
0001
1000
0100
1000
0010
0100
0020
0000
0000
0000
0000
0000
0000
0000
,
0000
0000
0000
0030
,
0000
0000
1000
0100
,
0010
0001
1000
0001
,
1000
0100
0010
0001
,
1000
0001
1000
0010
,
0100
0010
1000
0001
,
1000
0100
0010
0001
,
1000
0100
1000
0001
,
0100
0001
0010
0100
,
1000
0010
0100
0010
,
1000
0001
1000
0100
,
0010
0001
1000
0100
,
1000
0001
0100
0001
,
0010
0100
1000
0010
,
0100
0010
1000
0001
,
0010
0000
0100
0000
1000
0010
1000
0000
,
0100
0010
0000
0000
,
0000
0000
0000
0000
0001
0100
0001
0010
,
0100
1000
0010
0100
0010
1000
0001
1000
,
0100
0010
0001
0100
0010
0100
0001
0010
,
0100
1000
0001
0100
0010
1000
0100
0010
,
0100
1000
0001
0010
0001
1000
0100
0010
,
0001
0100
0010
0100
0001
1000
0001
0010
,
0100
1000
0001
0010
0001
0100
0010
0100
,
0001
1000
0001
1000
0100
0010
0001
1000
,
0001
1000
0010
0100
0010
1000
0001
1000
,
0100
0010
0001
0100
0010
0100
0001
1000
,
0001
0010
0100
1000
0001
0010
0001
1000
,
0100
1000
0001
0010
0100
1000
0001
0100
,
0001
0000
1000
0000
0100
0000
0010
0000
0001
1000
0001
0000
0100
0010
0100
0000
,
0001
0100
0001
0000
1000
0010
1000
0000
0001
0100
0010
0000
1000
0001
1000
0000
,
0010
0100
0010
0000
1000
0010
1000
0000
0001
0100
0001
0000
1000
0100
1000
0000
,
0001
0010
0001
0000
1000
0001
1000
0000
0010
0100
0010
0000
1000
0001
1000
0000
,
0001
0010
0001
0000
2000
0000
0000
0000
3001
0010
0100
1000
0010
0100
0010
1000
,
0001
1000
0100
0010
0001
0100
0010
0100
0001
0010
0100
1000
0001
0010
0001
1000
,
0010
1000
0100
0010
0001
0100
0010
0100
0001
0010
0100
0010
0001
1000
0100
1000
,
0001
0100
0001
0010
0100
1000
0010
0100
0010
1000
0001
1000
0100
0010
0001
0100
,
0010
1000
0100
0010
0100
1000
0001
0010
0001
0100
0010
0100
0001
1000
0001
0010
,
0100
1000
0010
0100
0010
1000
0001
1000
0100
0010
0001
0100
0010
0100
0001
1000
,
0001
0010
0100
1000
0001
0010
0100
0010
0001
1000
0100
1000
0001
0100
0001
0010
,
0100
1000
0010
0100
0001
0000
1000
0000
0001
0000
1000
0000
1001
0000
0010
0000
,
0100
0000
0001
1000
0001
0010
0100
1000
0001
0010
0001
1000
0010
1000
0100
0010
,
0001
0100
0010
0100
0001
1000
0001
0010
0100
1000
0010
0100
0001
0010
0100
0010
,
0001
1000
0100
1000
0010
0100
0010
1000
0001
1000
0100
0010
0001
0100
0010
0100
,
0001
1000
0001
0010
0100
1000
0010
0100
0010
1000
0001
1000
0100
0010
0001
1000
,
0100
0010
0100
1000
0001
0010
0001
1000
0010
1000
0100
0010
0001
0100
0010
1000
,
0100
1000
0001
0100
0001
0010
0100
1000
0001
0010
0100
0010
0001
1000
0100
1000
,
0010
0100
0010
1000
0001
1000
0100
0010
0001
0000
1000
0000
1001
0000
0010
0000
,
0100
0010
0110
0001
1000
0001
0101
1000
,
0010
0000
0100
0000
1010
0000
0001
0000
1000
0100
0010
0001
0100
0010
0100
0001
,
1000
0001
0010
0100
1000
0010
0100
0010
1000
0100
0010
0001
1000
0100
1000
0001
,
0100
0001
0010
0100
1000
0010
0100
0010
1000
0100
0010
0100
1000
0001
0010
0001
,
1000
0010
1000
0100
0010
0001
0100
0010
0100
0001
1000
0001
0010
0100
1000
0010
,
0100
0001
0010
0100
0010
0001
1000
0100
1000
0010
0100
0010
1000
0001
1000
0100
,
0010
0001
0100
0010
0100
0001
1000
0001
0010
0100
1000
0010
0100
0010
1000
0001
,
1000
0100
0010
0001
1000
0100
0010
0100
1000
0001
0010
0001
1000
0010
1000
0100
,
0010
0001
0100
0010
1000
0000
0100
0000
0010
0000
0001
0000
0011
0000
1000
0000
,
0010
0000
1000
0100
0010
0002
0000
0000
1003
0001
1000
0100
0010
0001
1000
0100
,
1000
0001
0100
0001
0010
0100
1000
0010
0100
0010
1000
0001
1000
0100
0010
0001
,
0100
0010
1000
0100
0010
0100
1000
0001
0010
0001
0100
0010
0100
0001
1000
0001
,
0010
0100
1000
0010
0100
0010
1000
0001
1000
0100
0010
0001
0100
0010
0100
0001
,
1000
0001
0010
0100
1000
0001
0010
0100
0010
0001
1000
0100
1000
0001
0100
0001
,
0010
0100
1000
0010
0100
0001
0010
0001
1000
0010
1000
0100
0010
0001
1000
0100
,
0010
0100
1000
0001
0010
0001
0100
0010
0200
0000
0000
0000
0000
0000
0000
0000
,
0000
0000
0000
0300
,
0000
0000
0000
0000
0000
0000
0000
0000
1000
0100
0010
0001
0100
0010
0100
0001
,
1000
0001
0010
0100
1000
0010
0100
0010
1000
0100
0010
0001
1000
0100
1000
0001
,
0100
0001
0010
0100
1000
0010
0100
0010
1000
0100
0010
0100
1000
0001
0010
0001
,
1000
0010
1000
0100
0010
0001
0100
0010
0100
0001
1000
0001
0010
0100
1000
0010
,
0100
0001
0010
0100
0010
0001
1000
0100
1000
0010
0100
0010
1000
0001
1000
0100
,
0010
0001
0100
0010
0100
0001
1000
0001
0010
0100
1000
0010
0100
0010
1000
0001
,
1000
0100
0010
0001
1000
0100
0010
0100
1000
0001
0010
0001
1000
0010
1000
0100
,
0010
0001
0100
0010
1000
0001
1000
0100
0010
0001
1000
0100
1000
0001
0100
0001
,
0010
0100
1000
0010
0100
0010
1000
0001
1000
0100
0010
0001
0100
0010
1000
0100
,
0010
0100
1000
0001
0010
0001
0100
0010
0100
0001
1000
0001
0010
0100
1000
0010
,
0100
0010
1000
0001
1000
0100
0010
0001
0100
0010
0100
0001
1000
0001
0010
0100
,
1000
0001
0010
0100
0010
0001
1000
0100
1000
0001
0100
0001
0010
0100
1000
0010
,
0100
0001
0010
0001
1000
0010
1000
0100
0010
0001
1000
0100
0010
0100
1000
0001
,
0010
0001
0100
0010
0100
0001
1000
0001
0010
0100
1000
0010
0100
0001
0010
0001
,
1000
0010
1000
0100
0010
0001
0100
0010
0100
0000
0000
0000
0000
0000
0000
0000
,
0000
0000
0000
0000
,
0000
0000
0000
0000
1000
0001
1000
0100
,
0010
0001
0100
0010
0100
0001
0010
0100
,
1000
0001
0100
0010
1000
0100
0010
0100
,
1000
0001
0010
0001
1000
0100
0010
0001
,
0100
0010
0100
0001
1000
0001
0010
0100
,
1000
0001
0010
0001
0100
0010
0100
0001
,
1000
0001
1000
0100
0010
0001
1000
0001
,
1000
0010
0100
0010
1000
0001
1000
0100
,
0010
0001
0100
0010
0100
0001
1000
0001
,
0010
0100
1000
0001
0010
0001
1000
0100
,
1000
0001
0010
0100
1000
0001
0100
0001
,
1000
0100
0010
0001
1000
0001
0010
0100
,
1000
0010
0100
0010
1000
0001
1000
0100
,
0010
0001
0100
0010
0100
0001
0010
0100
,
1000
0001
0100
0010
1000
0100
0010
0100
,
1000
0001
0010
0001
1000
0100
0010
0001
,
0100
0010
0100
0001
2000
0000
0000
0000
,
0000
0000
0000
0000
,
0000
0000
3020
0000
,
0000
0000
0000
0000
,
0000
0000
0230
0000
,
0000
0000
0000
0000
,
0000
0000
0302
0000
,
0000
0000
0000
0000
,
0003
0000
2000
0000
,
0000
0000
0000
0000
,
0000
0000
3002
0000
,
0000
0000
0000
0000
,
0000
0000
0203
0000
,
0000
0000
0000
0000
,
0000
0000
0320
0000
,
0000
0000
0000
0000
,
0000
0000
0030
0000
,
0000
0000
0000
0000
,
0M00
0000
0000
0000
,
0000
0000
0000
0000
,
0000
0000
0000
0000
;
