#TITLE:puNishmENt xtc;
#SUBTITLE:;
#ARTIST:kenta-v.ez.;
#TITLETRANSLIT:;
#SUBTITLETRANSLIT:;
#ARTISTTRANSLIT:;
#CREDIT:;
#BANNER:puNishmeNT xtc - bn.png;
#BACKGROUND:puNishmeNT xtc - bg.png;
#LYRICSPATH:;
#CDTITLE:;
#MUSIC:puNishmENt xtc.ogg;
#OFFSET:0.009;
#SAMPLESTART:93.425;
#SAMPLELENGTH:16.696;
#SELECTABLE:YES;
#DISPLAYBPM:230.000;
#BPMS:0.000=230.000,176.000=231.494,184.000=250.000,216.000=250.710,224.000=300.000,256.000=299.135,264.000=250.000,280.000=250.029,284.000=250.000,300.000=229.900,313.000=230.000;
#STOPS:;
#BGCHANGES:;
// cache tags:
#FIRSTBEAT:48.000;
#LASTBEAT:582.167;
#SONGFILENAME:Songs/SPEEEDCOOOORE 4/puNishmeNT xtc - [Fraxtil]/puNishmENt xtc.sm;
#HASMUSIC:1;
#HASBANNER:1;
#MUSICLENGTH:149.999;
// end cache tags

//---------------dance-single - Fraxtil----------------
#NOTES:
     dance-single:
     Fraxtil:
     Challenge:
     16:
     1.000,1.000,0.267,0.107,1.000,1111.000,40.000,16.000,31.000,0.000:
0000
0000
0000
0000
,
0000
0000
0000
0000
,
0000
0000
0000
0000
,
0000
0000
0000
0000
,
0000
0000
0000
0000
,
0000
0000
0000
0000
,
0000
0000
0000
0000
,
0000
0000
0000
0000
,
0000
0000
0000
0000
,
0000
0000
0000
0000
,
0000
0000
0000
0000
,
0000
0000
0000
0000
,
0001
0010
0001
1000
0010
0100
0010
1000
,
0001
0010
0100
1000
0001
0100
0010
0100
,
0001
1000
0100
0010
0001
1000
0010
1000
,
0400
0000
0320
0000
,
0031
1000
0010
1000
0001
0010
0100
1000
,
0001
0100
0010
0100
0001
1000
0100
0100
,
0010
0000
0001
0000
1000
0000
0001
1000
0010
0000
0000
0010
0000
0000
0010
0000
,
0200
0000
0304
0000
,
1003
1000
0100
0010
0001
1000
0010
1000
,
0001
0010
0100
1000
0001
0100
0010
1000
,
0400
0310
0001
1000
0001
0100
0001
0001
,
1000
0100
0010
0001
1000
1000
0001
0001
,
0200
0000
0000
0000
,
0000
0000
0000
0000
,
0301
1000
0001
1000
0001
1000
0001
1000
,
0100
0000
0100
0000
0010
0000
0100
0000
1000
0000
0100
0010
0001
0000
1000
0000
,
0001
0100
0001
0010
0100
1000
0010
1000
,
0100
0010
0001
0100
0010
1000
0100
0010
,
0100
1000
0010
0100
0001
0010
0100
0010
,
0001
0000
1000
0000
0001
0000
0000
0000
0100
0000
0000
0000
0010
1000
0010
1000
,
0001
0010
0001
0100
0010
1000
0100
0010
,
0100
1000
0010
0100
0001
0010
0001
0001
,
1000
0000
0010
0000
0100
0000
0010
1000
0001
0000
0000
0001
0000
0000
0001
0000
,
0010
0000
0100
0000
0010
0000
0100
0000
1000
0001
0100
0010
1000
0000
0001
0010
,
0001
1000
0010
1000
0100
0010
0001
1000
0001
0100
0010
1000
0001
0010
0001
1000
,
0010
1000
0100
0010
0100
1000
0001
0100
0010
1000
0100
0010
0001
0100
0010
1000
,
0001
0000
0010
0000
0001
0000
0100
0000
0010
0000
1000
0000
,
0100
0000
1000
0000
0010
0000
0100
0000
0001
0000
0010
0000
,
0210
0000
0000
0000
,
0000
0000
0000
0000
,
0000
0000
0000
0000
,
0000
0000
0000
0000
0000
0000
0000
0300
,
2002
3003
0000
0000
,
0000
0000
0M00
00M0
0000
0000
0000
0000
0000
0000
MMMM
0000
0000
0000
0000
0000
,
1001
0101
0110
1010
,
1001
0000
0011
0000
0110
0000
0100
1000
,
0010
1010
0110
0101
,
0001
0000
1000
0000
0001
0000
0000
0000
0020
0000
0000
0000
0130
1000
0100
1000
,
0001
0101
0110
1010
,
1001
0000
0011
0000
0110
0000
0100
1000
,
0010
0000
0000
0000
0110
0000
0000
0100
0001
0000
0000
1000
0000
0000
0001
0000
,
0010
0000
0100
0000
0010
0000
0100
0000
1000
0100
0010
0001
1000
0000
0010
0100
,
0001
0000
0000
0000
,
0000
0000
0M00
00M0
0000
0000
0000
0000
0000
0000
0000
MMM0
0000
0000
0000
0000
,
1001
1000
1010
0010
,
0110
0000
0100
0000
0101
0000
0001
1000
,
0100
0010
0011
0001
,
1000
0000
0000
0010
0000
0000
1000
0000
0000
0000
0000
0000
0200
0000
0000
0000
0000
0000
0310
0000
0001
0000
1000
0000
,
0010
0100
0101
0001
,
1001
0000
1000
0000
1100
0000
0100
0010
,
0001
0000
0000
0000
0100
0000
0000
0010
1000
0000
0000
0001
0000
0000
1000
0000
,
0100
0000
0000
0000
0000
0000
0010
0000
0000
0000
0000
0000
0100
0000
0000
0000
0000
0000
0010
0000
0000
0000
0000
0000
0001
0000
0000
0000
0010
0000
0000
0000
0100
0000
0000
0000
1000
0000
0000
0000
0000
0000
0001
0000
0000
1000
0000
0000
,
0001
0000
0000
0000
,
0000
0000
0M00
0000
00M0
0000
0000
0000
0000
MM00
0000
0000
0000
0000
0000
0000
,
1000
0001
1000
0100
0010
0001
0100
0010
,
0100
0000
0001
0000
0010
0000
0100
0000
1000
0001
1000
0000
0010
0000
0100
0001
,
0100
0000
0010
0000
1000
0000
0100
0000
0010
0000
0001
0000
1000
0000
0001
0100
,
0010
0000
1000
0000
0001
1000
0001
1000
0100
0010
0001
1000
0001
0100
0010
0100
,
0001
0000
0000
0000
0000
0000
0000
0000
0000
M000
0000
0000
0000
0000
0000
0000
,
1000
0001
1000
0100
0010
0001
1000
0010
0100
0010
1000
0001
0010
0100
1000
0001
,
0100
0001
1000
0010
0100
0010
1000
0001
0010
0100
1000
0100
0010
0001
1000
0010
,
0100
0010
1000
0001
0010
0100
1000
0100
0010
0001
1000
0010
1000
0001
0100
0001
,
1000
0100
0010
0001
1000
0010
0100
0010
1000
0001
0010
0100
0010
0001
1000
0010
,
0100
0000
0000
0000
,
0000
00M0
0000
00M0
0000
00M0
0000
00M0
,
0000
00M0
0000
00M0
0000
00M0
0000
0000
,
0000
0000
0000
0000
0001
0000
1000
0000
0100
0010
0000
0100
1000
0000
0001
0100
,
0000
0010
1000
0000
0001
0000
0010
0000
0100
1000
0000
0001
0100
0000
0001
1000
,
0000
0100
0010
0000
0001
0000
0100
0000
0010
1000
0000
0001
0010
0000
0100
0010
,
0000
0001
1000
0000
0010
0000
0100
0000
0001
1000
0000
0100
0010
0000
0001
1000
,
0000
0010
0100
0000
0010
0000
1000
0000
0001
0010
0000
0100
1000
0000
0001
0100
,
0000
0001
1000
0000
0100
0000
0010
0000
0001
1000
0000
0010
0100
0000
0010
1000
,
0000
0001
0010
0000
0001
0000
0100
0000
0010
1000
0000
0001
0010
0000
0100
0010
,
0000
0001
1000
0000
0010
0000
0400
0000
0301
0040
0030
0100
4000
0000
3010
0400
,
0300
0001
1000
0000
1001
0000
0001
0000
0010
0100
0000
1000
0001
0000
0100
0001
,
0000
1000
0100
0000
0010
0000
0001
0000
1000
0010
0000
0100
0001
0000
1000
0001
,
0000
0100
0001
0000
1000
0000
0100
0000
0010
0001
0000
1000
0010
0000
0100
0010
,
0000
1000
0001
0000
0010
0000
0100
0000
1000
0001
0000
0100
0010
0000
1000
0010
,
0000
0100
0001
0000
1001
0000
1000
0000
0100
0010
0000
0001
1000
0000
0010
0100
,
0000
0001
1000
0000
0001
0000
0010
0000
0001
1000
0000
0010
1000
0000
0001
0010
,
0000
0001
0100
0000
0100
0000
0010
0000
0100
0000
0001
0000
1000
0000
0100
0000
,
0010
0000
0001
0000
0200
0000
0000
0000
0000
0000
0000
0000
0310
0000
0000
1000
,
0000
0000
0001
0000
1000
0100
0010
0100
1000
0010
1000
0001
0100
0010
1000
0100
,
0010
0001
1000
0001
0100
0001
0010
0100
1000
0010
1000
0001
0100
0001
0010
0100
,
0010
0001
1000
0010
1000
0001
0100
0010
1000
0100
1000
0001
0010
0100
1000
0010
,
0100
0001
1000
0100
0010
0001
0100
0001
1000
0100
1000
0001
0010
0100
1000
0010
,
0100
0001
1000
0100
1000
0001
0100
0001
1000
0010
0100
0001
0010
0001
1000
0100
,
0010
0001
0100
0001
1000
0001
0010
0001
1000
0100
0010
0001
0100
0001
1000
0010
,
0100
0001
0010
0001
1000
0100
0010
0001
0100
0010
0100
0001
0010
0100
1000
0001
,
0100
0010
0100
0001
0010
0100
0010
0001
1000
0010
0100
0001
1000
0000
0000
0000
,
0001
0000
1000
0000
0001
0010
0100
0010
0001
0100
0001
1000
0010
0100
0001
0010
,
0100
1000
0001
1000
0010
1000
0100
0010
0001
0100
0001
1000
0010
1000
0100
0010
,
0100
1000
0001
0100
0001
1000
0010
0100
0001
0010
0001
1000
0100
0010
0001
0100
,
0010
1000
0001
0010
0100
1000
0010
1000
0001
0010
0001
1000
0100
0010
0001
0100
,
0010
1000
0001
0010
0001
1000
0010
1000
0001
0100
0010
1000
0100
1000
0001
0010
,
0100
1000
0010
1000
0001
1000
0100
1000
0001
0010
0100
1000
0010
1000
0001
0100
,
0010
1000
0100
1000
0010
0100
0001
0010
0100
1000
0010
1000
0100
1000
0001
0100
,
0010
1000
0100
0010
0002
0000
1003
0000
0010
0000
1000
0000
0002
0000
1003
0000
,
0100
0000
1000
0000
1001
0000
0001
0000
0100
0001
0000
1000
0001
0000
0010
0001
,
0000
1000
0001
0000
0100
0000
0010
0000
1000
0001
0000
1000
0100
0000
1000
0001
,
0000
1000
0010
0000
0100
0000
0001
0000
1000
0001
0000
0010
0001
0000
1000
0001
,
0000
0100
0001
0000
0010
0000
0400
0000
1300
0004
0003
1000
0040
0000
1030
0004
,
0003
1000
0100
0000
0110
0000
0010
0000
0100
1000
0000
0001
1000
0000
0010
1000
,
0000
0001
1000
0000
0100
0000
0010
0000
0001
1000
0000
0001
0100
0000
0001
1000
,
0000
0001
0010
0000
0010
0000
0100
0000
0010
0000
0001
0000
1000
0000
0010
0000
,
0100
0000
0001
0000
0020
0000
0130
0000
1000
0000
0010
0000
0010
0000
0000
1000
,
0000
0000
0001
0000
0010
0001
0100
0010
1000
0100
1000
0001
0100
0001
0010
0100
,
0010
0001
0100
0001
1000
0100
0010
0100
1000
0010
0100
0001
0010
0001
1000
0010
,
0100
0001
0010
0100
0010
0001
0100
0001
1000
0100
1000
0010
0100
0001
0010
0100
,
0010
0001
0100
0010
0100
0001
1000
0001
0010
0100
1000
0001
0100
0001
0010
0001
,
1000
0010
0100
0001
1000
0100
0010
0100
1000
0010
1000
0001
0010
0100
1000
0010
,
1000
0001
0010
0100
0010
0001
0100
0010
1000
0100
1000
0010
0100
0001
0010
0001
,
1000
0010
1000
0100
0010
0000
0001
0000
1000
0010
0000
1000
0001
0000
1000
0100
,
0000
0010
0001
0000
1000
0010
0100
0001
0010
0001
0100
0010
1000
0100
0010
0001
,
0100
0010
1000
0100
2000
0000
0000
0000
0000
0000
0000
0000
0000
0000
0000
0000
,
0000
0000
0000
0000
,
0000
0000
3001
0010
0001
0100
0010
1000
,
0100
1000
0010
0100
0001
0010
0100
1000
,
0010
0100
0010
1000
0100
0010
0001
0100
,
0010
0100
0001
1000
0001
0000
0010
0000
,
0100
1000
0100
1000
0001
0000
0100
0000
0001
0000
0010
0000
0100
0000
1000
0000
,
0010
0100
0010
1000
0100
0010
0001
0100
,
0001
0000
0001
0000
1000
0000
0100
0000
0010
0000
0100
1000
0001
0000
0000
0001
,
0000
0000
0001
0000
0100
0000
0010
0000
0100
0000
0010
0000
1000
0001
0010
0100
,
1000
0000
0001
0100
0001
1000
0100
1000
0010
0100
0001
1000
0001
0010
0100
1000
,
0001
0100
0001
1000
0100
1000
0010
0100
0010
1000
0001
0010
0100
1000
0010
0100
,
0001
0000
0000
0010
0000
0000
0100
0000
0000
1000
0000
0000
0001
0000
0000
0000
0000
0000
0000
0000
0100
0000
0000
0000
0000
0000
0000
0000
0001
0000
0000
0000
0000
0000
0000
0000
0010
0000
0000
0000
0000
0000
0000
0000
0100
0000
0000
0000
,
0000
1000
0000
0010
0000
1000
0000
0100
0000
0010
0000
0001
,
0000
0100
0000
0120
0000
0000
0000
0000
0000
0000
0000
0000
,
0000
0000
0000
0000
,
0000
0000
0000
0000
,
0000
0000
0000
0000
,
0000
0030
2002
0000
3003
0000
0000
0000
,
0000
0000
0000
0000
0000
0000
000M
00M0
000M
0M00
00M0
M000
0M00
M000
0000
0000
0000
0000
0000
0000
0000
0000
0000
0000
;

//---------------dance-single - Fraxtil----------------
#NOTES:
     dance-single:
     Fraxtil:
     Hard:
     15:
     1.000,1.000,0.267,0.107,1.000,1031.000,40.000,16.000,31.000,0.000:
0000
0000
0000
0000
,
0000
0000
0000
0000
,
0000
0000
0000
0000
,
0000
0000
0000
0000
,
0000
0000
0000
0000
,
0000
0000
0000
0000
,
0000
0000
0000
0000
,
0000
0000
0000
0000
,
0000
0000
0000
0000
,
0000
0000
0000
0000
,
0000
0000
0000
0000
,
0000
0000
0000
0000
,
0001
0010
0001
1000
0010
0100
0010
1000
,
0001
0010
0100
1000
0001
0100
0010
0100
,
0001
1000
0100
0010
0001
1000
0010
1000
,
0400
0000
0320
0000
,
0031
1000
0010
1000
0001
0010
0100
1000
,
0001
0100
0010
0100
0001
1000
0100
0100
,
0010
0000
0001
0000
1000
0000
0001
1000
0010
0000
0000
0010
0000
0000
0010
0000
,
0200
0000
0304
0000
,
1003
1000
0100
0010
0001
1000
0010
1000
,
0001
0010
0100
1000
0001
0100
0010
1000
,
0400
0310
0001
1000
0001
0100
0001
0001
,
1000
0100
0010
0001
1000
1000
0001
0001
,
0200
0000
0000
0000
,
0000
0000
0000
0000
,
0301
1000
0001
1000
0001
1000
0001
1000
,
0100
0000
0100
0000
0010
0000
0100
0000
1000
0000
0100
0010
0001
0000
1000
0000
,
0001
0100
0001
0010
0100
1000
0010
1000
,
0100
0010
0001
0100
0010
1000
0100
0010
,
0100
1000
0010
0100
0001
0010
0100
0010
,
0001
0000
1000
0000
0001
0000
0000
0000
0100
0000
0000
0000
0010
1000
0010
1000
,
0001
0010
0001
0100
0010
1000
0100
0010
,
0100
1000
0010
0100
0001
0010
0001
0001
,
1000
0000
0010
0000
0100
0000
0010
1000
0001
0000
0000
0001
0000
0000
0001
0000
,
0010
0000
0100
0000
0010
0000
0100
0000
1000
0001
0100
0010
1000
0000
0001
0010
,
0001
1000
0010
1000
0100
0010
0001
1000
0001
0100
0010
1000
0001
0010
0001
1000
,
0010
1000
0100
0010
0100
1000
0001
0100
0010
1000
0100
0010
0001
0100
0010
1000
,
0001
0000
0010
0000
0001
0000
0100
0000
0010
0000
1000
0000
,
0100
0000
1000
0000
0010
0000
0100
0000
0001
0000
0010
0000
,
0210
0000
0000
0000
,
0000
0000
0000
0000
,
0000
0000
0000
0000
,
0000
0000
0000
0000
0000
0000
0000
0300
,
2002
3003
0000
0000
,
0000
0000
0M00
00M0
0000
0000
0000
0000
0000
0000
MMMM
0000
0000
0000
0000
0000
,
1001
0101
0110
1010
,
1001
0000
0011
0000
0110
0000
0100
1000
,
0010
1010
0110
0101
,
0001
0000
1000
0000
0001
0000
0000
0000
0020
0000
0000
0000
0130
1000
0100
1000
,
0001
0101
0110
1010
,
1001
0000
0011
0000
0110
0000
0100
1000
,
0010
0000
0000
0000
0110
0000
0000
0100
0001
0000
0000
1000
0000
0000
0001
0000
,
0010
0000
0100
0000
0010
0000
0100
0000
1000
0100
0010
0001
1000
0000
0010
0100
,
0001
0000
0000
0000
,
0000
0000
0M00
00M0
0000
0000
0000
0000
0000
0000
0000
MMM0
0000
0000
0000
0000
,
1001
1000
1010
0010
,
0110
0000
0100
0000
0101
0000
0001
1000
,
0100
0010
0011
0001
,
1000
0000
0000
0010
0000
0000
1000
0000
0000
0000
0000
0000
0200
0000
0000
0000
0000
0000
0310
0000
0001
0000
1000
0000
,
0010
0100
0101
0001
,
1001
0000
1000
0000
1100
0000
0100
0010
,
0001
0000
0000
0000
0100
0000
0000
0010
1000
0000
0000
0001
0000
0000
1000
0000
,
0100
0000
0000
0000
0000
0000
0010
0000
0000
0000
0000
0000
0100
0000
0000
0000
0000
0000
0010
0000
0000
0000
0000
0000
0001
0000
0000
0000
0010
0000
0000
0000
0100
0000
0000
0000
1000
0000
0000
0000
0000
0000
0001
0000
0000
1000
0000
0000
,
0001
0000
0000
0000
,
0000
0000
0M00
0000
00M0
0000
0000
0000
0000
MM00
0000
0000
0000
0000
0000
0000
,
0001
0001
1000
1000
0100
0100
1000
1000
,
0001
0000
0001
0000
0100
0000
0100
0000
0010
1000
0010
0000
0100
0000
0001
1000
,
0001
0000
0001
0000
1000
0000
1000
0000
0100
0000
0100
0000
1000
0000
0001
0100
,
0010
0000
1000
0000
0001
1000
0001
1000
0100
0010
0001
1000
0001
0100
0010
0100
,
0001
0000
0000
0000
0000
0000
0000
0000
0000
M000
0000
0000
0000
0000
0000
0000
,
1000
0001
1000
0100
0010
0001
1000
0010
0100
0010
1000
0001
0000
0000
0000
0000
,
0100
0001
1000
0010
0100
0010
1000
0001
0010
0100
1000
0001
0000
0000
0000
0000
,
0100
0001
1000
0001
0010
0100
1000
0100
0010
0001
1000
0010
1000
0001
0100
0001
,
1000
0100
0010
0001
1000
0010
0100
0010
1000
0001
0010
0100
0010
0001
1000
0010
,
0100
0000
0000
0000
,
0000
00M0
0000
00M0
0000
00M0
0000
00M0
,
0000
00M0
0000
00M0
0000
00M0
0000
0000
,
0000
0000
0000
0000
0001
0000
1000
0000
0100
0010
0000
0100
1000
0000
0001
0100
,
0000
0010
1000
0000
0001
0000
0010
0000
0100
1000
0000
0001
0100
0000
0001
1000
,
0000
0100
0010
0000
0001
0000
0100
0000
0010
1000
0000
0001
0010
0000
0100
0010
,
0000
0001
1000
0000
0010
0000
0100
0000
0001
1000
0000
0100
0010
0000
0001
1000
,
0000
0010
0100
0000
0010
0000
1000
0000
0001
0010
0000
0100
1000
0000
0001
0100
,
0000
0001
1000
0000
0100
0000
0010
0000
0001
1000
0000
0010
0100
0000
0010
1000
,
0000
0001
0010
0000
0001
0000
0100
0000
0010
1000
0000
0001
0010
0000
0100
0010
,
0000
0001
1000
0000
0010
0000
0400
0000
0301
0040
0030
0100
4000
0000
3010
0400
,
0300
0001
1000
0000
1001
0000
0001
0000
0010
0100
0000
1000
0001
0000
0100
0001
,
0000
1000
0100
0000
0010
0000
0001
0000
1000
0010
0000
0100
0001
0000
1000
0001
,
0000
0100
0001
0000
1000
0000
0100
0000
0010
0001
0000
1000
0010
0000
0100
0010
,
0000
1000
0001
0000
0010
0000
0100
0000
1000
0001
0000
0100
0010
0000
1000
0010
,
0000
0100
0001
0000
1001
0000
1000
0000
0100
0010
0000
0001
1000
0000
0010
0100
,
0000
0001
1000
0000
0001
0000
0010
0000
0001
1000
0000
0010
1000
0000
0001
0010
,
0000
0001
0100
0000
0100
0000
0010
0000
0100
0000
0001
0000
1000
0000
0100
0000
,
0010
0000
0001
0000
0200
0000
0000
0000
0000
0000
0000
0000
0310
0000
0000
1000
,
0000
0000
0001
0000
1000
0001
0010
0100
1000
0001
0010
0001
1000
0100
0010
0100
,
1000
0001
0010
0001
1000
0001
0100
0010
1000
0001
0100
0001
1000
0010
1000
0001
,
0100
0010
1000
0010
0100
0001
1000
0100
1000
0001
0010
0100
0010
0001
1000
0100
,
0010
0001
1000
0100
1000
0001
0100
0001
1000
0010
1000
0001
0100
0010
0100
0001
,
1000
0001
0010
0100
0010
0001
1000
0010
1000
0001
0100
0010
1000
0001
0100
0001
,
1000
0010
0100
0001
1000
0001
0010
0001
1000
0100
0010
0001
1000
0100
1000
0001
,
0010
0100
0010
0001
1000
0001
0100
0001
1000
0010
1000
0001
0100
0001
1000
0010
,
0100
0001
0100
0010
1000
0001
0010
0100
1000
0100
0010
0001
1000
0000
0000
0000
,
0001
0000
1000
0000
0001
1000
0100
0010
0001
1000
0100
1000
0001
0010
0100
0010
,
0001
1000
0100
1000
0001
1000
0010
0100
0001
1000
0010
1000
0001
0100
0001
1000
,
0010
0100
0001
0100
0010
1000
0001
0010
0001
1000
0100
0010
0100
1000
0001
0010
,
0100
1000
0001
0010
0001
1000
0010
1000
0001
0100
0001
1000
0010
0100
0010
1000
,
0001
1000
0100
0010
0100
1000
0001
0100
0001
1000
0010
0100
0001
1000
0010
1000
,
0001
0100
0010
1000
0001
1000
0100
1000
0001
0010
0100
1000
0001
0010
0001
1000
,
0100
0010
0100
1000
0001
1000
0010
1000
0001
0100
0001
1000
0010
1000
0001
0100
,
0010
1000
0010
0100
0002
0000
1003
0000
0010
0000
1000
0000
0002
0000
1003
0000
,
0100
1000
1001
0000
0000
0000
0000
0000
,
0000
0000
0000
0000
,
0000
0000
0000
0000
,
0000
0000
0000
0000
,
0000
1001
0000
0000
,
0000
0000
0000
0000
,
0000
1000
1000
0100
0010
0001
1000
0010
,
0100
0000
0001
0000
0020
0000
0130
0000
1000
0000
0010
0000
0010
0000
0000
1000
,
0000
0000
0001
0000
1000
0001
0100
0010
1000
0001
0100
0001
1000
0010
0100
0010
,
1000
0001
0100
0001
1000
0001
0010
0100
1000
0001
0010
0001
1000
0100
1000
0001
,
0010
0100
1000
0100
0010
0001
1000
0010
1000
0001
0100
0010
0100
0001
1000
0010
,
0100
0001
1000
0010
0100
0000
0001
0000
4000
0000
0000
0000
3100
0000
1000
0000
,
0040
0000
0000
0000
0130
0001
1000
0100
1000
0001
0010
0100
1000
0001
0010
0001
,
1000
0100
0010
0001
1000
0001
0100
0001
1000
0010
0100
0001
1000
0010
1000
0000
,
0001
0010
0001
0000
1000
0000
0000
0000
0001
0000
0000
0000
1000
0000
0000
0000
,
0001
0000
0001
0000
1000
0010
0100
0001
0010
0001
0100
0010
1000
0100
0010
0001
,
0100
0010
1000
0100
2000
0000
0000
0000
0000
0000
0000
0000
0000
0000
0000
0000
,
0000
0000
0000
0000
,
0000
0000
3001
0010
0001
0100
0010
1000
,
0100
1000
0010
0100
0001
0010
0100
1000
,
0010
0100
0010
1000
0100
0010
0001
0100
,
0010
0100
0001
1000
0001
0000
0010
0000
,
0100
1000
0100
1000
0001
0000
0100
0000
0001
0000
0010
0000
0100
0000
1000
0000
,
0010
0100
0010
1000
0100
0010
0001
0100
,
0001
0000
0001
0000
1000
0000
0100
0000
0010
0000
0100
1000
0001
0000
0000
0001
,
0000
0000
0001
0000
0100
0000
0010
0000
0100
0000
0010
0000
1000
0001
0010
0100
,
1000
0000
0001
0100
0001
1000
0100
1000
0010
0100
0001
1000
0001
0010
0100
1000
,
0001
0100
0001
1000
0100
1000
0010
0100
0010
1000
0001
0010
0100
1000
0010
0100
,
0001
0000
0000
0010
0000
0000
0100
0000
0000
1000
0000
0000
0001
0000
0000
0000
0000
0000
0000
0000
0100
0000
0000
0000
0000
0000
0000
0000
0001
0000
0000
0000
0000
0000
0000
0000
0010
0000
0000
0000
0000
0000
0000
0000
0100
0000
0000
0000
,
0000
1000
0000
0010
0000
1000
0000
0100
0000
0010
0000
0001
,
0000
0100
0000
0120
0000
0000
0000
0000
0000
0000
0000
0000
,
0000
0000
0000
0000
,
0000
0000
0000
0000
,
0000
0000
0000
0000
,
0000
0030
2002
0000
3003
0000
0000
0000
,
0000
0000
0000
0000
0000
0000
000M
00M0
000M
0M00
00M0
M000
0M00
M000
0000
0000
0000
0000
0000
0000
0000
0000
0000
0000
;
